Ergebnis 1 bis 1 von 1

Thema: One Piece Movie 03 Special Die Koenige des Fussballs Ger-Jap-Dub Ger-Sub 2002 AC3D 1080p BluRay x264 - Uploading123

Dieser Thread wurde noch nicht bewertet. Bewerte ihn doch, wenn er dir gefällt!
  1. #1
    High Quality Anime Avatar von Uploading123
    Registriert seit
    Mar 2013
    Beiträge
    393
    Punkte
    5.475
    Level
    50
    Punkte: 5.475, Level: 50
    Level beendet: 63%, Punkte für Levelaufstieg benötigt: 75
    Aktivität: 2,0%
    Errungenschaften:
    Tagger Second Class1 year registeredRecommendation Second Class5000 Experience Points

    One Piece Movie 03 Special Die Koenige des Fussballs Ger-Jap-Dub Ger-Sub 2002 AC3D 1080p BluRay x264 - Uploading123


    One Piece Movie 03 Special Die Koenige des Fussballs German 2002 DL AC3D 1080p BluRay x264 - Uploading123




    Wer wird den Grand Line Cup mit nach Hause tragen? Wir sind im Finale und im Elfmeterschießen. Spannung pur. Ruffy und seine Bande müssen gegen eine Mannschaft voller Bösewichte antreten. u.a. der rachsüchtige Captain Buggy. Ein sehr witziges Spiel mit lustigen "Torschussarten".


    Größe: 619 MB
    Laufzeit: 5 Minuten 33 Sekunden
    Auflösung: 1920x1080
    Bitrate: 15.6 Mbps
    Bittiefe: 8-Bit
    Audio: AC3
    Format: mkv
    Codec: x264
    Sprache: Deutsch // Japanisch
    Untertitel: Deutsch Forced // Deutsch Full
    Release Group: Uploading123

    Mediainfo
    SpoilerSpoiler anzeigen

    General
    Unique ID : 34459603609963779788540122794925695929 (0x19ECADA18E985CF5BDF8C588FA5323B9)
    Complete name : One Piece Movie 03 Special Die Koenige des Fussballs German 2002 DL AC3D 1080p BluRay x264 - Uploading123.mkv
    Format : Matroska
    Format version : Version 4 / Version 2
    File size : 619 MiB
    Duration : 5mn 33s
    Overall bit rate : 15.6 Mbps
    Movie name : One Piece Movie 03 Special Die Koenige des Fussballs German 2002 DL AC3D 1080p BluRay x264 - Uploading123
    Encoded date : UTC 2014-03-30 11:03:31
    Writing application : mkvmerge v6.8.0 ('Theme for Great Cities') 64bit built on Mar 3 2014 1632
    Writing library : libebml v1.3.0 + libmatroska v1.4.1

    Video
    ID : 1
    Format : AVC
    Format/Info : Advanced Video Codec
    Format profile : High@L5.2
    Format settings, CABAC : Yes
    Format settings, ReFrames : 4 frames
    Codec ID : V_MPEG4/ISO/AVC
    Duration : 5mn 33s
    Bit rate : 14.4 Mbps
    Width : 1 920 pixels
    Height : 1 080 pixels
    Display aspect ratio : 16:9
    Frame rate mode : Constant
    Frame rate : 23.976 fps
    Color space : YUV
    Chroma subsampling : 4:2:0
    Bit depth : 8 bits
    Scan type : Progressive
    Bits/(Pixel*Frame) : 0.290
    Stream size : 573 MiB (93%)
    Writing library : x264 core 138 r2358 9e941d1
    Encoding settings : cabac=1 / ref=3 / deblock=1:0:0 / analyse=0x3:0x133 / me=tesa / subme=10 / psy=1 / psy_rd=1.00:0.00 / mixed_ref=1 / me_range=16 / chroma_me=1 / trellis=2 / 8x8dct=1 / cqm=0 / deadzone=21,11 / fast_pskip=1 / chroma_qp_offset=-2 / threads=12 / lookahead_threads=1 / sliced_threads=0 / nr=0 / decimate=1 / interlaced=0 / bluray_compat=0 / constrained_intra=0 / bframes=3 / b_pyramid=2 / b_adapt=2 / b_bias=0 / direct=1 / weightb=1 / open_gop=0 / weightp=2 / keyint=240 / keyint_min=24 / scenecut=40 / intra_refresh=0 / rc_lookahead=40 / rc=crf / mbtree=1 / crf=16.0 / qcomp=0.60 / qpmin=0 / qpmax=69 / qpstep=4 / vbv_maxrate=62500 / vbv_bufsize=78125 / crf_max=0.0 / nal_hrd=none / ip_ratio=1.40 / aq=1:1.00
    Language : English
    Default : Yes
    Forced : No
    Color primaries : BT.709
    Transfer characteristics : BT.709
    Matrix coefficients : BT.709

    Audio #1
    ID : 2
    Format : AC-3
    Format/Info : Audio Coding 3
    Mode extension : CM (complete main)
    Format settings, Endianness : Big
    Codec ID : A_AC3
    Duration : 5mn 33s
    Bit rate mode : Constant
    Bit rate : 192 Kbps
    Channel count : 2 channels
    Channel positions : Front: L R
    Sampling rate : 48.0 KHz
    Bit depth : 16 bits
    Compression mode : Lossy
    Stream size : 7.63 MiB (1%)
    Title : Deutsch
    Language : German
    Default : Yes
    Forced : Yes

    Audio #2
    ID : 3
    Format : AC-3
    Format/Info : Audio Coding 3
    Format profile : Dolby Digital
    Mode extension : CM (complete main)
    Format settings, Endianness : Big
    Codec ID : A_AC3
    Duration : 5mn 33s
    Bit rate mode : Constant
    Bit rate : 640 Kbps
    Channel count : 2 channels
    Channel positions : Front: L R
    Sampling rate : 48.0 KHz
    Bit depth : 16 bits
    Compression mode : Lossy
    Stream size : 25.4 MiB (4%)
    Title : Japanisch
    Language : Japanese
    Default : No
    Forced : No

    Text #1
    ID : 4
    Format : ASS
    Codec ID : S_TEXT/ASS
    Codec ID/Info : Advanced Sub Station Alpha
    Compression mode : Lossless
    Title : Deutsch Forced
    Language : German
    Default : Yes
    Forced : Yes

    Text #2
    ID : 5
    Format : ASS
    Codec ID : S_TEXT/ASS
    Codec ID/Info : Advanced Sub Station Alpha
    Compression mode : Lossless
    Title : Deutsch Full
    Language : German
    Default : No
    Forced : No


    Mirrors kompatibel

    Geschützter Bereich - Bedanke dich beim Poster, um den Bereich sehen zu können
    Hier erfährst Du wie Du Dich bedanken kannst oder werde jetzt Premium Mitglied ab einer Spende von 5€ und erhalte sofortigen Zugriff auf den Downloadbereich!


    Geschützter Bereich - Bedanke dich beim Poster, um den Bereich sehen zu können
    Hier erfährst Du wie Du Dich bedanken kannst oder werde jetzt Premium Mitglied ab einer Spende von 5€ und erhalte sofortigen Zugriff auf den Downloadbereich!



    SpoilerSpoiler anzeigen
    Insanity

    // INAKTIV //
    // KEIN SUPPORT MEHR //
    // WAS OFFLINE IST, BLEIBT OFFLINE //

  2. 10 Benutzer sagen Danke:

    Alucard1994 (7. June 2014),Farelliser (3. August 2014),holger (10. August 2014),Keldaan (2. April 2014),mariokeks (21. May 2014),minimalistix (31. March 2014),ruffy1989 (12. July 2014),Simon Jack (12. April 2014),volker027 (10. April 2014),Zaisen (10. April 2014)

  3. Werbung-chan
    Ich unterstütze nur Animes.so Avatar von Werbung-chan

    AW: One Piece Movie 03 Special Die Koenige des Fussballs Ger-Jap-Dub Ger-Sub 2002 AC3D 1080p BluRay x264 - Uploading123

     

Lesezeichen

Berechtigungen

  • Neue Themen erstellen: Nein
  • Themen beantworten: Nein
  • Anhänge hochladen: Nein
  • Beiträge bearbeiten: Nein
  •  

Votet für Animes.so


1 2 3 4 5 6 7 8 9 10 11 12 13 14 15 16 17 18 19 20 21 22 23 24 25 26 27 28 29 30 31 32 33 34 35 36 37 38 39 40 41 42 43 44 45 46 47 48 49 50 51 52 53 54 55 56 57 58 59 60 61 62 63 64 65 66 67 68 69 70 71 72 73 74 75 76 77 78 79 80 81 82 83 84 85 86 87 88 89 90 91 92 93 94 95 96 97 98 99 100 101 102 103 104 105 106 107 108 109 110 111 112 113 114 115 116 117 118 119 120 121 122 123 124 125 126 127 128 129 130 131 132 133 134 135 136 137 138 139