Ergebnis 1 bis 1 von 1

Thema: Aa! Megami-sama (2005) [Ger-Jap-Eng-Fre-Dub][Ger-Eng-Fre-Sub][DVDRip]-Miri-chan

Dieser Thread wurde noch nicht bewertet. Bewerte ihn doch, wenn er dir gefällt!
  1. #1
    United we Stand Avatar von 00Ryuji00
    Registriert seit
    Oct 2012
    Beiträge
    3.902
    Punkte
    100.092
    Errungenschaften:
    TomodachisGang LeaderHikikomoriTagger Amateur50000 Erfahrungspunkte

    Aa! Megami-sama (2005) [Ger-Jap-Eng-Fre-Dub][Ger-Eng-Fre-Sub][DVDRip]-Miri-chan


    Aa! Megami-sama (2005)
    ああっ女神さまっ (2005)
    Ah! My Goddess TV
    Oh! My Goddess






    Kurzbeschreibung:
    Zitat Zitat von AniSearch.com
    Morisato Keiichi ist ein vom Pech verfolgter College-Student und das nicht nur bei seinem kläglichen Versuch eines Dates mit der reichen und beliebten Kommilitonin Mishima Sayoko. Während seine Freunde auf einer Party sind, schiebt er im Studentenwohnheim Telefondienst - doch als er sich von einem Pizza-Bringdienst sein Abendessen kommen lassen will, ist er plötzlich mit dem Göttinnen-Hilfsdienst verbunden! Durch den Spiegel seines Zimmers schwebt die Göttin Belldandy herein, um ihm einen Wunsch zu erfüllen. Keiichi glaubt an einen Trick seiner Freunde - doch sein Wunsch ist spontan und kommt von Herzen: Eine solche Göttin für immer an seiner Seite zu haben! Sekunden später ist der Vertrag geschlossen und von Gott besiegelt...


    Spieldauer: 24min
    Genre: Romantische Komödie
    Nebengenres: Fantasy, Komödie, Romanze, Scifi
    Jahr: 2005
    Sprache: Deutsch, Englisch, Japanisch, Französisch
    Untertitel: Deutsch, Englisch, Französisch
    Größe pro Folge: ~303 MiB
    Episodenanzahl: 24/24 + 2/2
    Format: MKV
    Auflösung: 480p (16:9)
    Videocodec: x264 (AVC)
    Audiocodec: Vorbis
    Releasegruppe: Miri-Chan
    Hoster: Share-Online, Uploaded


    MediaInfo
    Code:
    
    Format                                   : Matroska
    Format version                           : Version 1
    File size                                : 303 MiB
    Duration                                 : 24mn 15s
    Overall bit rate mode                    : Variable
    Overall bit rate                         : 1 746 Kbps
    Encoded date                             : UTC 2007-01-31 20:08:52
    Writing application                      : mkvmerge v2.0.0 ('After The Rain Has Fallen') built on Jan 13 2007 19:58:56
    Writing library                          : libebml v0.7.7 + libmatroska v0.8.0
    Attachements                             : ITCKRIST.TTF / ITCKRIST.TTF
    
    Video
    ID                                       : 1
    Format                                   : AVC
    Format/Info                              : Advanced Video Codec
    Format profile                           : [email protected]
    Format settings, CABAC                   : Yes
    Format settings, ReFrames                : 11 frames
    Codec ID                                 : V_MPEG4/ISO/AVC
    Duration                                 : 24mn 15s
    Bit rate                                 : 1 440 Kbps
    Width                                    : 704 pixels
    Height                                   : 480 pixels
    Display aspect ratio                     : 16:9
    Original display aspect ratio            : 3:2
    Frame rate mode                          : Constant
    Frame rate                               : 23.976 fps
    Color space                              : YUV
    Chroma subsampling                       : 4:2:0
    Bit depth                                : 8 bits
    Scan type                                : Progressive
    Bits/(Pixel*Frame)                       : 0.178
    Stream size                              : 239 MiB (79%)
    Title                                    : by Miri-chan
    Writing library                          : x264 core 54 svn-602M
    Encoding settings                        : cabac=1 / ref=8 / deblock=1:0:0 / analyse=0x3:0x133 / me=esa / subme=7 / brdo=1 / mixed_ref=1 / me_range=16 / chroma_me=1 / trellis=2 / 8x8dct=1 / cqm=0 / deadzone=21,11 / chroma_qp_offset=0 / slices=1 / nr=0 / decimate=1 / mbaff=0 / bframes=3 / b_pyramid=1 / b_adapt=1 / b_bias=0 / direct=1 / wpredb=1 / bime=1 / keyint=240 / keyint_min=25 / scenecut=40 / rc=2pass / bitrate=1440 / ratetol=1.0 / rceq='blurCplx^(1-qComp)' / qcomp=0.60 / qpmin=10 / qpmax=51 / qpstep=4 / cplxblur=20.0 / qblur=0.5 / ip_ratio=1.40 / pb_ratio=1.30
    Default                                  : Yes
    Forced                                   : No
    
    Audio #1
    ID                                       : 2
    Format                                   : Vorbis
    Format settings, Floor                   : 1
    Codec ID                                 : A_VORBIS
    Duration                                 : 24mn 15s
    Bit rate mode                            : Variable
    Bit rate                                 : 80.0 Kbps
    Channel(s)                               : 2 channels
    Sampling rate                            : 48.0 KHz
    Compression mode                         : Lossy
    Delay relative to video                  : 1ms
    Stream size                              : 13.9 MiB (5%)
    Title                                    : Ogg 2.0
    Writing application                      : Made with BeSweet v1.5b31
    Writing library                          : libVorbis 1.0.1 (UTC 2003-09-09)
    Language                                 : German
    Default                                  : Yes
    Forced                                   : No
    Encoded_Application/Url                  : http://DSPguru.doom9.org
    
    Audio #2
    ID                                       : 3
    Format                                   : Vorbis
    Format settings, Floor                   : 1
    Codec ID                                 : A_VORBIS
    Duration                                 : 24mn 15s
    Bit rate mode                            : Variable
    Bit rate                                 : 87.8 Kbps
    Channel(s)                               : 2 channels
    Sampling rate                            : 48.0 KHz
    Compression mode                         : Lossy
    Delay relative to video                  : 14ms
    Stream size                              : 15.2 MiB (5%)
    Title                                    : Ogg 2.0
    Writing application                      : Made with BeSweet v1.5b31
    Writing library                          : libVorbis 1.1.1/1.1.2 (UTC 2005-03-04)
    Language                                 : Japanese
    Default                                  : No
    Forced                                   : No
    Encoded_Application/Url                  : http://DSPguru.doom9.org
    
    Audio #3
    ID                                       : 4
    Format                                   : Vorbis
    Format settings, Floor                   : 1
    Codec ID                                 : A_VORBIS
    Duration                                 : 24mn 15s
    Bit rate mode                            : Variable
    Bit rate                                 : 87.8 Kbps
    Channel(s)                               : 2 channels
    Sampling rate                            : 48.0 KHz
    Compression mode                         : Lossy
    Delay relative to video                  : 14ms
    Stream size                              : 15.2 MiB (5%)
    Title                                    : Ogg 2.0
    Writing application                      : Made with BeSweet v1.5b31
    Writing library                          : libVorbis 1.1.1/1.1.2 (UTC 2005-03-04)
    Language                                 : English
    Default                                  : No
    Forced                                   : No
    Encoded_Application/Url                  : http://DSPguru.doom9.org
    
    Audio #4
    ID                                       : 5
    Format                                   : Vorbis
    Format settings, Floor                   : 1
    Codec ID                                 : A_VORBIS
    Duration                                 : 24mn 15s
    Bit rate mode                            : Variable
    Bit rate                                 : 80.0 Kbps
    Channel(s)                               : 2 channels
    Sampling rate                            : 48.0 KHz
    Compression mode                         : Lossy
    Delay relative to video                  : 20ms
    Stream size                              : 13.9 MiB (5%)
    Title                                    : Ogg 2.0
    Writing application                      : Made with BeSweet v1.5b31
    Writing library                          : libVorbis 1.0.1 (UTC 2003-09-09)
    Language                                 : French
    Default                                  : No
    Forced                                   : No
    Encoded_Application/Url                  : http://DSPguru.doom9.org
    
    Text #1
    ID                                       : 6
    Format                                   : ASS
    Codec ID                                 : S_TEXT/ASS
    Codec ID/Info                            : Advanced Sub Station Alpha
    Compression mode                         : Lossless
    Title                                    : GerDubSub
    Language                                 : German
    Default                                  : Yes
    Forced                                   : No
    
    Text #2
    ID                                       : 7
    Format                                   : UTF-8
    Codec ID                                 : S_TEXT/UTF8
    Codec ID/Info                            : UTF-8 Plain Text
    Title                                    : SRT
    Language                                 : German
    Default                                  : No
    Forced                                   : No
    
    Text #3
    ID                                       : 8
    Format                                   : UTF-8
    Codec ID                                 : S_TEXT/UTF8
    Codec ID/Info                            : UTF-8 Plain Text
    Title                                    : SRT
    Language                                 : English
    Default                                  : No
    Forced                                   : No
    
    Text #4
    ID                                       : 9
    Format                                   : UTF-8
    Codec ID                                 : S_TEXT/UTF8
    Codec ID/Info                            : UTF-8 Plain Text
    Title                                    : SRT
    Language                                 : French
    Default                                  : No
    Forced                                   : No
    
    




    Geschützter Bereich - Bedanke dich beim Poster, um den Bereich sehen zu können
    Hier erfährst Du wie Du Dich bedanken kannst oder werde jetzt Premium Mitglied ab einer Spende von 5€ und erhalte sofortigen Zugriff auf den Downloadbereich!

    [Links sind nur für registrierte und aktivierte Nutzer sichtbar. Klicke hier um dich zu registrieren.]
    !!!Alle Anliegen bezüglich Uploads werden nur mit direktem Threadlink zum Angebot bearbeitet!!!

    Re-Uploadanfragen nur per PN - Ihr könnt mir auch Listen schicken

    Re-Uploads folgen nach Anfrage meist am Wochenende

    [Links sind nur für registrierte und aktivierte Nutzer sichtbar. Klicke hier um dich zu registrieren.] | [Links sind nur für registrierte und aktivierte Nutzer sichtbar. Klicke hier um dich zu registrieren.] | >[Links sind nur für registrierte und aktivierte Nutzer sichtbar. Klicke hier um dich zu registrieren.]<
    [Links sind nur für registrierte und aktivierte Nutzer sichtbar. Klicke hier um dich zu registrieren.]

  2. 15 Benutzer sagen Danke:

    679647 (28. October 2016),Aisha (5. December 2016),Aluaran (4. May 2016),Arekusu (5. May 2016),ayadaph2006 (6. May 2016),Coolwars (10. July 2016),Dall (11. May 2016),Eight (5. May 2016),GiftGasBaer (23. May 2016),JoleenLovesMina (2. June 2016),Larsinho (13. June 2016),midnighter (5. September 2016),PaDDy92 (4. May 2016),WolfsBlade (4. May 2016),XxGurkeHDxX (22. September 2016)

Lesezeichen

Berechtigungen

  • Neue Themen erstellen: Nein
  • Themen beantworten: Nein
  • Anhänge hochladen: Nein
  • Beiträge bearbeiten: Nein
  •  

1 2 3 4 5 6 7 8 9 10 11 12 13 14 15 16 17 18 19 20 21 22 23 24 25 26 27 28 29 30 31 32 33 34 35 36 37 38 39 40 41 42 43 44 45 46 47 48 49 50 51 52 53 54 55 56 57 58 59 60 61 62 63 64 65 66 67 68 69 70 71 72 73 74 75 76 77 78 79 80 81 82 83 84 85 86 87 88 89 90 91 92 93 94 95 96 97 98 99 100 101 102 103 104 105 106 107 108 109 110 111 112 113 114 115 116 117 118 119 120 121 122 123 124 125 126 127 128 129 130 131 132 133 134 135 136 137 138 139 140 141 142 143 144 145 146 147 148 149 150 151 152 153 154 155 156 157 158