Ergebnis 1 bis 2 von 2

Thema: Abenobashi Mahou Shoutengai [Ger-Jap-Dub][Ger-Sub][AC3/DTS-HD][720p/1080p][BluRay] - AST4u

Dieser Thread wurde noch nicht bewertet. Bewerte ihn doch, wenn er dir gefällt!
  1. #1
    United we Stand Avatar von 00Ryuji00
    Registriert seit
    Oct 2012
    Beiträge
    3.896
    Punkte
    99.519
    Errungenschaften:
    TomodachisGang LeaderHikikomoriTagger Amateur50000 Erfahrungspunkte

    Abenobashi Mahou Shoutengai [Ger-Jap-Dub][Ger-Sub][AC3/DTS-HD][720p/1080p][BluRay] - AST4u


    Abenobashi Mahou Shoutengai

    アベノ橋魔法☆商店街
    Magical Shopping Arcade Abenobashi
    Abenobashi: Magical Shopping Arcade






    Kurzbeschreibung:
    Zitat Zitat von AniSearch.com
    Satoshi Imamiya und Arumi Asahina leben im Abenobashi Einkaufsviertel in Osaka. Eines Tages werden sie plötzlich in ein Paralleluniversum, dem Abenobashi mahou Shoutengai - das magische Abenobashi Einkaufsviertel - gezogen. Sodann beginnt für sie eine abgefahrene Reise durch sehr verwirrende und schräge Paralleluniversen, in denen ihre Freunde und Bekannten in immer anderen Rollen wieder auftauchen. Sie versuchen immer wieder diesen Welten zu entfliehen, aber anstatt immer wie versprochen zu Hause zu landen, landen sie abermals wieder in einer Parallelwelt.

    Eine witzige, abgedrehte Parodie auf alle möglichen Animes, Filme und Games mit liebenswürdigen und gut ausgearbeiteten Hauptcharakteren.


    Spieldauer: 24min
    Genre: Komödie
    Nebengenres: Abenteuer, Action, Ecchi, Fantasy, Komödie, Scifi
    Jahr: 2002
    Sprache: Deutsch, Japanisch
    Untertitel: Deutsch
    Größe pro Folge: ~385 MiB ~654 MiB ~1.08 GiB
    Episodenanzahl: 13/13
    Format: MKV
    Auflösung: 720p (16:9), 1080p (16:9)
    Videocodec: x264 (AVC)
    Audiocodec: AC-3, DTS, PCM
    Releasegruppe: AST4u
    Hoster: Share-Online, Uploaded


    MediaInfo
    720p
    Code:
    
    Format                                   : Matroska
    Format version                           : Version 4 / Version 2
    File size                                : 385 MiB
    Duration                                 : 24mn 17s
    Overall bit rate                         : 2 219 Kbps
    Encoded date                             : UTC 2016-06-04 16:24:53
    Writing application                      : mkvmerge v8.2.0 ('World of Adventure') 32bit
    Writing library                          : libebml v1.3.1 + libmatroska v1.4.2
    DURATION                                 : 00:24:16.960000000
    NUMBER_OF_FRAMES                         : 45530
    NUMBER_OF_BYTES                          : 81589760
    _STATISTICS_WRITING_APP                  : mkvmerge v8.2.0 ('World of Adventure') 32bit
    _STATISTICS_WRITING_DATE_UTC             : 2016-06-04 16:24:53
    _STATISTICS_TAGS                         : BPS DURATION NUMBER_OF_FRAMES NUMBER_OF_BYTES
    
    Video
    ID                                       : 3
    Format                                   : AVC
    Format/Info                              : Advanced Video Codec
    Format profile                           : [email protected]
    Format settings, CABAC                   : Yes
    Format settings, ReFrames                : 6 frames
    Codec ID                                 : V_MPEG4/ISO/AVC
    Duration                                 : 24mn 17s
    Bit rate                                 : 1 279 Kbps
    Width                                    : 1 280 pixels
    Height                                   : 720 pixels
    Display aspect ratio                     : 16:9
    Frame rate mode                          : Constant
    Frame rate                               : 29.970 fps
    Color space                              : YUV
    Chroma subsampling                       : 4:2:0
    Bit depth                                : 8 bits
    Scan type                                : Progressive
    Bits/(Pixel*Frame)                       : 0.046
    Stream size                              : 222 MiB (58%)
    Writing library                          : x264 core 148 r2638 7599210
    Encoding settings                        : cabac=1 / ref=6 / deblock=1:1:1 / analyse=0x3:0x113 / me=hex / subme=9 / psy=1 / psy_rd=0.40:0.00 / mixed_ref=1 / me_range=16 / chroma_me=1 / trellis=1 / 8x8dct=1 / cqm=0 / deadzone=21,11 / fast_pskip=1 / chroma_qp_offset=-2 / threads=12 / lookahead_threads=1 / sliced_threads=0 / nr=0 / decimate=1 / interlaced=0 / bluray_compat=0 / constrained_intra=0 / bframes=5 / b_pyramid=2 / b_adapt=2 / b_bias=0 / direct=1 / weightb=1 / open_gop=0 / weightp=2 / keyint=300 / keyint_min=29 / scenecut=40 / intra_refresh=0 / rc_lookahead=40 / rc=crf / mbtree=1 / crf=16.0 / qcomp=0.60 / qpmin=0 / qpmax=69 / qpstep=4 / vbv_maxrate=62500 / vbv_bufsize=78125 / crf_max=0.0 / nal_hrd=none / filler=0 / ip_ratio=1.40 / aq=1:0.60
    Default                                  : Yes
    Forced                                   : No
    
    Audio #1
    ID                                       : 4
    Format                                   : AC-3
    Format/Info                              : Audio Coding 3
    Mode extension                           : CM (complete main)
    Format settings, Endianness              : Big
    Codec ID                                 : A_AC3
    Duration                                 : 24mn 17s
    Bit rate mode                            : Constant
    Bit rate                                 : 448 Kbps
    Channel(s)                               : 6 channels
    Channel positions                        : Front: L C R, Side: L R, LFE
    Sampling rate                            : 48.0 KHz
    Compression mode                         : Lossy
    Stream size                              : 77.8 MiB (20%)
    Language                                 : German
    Default                                  : Yes
    Forced                                   : No
    
    Audio #2
    ID                                       : 5
    Format                                   : AC-3
    Format/Info                              : Audio Coding 3
    Mode extension                           : CM (complete main)
    Format settings, Endianness              : Big
    Codec ID                                 : A_AC3
    Duration                                 : 24mn 17s
    Bit rate mode                            : Constant
    Bit rate                                 : 448 Kbps
    Channel(s)                               : 2 channels
    Channel positions                        : Front: L R
    Sampling rate                            : 48.0 KHz
    Compression mode                         : Lossy
    Stream size                              : 77.8 MiB (20%)
    Language                                 : Japanese
    Default                                  : No
    Forced                                   : No
    
    Text #1
    ID                                       : 1
    Format                                   : PGS
    Muxing mode                              : zlib
    Codec ID                                 : S_HDMV/PGS
    Codec ID/Info                            : Picture based subtitle format used on BDs/HD-DVDs
    Default                                  : Yes
    Forced                                   : No
    
    Text #2
    ID                                       : 2
    Format                                   : PGS
    Muxing mode                              : zlib
    Codec ID                                 : S_HDMV/PGS
    Codec ID/Info                            : Picture based subtitle format used on BDs/HD-DVDs
    Default                                  : No
    Forced                                   : No
    
    


    1080p AC3
    Code:
    
    Format                                   : Matroska
    Format version                           : Version 4 / Version 2
    File size                                : 654 MiB
    Duration                                 : 24mn 17s
    Overall bit rate                         : 3 766 Kbps
    Encoded date                             : UTC 2016-06-04 10:22:37
    Writing application                      : mkvmerge v8.1.0 ('Psychedelic Postcard') 64bit
    Writing library                          : libebml v1.3.1 + libmatroska v1.4.2
    DURATION                                 : 00:24:16.960000000
    NUMBER_OF_FRAMES                         : 45530
    NUMBER_OF_BYTES                          : 81589760
    _STATISTICS_WRITING_APP                  : mkvmerge v8.1.0 ('Psychedelic Postcard') 64bit
    _STATISTICS_WRITING_DATE_UTC             : 2016-06-04 10:22:37
    _STATISTICS_TAGS                         : BPS DURATION NUMBER_OF_FRAMES NUMBER_OF_BYTES
    
    Video
    ID                                       : 3
    Format                                   : AVC
    Format/Info                              : Advanced Video Codec
    Format profile                           : [email protected]
    Format settings, CABAC                   : Yes
    Format settings, ReFrames                : 4 frames
    Codec ID                                 : V_MPEG4/ISO/AVC
    Duration                                 : 24mn 17s
    Bit rate                                 : 2 795 Kbps
    Width                                    : 1 920 pixels
    Height                                   : 1 080 pixels
    Display aspect ratio                     : 16:9
    Frame rate mode                          : Constant
    Frame rate                               : 29.970 fps
    Color space                              : YUV
    Chroma subsampling                       : 4:2:0
    Bit depth                                : 8 bits
    Scan type                                : Progressive
    Bits/(Pixel*Frame)                       : 0.045
    Stream size                              : 486 MiB (74%)
    Writing library                          : x264 core 148 r2638 7599210
    Encoding settings                        : cabac=1 / ref=4 / deblock=1:1:1 / analyse=0x3:0x113 / me=hex / subme=9 / psy=1 / psy_rd=0.40:0.00 / mixed_ref=1 / me_range=16 / chroma_me=1 / trellis=1 / 8x8dct=1 / cqm=0 / deadzone=21,11 / fast_pskip=1 / chroma_qp_offset=-2 / threads=12 / lookahead_threads=1 / sliced_threads=0 / nr=0 / decimate=1 / interlaced=0 / bluray_compat=0 / constrained_intra=0 / bframes=5 / b_pyramid=2 / b_adapt=2 / b_bias=0 / direct=1 / weightb=1 / open_gop=0 / weightp=2 / keyint=300 / keyint_min=29 / scenecut=40 / intra_refresh=0 / rc_lookahead=40 / rc=crf / mbtree=1 / crf=16.0 / qcomp=0.60 / qpmin=0 / qpmax=69 / qpstep=4 / vbv_maxrate=62500 / vbv_bufsize=78125 / crf_max=0.0 / nal_hrd=none / filler=0 / ip_ratio=1.40 / aq=1:0.60
    Default                                  : Yes
    Forced                                   : No
    
    Audio #1
    ID                                       : 4
    Format                                   : AC-3
    Format/Info                              : Audio Coding 3
    Mode extension                           : CM (complete main)
    Format settings, Endianness              : Big
    Codec ID                                 : A_AC3
    Duration                                 : 24mn 17s
    Bit rate mode                            : Constant
    Bit rate                                 : 448 Kbps
    Channel(s)                               : 6 channels
    Channel positions                        : Front: L C R, Side: L R, LFE
    Sampling rate                            : 48.0 KHz
    Compression mode                         : Lossy
    Stream size                              : 77.8 MiB (12%)
    Language                                 : German
    Default                                  : Yes
    Forced                                   : No
    
    Audio #2
    ID                                       : 5
    Format                                   : AC-3
    Format/Info                              : Audio Coding 3
    Mode extension                           : CM (complete main)
    Format settings, Endianness              : Big
    Codec ID                                 : A_AC3
    Duration                                 : 24mn 17s
    Bit rate mode                            : Constant
    Bit rate                                 : 448 Kbps
    Channel(s)                               : 2 channels
    Channel positions                        : Front: L R
    Sampling rate                            : 48.0 KHz
    Compression mode                         : Lossy
    Stream size                              : 77.8 MiB (12%)
    Language                                 : Japanese
    Default                                  : No
    Forced                                   : No
    
    Text #1
    ID                                       : 1
    Format                                   : PGS
    Muxing mode                              : zlib
    Codec ID                                 : S_HDMV/PGS
    Codec ID/Info                            : Picture based subtitle format used on BDs/HD-DVDs
    Default                                  : Yes
    Forced                                   : No
    
    Text #2
    ID                                       : 2
    Format                                   : PGS
    Muxing mode                              : zlib
    Codec ID                                 : S_HDMV/PGS
    Codec ID/Info                            : Picture based subtitle format used on BDs/HD-DVDs
    Default                                  : No
    Forced                                   : No
    
    


    1080p DTS-HD/PCM
    Code:
    
    Format                                   : Matroska
    Format version                           : Version 4 / Version 2
    File size                                : 1.08 GiB
    Duration                                 : 24mn 17s
    Overall bit rate mode                    : Variable
    Overall bit rate                         : 6 363 Kbps
    Encoded date                             : UTC 2016-06-04 10:22:53
    Writing application                      : mkvmerge v8.1.0 ('Psychedelic Postcard') 64bit
    Writing library                          : libebml v1.3.1 + libmatroska v1.4.2
    DURATION                                 : 00:24:16.922000000
    NUMBER_OF_FRAMES                         : 43664
    NUMBER_OF_BYTES                          : 516234469
    _STATISTICS_WRITING_APP                  : mkvmerge v8.1.0 ('Psychedelic Postcard') 64bit
    _STATISTICS_WRITING_DATE_UTC             : 2016-06-04 10:22:53
    _STATISTICS_TAGS                         : BPS DURATION NUMBER_OF_FRAMES NUMBER_OF_BYTES
    
    Video
    ID                                       : 5
    Format                                   : AVC
    Format/Info                              : Advanced Video Codec
    Format profile                           : [email protected]
    Format settings, CABAC                   : Yes
    Format settings, ReFrames                : 4 frames
    Codec ID                                 : V_MPEG4/ISO/AVC
    Duration                                 : 24mn 17s
    Width                                    : 1 920 pixels
    Height                                   : 1 080 pixels
    Display aspect ratio                     : 16:9
    Frame rate mode                          : Constant
    Frame rate                               : 29.970 fps
    Color space                              : YUV
    Chroma subsampling                       : 4:2:0
    Bit depth                                : 8 bits
    Scan type                                : Progressive
    Writing library                          : x264 core 148 r2638 7599210
    Encoding settings                        : cabac=1 / ref=4 / deblock=1:1:1 / analyse=0x3:0x113 / me=hex / subme=9 / psy=1 / psy_rd=0.40:0.00 / mixed_ref=1 / me_range=16 / chroma_me=1 / trellis=1 / 8x8dct=1 / cqm=0 / deadzone=21,11 / fast_pskip=1 / chroma_qp_offset=-2 / threads=12 / lookahead_threads=1 / sliced_threads=0 / nr=0 / decimate=1 / interlaced=0 / bluray_compat=0 / constrained_intra=0 / bframes=5 / b_pyramid=2 / b_adapt=2 / b_bias=0 / direct=1 / weightb=1 / open_gop=0 / weightp=2 / keyint=300 / keyint_min=29 / scenecut=40 / intra_refresh=0 / rc_lookahead=40 / rc=crf / mbtree=1 / crf=16.0 / qcomp=0.60 / qpmin=0 / qpmax=69 / qpstep=4 / vbv_maxrate=62500 / vbv_bufsize=78125 / crf_max=0.0 / nal_hrd=none / filler=0 / ip_ratio=1.40 / aq=1:0.60
    Default                                  : Yes
    Forced                                   : No
    
    Audio #1
    ID                                       : 1
    Format                                   : DTS
    Format/Info                              : Digital Theater Systems
    Format profile                           : MA / Core
    Mode                                     : 16
    Format settings, Endianness              : Big
    Codec ID                                 : A_DTS
    Duration                                 : 24mn 17s
    Bit rate mode                            : Variable
    Bit rate                                 : Unknown / 1 509 Kbps
    Channel(s)                               : 6 channels
    Channel positions                        : Front: L C R, Side: L R, LFE
    Sampling rate                            : 48.0 KHz
    Bit depth                                : 16 bits
    Compression mode                         : Lossless / Lossy
    Default                                  : Yes
    Forced                                   : No
    
    Audio #2
    ID                                       : 2
    Format                                   : PCM
    Format settings, Endianness              : Big
    Codec ID                                 : A_PCM/INT/BIG
    Duration                                 : 24mn 17s
    Bit rate mode                            : Constant
    Channel(s)                               : 2 channels
    Sampling rate                            : 48.0 KHz
    Bit depth                                : 16 bits
    Default                                  : No
    Forced                                   : No
    
    Text #1
    ID                                       : 3
    Format                                   : PGS
    Muxing mode                              : zlib
    Codec ID                                 : S_HDMV/PGS
    Codec ID/Info                            : Picture based subtitle format used on BDs/HD-DVDs
    Default                                  : Yes
    Forced                                   : No
    
    Text #2
    ID                                       : 4
    Format                                   : PGS
    Muxing mode                              : zlib
    Codec ID                                 : S_HDMV/PGS
    Codec ID/Info                            : Picture based subtitle format used on BDs/HD-DVDs
    Default                                  : No
    Forced                                   : No
    
    






    Geschützter Bereich - Bedanke dich beim Poster, um den Bereich sehen zu können
    Hier erfährst Du wie Du Dich bedanken kannst oder werde jetzt Premium Mitglied ab einer Spende von 5€ und erhalte sofortigen Zugriff auf den Downloadbereich!

    [Links sind nur für registrierte und aktivierte Nutzer sichtbar. Klicke hier um dich zu registrieren.]
    !!!Alle Anliegen bezüglich Uploads werden nur mit direktem Threadlink zum Angebot bearbeitet!!!

    Re-Uploadanfragen nur per PN - Ihr könnt mir auch Listen schicken

    Re-Uploads erfolgen meist innerhalb 24h, kann aber auch bis zu 7 Tage dauern

    [Links sind nur für registrierte und aktivierte Nutzer sichtbar. Klicke hier um dich zu registrieren.] | [Links sind nur für registrierte und aktivierte Nutzer sichtbar. Klicke hier um dich zu registrieren.] | >[Links sind nur für registrierte und aktivierte Nutzer sichtbar. Klicke hier um dich zu registrieren.]<
    [Links sind nur für registrierte und aktivierte Nutzer sichtbar. Klicke hier um dich zu registrieren.]

  2. 4 Benutzer sagen Danke:

    Athavar (3. November 2016),Mr.Shit (15. October 2016),nabou (15. October 2016),Yeezy (27. October 2016)

  3. #2
    Uploader Avatar von Masaru
    Registriert seit
    Jan 2016
    Ort
    neumünster
    Beiträge
    453
    Punkte
    11.993
    Errungenschaften:
    10000 ErfahrungspunkteSenpai

    Abenobashi Mahou Shoutengai [Ger-Jap-Dub][Ger-Sub][720p][1080p][BluRay] - AST4u


    Abenobashi Mahou Shoutengai
    アベノ橋魔法☆商店街
    Magical Shopping Arcade Abenobashi
    Abenobashi: Magical Shopping Arcade






    Kurzbeschreibung:
    Zitat Zitat von AniSearch.com
    Satoshi Imamiya und Arumi Asahina leben im Abenobashi Einkaufsviertel in Osaka. Eines Tages werden sie plötzlich in ein Paralleluniversum, dem Abenobashi mahou Shoutengai - das magische Abenobashi Einkaufsviertel - gezogen. Sodann beginnt für sie eine abgefahrene Reise durch sehr verwirrende und schräge Paralleluniversen, in denen ihre Freunde und Bekannten in immer anderen Rollen wieder auftauchen. Sie versuchen immer wieder diesen Welten zu entfliehen, aber anstatt immer wie versprochen zu Hause zu landen, landen sie abermals wieder in einer Parallelwelt.

    Eine witzige, abgedrehte Parodie auf alle möglichen Animes, Filme und Games mit liebenswürdigen und gut ausgearbeiteten Hauptcharakteren.


    Spieldauer: 24min
    Genre: Komödie
    Nebengenres: Abenteuer, Action, Ecchi, Fantasy, Komödie, Scifi
    Jahr: 2002
    Sprache: Deutsch, Japanisch
    Untertitel: Deutsch
    Größe pro Folge: ~385 MiB ~654 MiB ~1.08 GiB
    Episodenanzahl: 13/13
    Format: MKV
    Auflösung: 720p (16:9), 1080p (16:9)
    Videocodec: x264 (AVC)
    Audiocodec: AC-3 2.0 Japanisch, AC-3 5.1 Deutsch, PCM 2.0 Japanisch, DTS 5.1 Deutsch
    Releasegruppe: AST4u
    Hoster: Uploaded, Share-Online


    MediaInfo
    720p
    Code:
    
    Format                                   : Matroska
    Format version                           : Version 4 / Version 2
    File size                                : 385 MiB
    Duration                                 : 24mn 17s
    Overall bit rate                         : 2 219 Kbps
    Encoded date                             : UTC 2016-06-04 16:24:53
    Writing application                      : mkvmerge v8.2.0 ('World of Adventure') 32bit
    Writing library                          : libebml v1.3.1 + libmatroska v1.4.2
    DURATION                                 : 00:24:16.960000000
    NUMBER_OF_FRAMES                         : 45530
    NUMBER_OF_BYTES                          : 81589760
    _STATISTICS_WRITING_APP                  : mkvmerge v8.2.0 ('World of Adventure') 32bit
    _STATISTICS_WRITING_DATE_UTC             : 2016-06-04 16:24:53
    _STATISTICS_TAGS                         : BPS DURATION NUMBER_OF_FRAMES NUMBER_OF_BYTES
    
    Video
    ID                                       : 3
    Format                                   : AVC
    Format/Info                              : Advanced Video Codec
    Format profile                           : [email protected]
    Format settings, CABAC                   : Yes
    Format settings, ReFrames                : 6 frames
    Codec ID                                 : V_MPEG4/ISO/AVC
    Duration                                 : 24mn 17s
    Bit rate                                 : 1 279 Kbps
    Width                                    : 1 280 pixels
    Height                                   : 720 pixels
    Display aspect ratio                     : 16:9
    Frame rate mode                          : Constant
    Frame rate                               : 29.970 fps
    Color space                              : YUV
    Chroma subsampling                       : 4:2:0
    Bit depth                                : 8 bits
    Scan type                                : Progressive
    Bits/(Pixel*Frame)                       : 0.046
    Stream size                              : 222 MiB (58%)
    Writing library                          : x264 core 148 r2638 7599210
    Encoding settings                        : cabac=1 / ref=6 / deblock=1:1:1 / analyse=0x3:0x113 / me=hex / subme=9 / psy=1 / psy_rd=0.40:0.00 / mixed_ref=1 / me_range=16 / chroma_me=1 / trellis=1 / 8x8dct=1 / cqm=0 / deadzone=21,11 / fast_pskip=1 / chroma_qp_offset=-2 / threads=12 / lookahead_threads=1 / sliced_threads=0 / nr=0 / decimate=1 / interlaced=0 / bluray_compat=0 / constrained_intra=0 / bframes=5 / b_pyramid=2 / b_adapt=2 / b_bias=0 / direct=1 / weightb=1 / open_gop=0 / weightp=2 / keyint=300 / keyint_min=29 / scenecut=40 / intra_refresh=0 / rc_lookahead=40 / rc=crf / mbtree=1 / crf=16.0 / qcomp=0.60 / qpmin=0 / qpmax=69 / qpstep=4 / vbv_maxrate=62500 / vbv_bufsize=78125 / crf_max=0.0 / nal_hrd=none / filler=0 / ip_ratio=1.40 / aq=1:0.60
    Default                                  : Yes
    Forced                                   : No
    
    Audio #1
    ID                                       : 4
    Format                                   : AC-3
    Format/Info                              : Audio Coding 3
    Mode extension                           : CM (complete main)
    Format settings, Endianness              : Big
    Codec ID                                 : A_AC3
    Duration                                 : 24mn 17s
    Bit rate mode                            : Constant
    Bit rate                                 : 448 Kbps
    Channel(s)                               : 6 channels
    Channel positions                        : Front: L C R, Side: L R, LFE
    Sampling rate                            : 48.0 KHz
    Compression mode                         : Lossy
    Stream size                              : 77.8 MiB (20%)
    Language                                 : German
    Default                                  : Yes
    Forced                                   : No
    
    Audio #2
    ID                                       : 5
    Format                                   : AC-3
    Format/Info                              : Audio Coding 3
    Mode extension                           : CM (complete main)
    Format settings, Endianness              : Big
    Codec ID                                 : A_AC3
    Duration                                 : 24mn 17s
    Bit rate mode                            : Constant
    Bit rate                                 : 448 Kbps
    Channel(s)                               : 2 channels
    Channel positions                        : Front: L R
    Sampling rate                            : 48.0 KHz
    Compression mode                         : Lossy
    Stream size                              : 77.8 MiB (20%)
    Language                                 : Japanese
    Default                                  : No
    Forced                                   : No
    
    Text #1
    ID                                       : 1
    Format                                   : PGS
    Muxing mode                              : zlib
    Codec ID                                 : S_HDMV/PGS
    Codec ID/Info                            : Picture based subtitle format used on BDs/HD-DVDs
    Default                                  : Yes
    Forced                                   : No
    
    Text #2
    ID                                       : 2
    Format                                   : PGS
    Muxing mode                              : zlib
    Codec ID                                 : S_HDMV/PGS
    Codec ID/Info                            : Picture based subtitle format used on BDs/HD-DVDs
    Default                                  : No
    Forced                                   : No
    
    


    1080p AC3
    Code:
    
    Format                                   : Matroska
    Format version                           : Version 4 / Version 2
    File size                                : 654 MiB
    Duration                                 : 24mn 17s
    Overall bit rate                         : 3 766 Kbps
    Encoded date                             : UTC 2016-06-04 10:22:37
    Writing application                      : mkvmerge v8.1.0 ('Psychedelic Postcard') 64bit
    Writing library                          : libebml v1.3.1 + libmatroska v1.4.2
    DURATION                                 : 00:24:16.960000000
    NUMBER_OF_FRAMES                         : 45530
    NUMBER_OF_BYTES                          : 81589760
    _STATISTICS_WRITING_APP                  : mkvmerge v8.1.0 ('Psychedelic Postcard') 64bit
    _STATISTICS_WRITING_DATE_UTC             : 2016-06-04 10:22:37
    _STATISTICS_TAGS                         : BPS DURATION NUMBER_OF_FRAMES NUMBER_OF_BYTES
    
    Video
    ID                                       : 3
    Format                                   : AVC
    Format/Info                              : Advanced Video Codec
    Format profile                           : [email protected]
    Format settings, CABAC                   : Yes
    Format settings, ReFrames                : 4 frames
    Codec ID                                 : V_MPEG4/ISO/AVC
    Duration                                 : 24mn 17s
    Bit rate                                 : 2 795 Kbps
    Width                                    : 1 920 pixels
    Height                                   : 1 080 pixels
    Display aspect ratio                     : 16:9
    Frame rate mode                          : Constant
    Frame rate                               : 29.970 fps
    Color space                              : YUV
    Chroma subsampling                       : 4:2:0
    Bit depth                                : 8 bits
    Scan type                                : Progressive
    Bits/(Pixel*Frame)                       : 0.045
    Stream size                              : 486 MiB (74%)
    Writing library                          : x264 core 148 r2638 7599210
    Encoding settings                        : cabac=1 / ref=4 / deblock=1:1:1 / analyse=0x3:0x113 / me=hex / subme=9 / psy=1 / psy_rd=0.40:0.00 / mixed_ref=1 / me_range=16 / chroma_me=1 / trellis=1 / 8x8dct=1 / cqm=0 / deadzone=21,11 / fast_pskip=1 / chroma_qp_offset=-2 / threads=12 / lookahead_threads=1 / sliced_threads=0 / nr=0 / decimate=1 / interlaced=0 / bluray_compat=0 / constrained_intra=0 / bframes=5 / b_pyramid=2 / b_adapt=2 / b_bias=0 / direct=1 / weightb=1 / open_gop=0 / weightp=2 / keyint=300 / keyint_min=29 / scenecut=40 / intra_refresh=0 / rc_lookahead=40 / rc=crf / mbtree=1 / crf=16.0 / qcomp=0.60 / qpmin=0 / qpmax=69 / qpstep=4 / vbv_maxrate=62500 / vbv_bufsize=78125 / crf_max=0.0 / nal_hrd=none / filler=0 / ip_ratio=1.40 / aq=1:0.60
    Default                                  : Yes
    Forced                                   : No
    
    Audio #1
    ID                                       : 4
    Format                                   : AC-3
    Format/Info                              : Audio Coding 3
    Mode extension                           : CM (complete main)
    Format settings, Endianness              : Big
    Codec ID                                 : A_AC3
    Duration                                 : 24mn 17s
    Bit rate mode                            : Constant
    Bit rate                                 : 448 Kbps
    Channel(s)                               : 6 channels
    Channel positions                        : Front: L C R, Side: L R, LFE
    Sampling rate                            : 48.0 KHz
    Compression mode                         : Lossy
    Stream size                              : 77.8 MiB (12%)
    Language                                 : German
    Default                                  : Yes
    Forced                                   : No
    
    Audio #2
    ID                                       : 5
    Format                                   : AC-3
    Format/Info                              : Audio Coding 3
    Mode extension                           : CM (complete main)
    Format settings, Endianness              : Big
    Codec ID                                 : A_AC3
    Duration                                 : 24mn 17s
    Bit rate mode                            : Constant
    Bit rate                                 : 448 Kbps
    Channel(s)                               : 2 channels
    Channel positions                        : Front: L R
    Sampling rate                            : 48.0 KHz
    Compression mode                         : Lossy
    Stream size                              : 77.8 MiB (12%)
    Language                                 : Japanese
    Default                                  : No
    Forced                                   : No
    
    Text #1
    ID                                       : 1
    Format                                   : PGS
    Muxing mode                              : zlib
    Codec ID                                 : S_HDMV/PGS
    Codec ID/Info                            : Picture based subtitle format used on BDs/HD-DVDs
    Default                                  : Yes
    Forced                                   : No
    
    Text #2
    ID                                       : 2
    Format                                   : PGS
    Muxing mode                              : zlib
    Codec ID                                 : S_HDMV/PGS
    Codec ID/Info                            : Picture based subtitle format used on BDs/HD-DVDs
    Default                                  : No
    Forced                                   : No
    
    


    1080p DTS 5.1-PCM
    Code:
    
    Format                                   : Matroska
    Format version                           : Version 4 / Version 2
    File size                                : 1.08 GiB
    Duration                                 : 24mn 17s
    Overall bit rate mode                    : Variable
    Overall bit rate                         : 6 363 Kbps
    Encoded date                             : UTC 2016-06-04 10:22:53
    Writing application                      : mkvmerge v8.1.0 ('Psychedelic Postcard') 64bit
    Writing library                          : libebml v1.3.1 + libmatroska v1.4.2
    DURATION                                 : 00:24:16.922000000
    NUMBER_OF_FRAMES                         : 43664
    NUMBER_OF_BYTES                          : 516234469
    _STATISTICS_WRITING_APP                  : mkvmerge v8.1.0 ('Psychedelic Postcard') 64bit
    _STATISTICS_WRITING_DATE_UTC             : 2016-06-04 10:22:53
    _STATISTICS_TAGS                         : BPS DURATION NUMBER_OF_FRAMES NUMBER_OF_BYTES
    
    Video
    ID                                       : 5
    Format                                   : AVC
    Format/Info                              : Advanced Video Codec
    Format profile                           : [email protected]
    Format settings, CABAC                   : Yes
    Format settings, ReFrames                : 4 frames
    Codec ID                                 : V_MPEG4/ISO/AVC
    Duration                                 : 24mn 17s
    Width                                    : 1 920 pixels
    Height                                   : 1 080 pixels
    Display aspect ratio                     : 16:9
    Frame rate mode                          : Constant
    Frame rate                               : 29.970 fps
    Color space                              : YUV
    Chroma subsampling                       : 4:2:0
    Bit depth                                : 8 bits
    Scan type                                : Progressive
    Writing library                          : x264 core 148 r2638 7599210
    Encoding settings                        : cabac=1 / ref=4 / deblock=1:1:1 / analyse=0x3:0x113 / me=hex / subme=9 / psy=1 / psy_rd=0.40:0.00 / mixed_ref=1 / me_range=16 / chroma_me=1 / trellis=1 / 8x8dct=1 / cqm=0 / deadzone=21,11 / fast_pskip=1 / chroma_qp_offset=-2 / threads=12 / lookahead_threads=1 / sliced_threads=0 / nr=0 / decimate=1 / interlaced=0 / bluray_compat=0 / constrained_intra=0 / bframes=5 / b_pyramid=2 / b_adapt=2 / b_bias=0 / direct=1 / weightb=1 / open_gop=0 / weightp=2 / keyint=300 / keyint_min=29 / scenecut=40 / intra_refresh=0 / rc_lookahead=40 / rc=crf / mbtree=1 / crf=16.0 / qcomp=0.60 / qpmin=0 / qpmax=69 / qpstep=4 / vbv_maxrate=62500 / vbv_bufsize=78125 / crf_max=0.0 / nal_hrd=none / filler=0 / ip_ratio=1.40 / aq=1:0.60
    Default                                  : Yes
    Forced                                   : No
    
    Audio #1
    ID                                       : 1
    Format                                   : DTS
    Format/Info                              : Digital Theater Systems
    Format profile                           : MA / Core
    Mode                                     : 16
    Format settings, Endianness              : Big
    Codec ID                                 : A_DTS
    Duration                                 : 24mn 17s
    Bit rate mode                            : Variable
    Bit rate                                 : Unknown / 1 509 Kbps
    Channel(s)                               : 6 channels
    Channel positions                        : Front: L C R, Side: L R, LFE
    Sampling rate                            : 48.0 KHz
    Bit depth                                : 16 bits
    Compression mode                         : Lossless / Lossy
    Default                                  : Yes
    Forced                                   : No
    
    Audio #2
    ID                                       : 2
    Format                                   : PCM
    Format settings, Endianness              : Big
    Codec ID                                 : A_PCM/INT/BIG
    Duration                                 : 24mn 17s
    Bit rate mode                            : Constant
    Channel(s)                               : 2 channels
    Sampling rate                            : 48.0 KHz
    Bit depth                                : 16 bits
    Default                                  : No
    Forced                                   : No
    
    Text #1
    ID                                       : 3
    Format                                   : PGS
    Muxing mode                              : zlib
    Codec ID                                 : S_HDMV/PGS
    Codec ID/Info                            : Picture based subtitle format used on BDs/HD-DVDs
    Default                                  : Yes
    Forced                                   : No
    
    Text #2
    ID                                       : 4
    Format                                   : PGS
    Muxing mode                              : zlib
    Codec ID                                 : S_HDMV/PGS
    Codec ID/Info                            : Picture based subtitle format used on BDs/HD-DVDs
    Default                                  : No
    Forced                                   : No
    
    






    Geschützter Bereich - Bedanke dich beim Poster, um den Bereich sehen zu können
    Hier erfährst Du wie Du Dich bedanken kannst oder werde jetzt Premium Mitglied ab einer Spende von 5€ und erhalte sofortigen Zugriff auf den Downloadbereich!

    [Links sind nur für registrierte und aktivierte Nutzer sichtbar. Klicke hier um dich zu registrieren.]
    Inaktiver Uploader!

    Alle Re-Upload-Anfragen öffentlich im [Links sind nur für registrierte und aktivierte Nutzer sichtbar. Klicke hier um dich zu registrieren.] posten!

  4. 35 Benutzer sagen Danke:

    1Ranger (11. June 2016),Aluaran (10. June 2016),Androkai (9. June 2016),Athavar (3. November 2016),brunsdumm (9. June 2016),cloud-strife20 (24. June 2016),Conopas (11. June 2016),Cy_Baer (9. June 2016),dacheff (10. June 2016),egon1212 (3. July 2016),el guyo (29. June 2016),frankra (7. July 2016),freakwatcher (9. June 2016),fullmetal1995 (15. June 2016),Griever (9. June 2016),Holzmodem (15. July 2016),Kaan- (9. June 2016),knanime (20. August 2016),Larsinho (13. June 2016),manuel4193 (9. June 2016),midnighter (17. June 2016),Mr.Shit (9. June 2016),MX-sk (17. June 2016),nabou (3. July 2016),noizmaker (16. June 2016),prinzvegeta (6. August 2016),Raziel (9. June 2016),realmadridcf (15. August 2016),Rekke (9. June 2016),Ronae (10. June 2016),Superzorro (9. June 2016),TakashiKudo (30. June 2016),Tenma90 (17. June 2016),tompace (9. June 2016),WolfsBlade (9. June 2016)

Lesezeichen

Berechtigungen

  • Neue Themen erstellen: Nein
  • Themen beantworten: Nein
  • Anhänge hochladen: Nein
  • Beiträge bearbeiten: Nein
  •  

1 2 3 4 5 6 7 8 9 10 11 12 13 14 15 16 17 18 19 20 21 22 23 24 25 26 27 28 29 30 31 32 33 34 35 36 37 38 39 40 41 42 43 44 45 46 47 48 49 50 51 52 53 54 55 56 57 58 59 60 61 62 63 64 65 66 67 68 69 70 71 72 73 74 75 76 77 78 79 80 81 82 83 84 85 86 87 88 89 90 91 92 93 94 95 96 97 98 99 100 101 102 103 104 105 106 107 108 109 110 111 112 113 114 115 116 117 118 119 120 121 122 123 124 125 126 127 128 129 130 131 132 133 134 135 136 137 138 139 140 141 142 143 144 145 146 147 148 149 150 151 152 153 154 155 156 157 158