Ergebnis 1 bis 1 von 1

Thema: Abenobashi Mahou Shoutengai [Ger-Jap-Dub][Ger-Sub][DVDRip]-AST4u

Dieser Thread wurde noch nicht bewertet. Bewerte ihn doch, wenn er dir gefällt!
  1. #1
    United we Stand Avatar von 00Ryuji00
    Registriert seit
    Oct 2012
    Beiträge
    3.896
    Punkte
    99.716
    Errungenschaften:
    TomodachisGang LeaderHikikomoriTagger Amateur50000 Erfahrungspunkte

    Abenobashi Mahou Shoutengai [Ger-Jap-Dub][Ger-Sub][DVDRip]-AST4u


    Abenobashi Mahou Shoutengai
    アベノ橋魔法☆商店街
    Magical Shopping Arcade Abenobashi
    Abenobashi: Magical Shopping Arcade






    Kurzbeschreibung:
    Zitat Zitat von AniSearch.com
    Satoshi Imamiya und Arumi Asahina leben im Abenobashi Einkaufsviertel in Osaka. Eines Tages werden sie plötzlich in ein Paralleluniversum, dem Abenobashi mahou Shoutengai - das magische Abenobashi Einkaufsviertel - gezogen. Sodann beginnt für sie eine abgefahrene Reise durch sehr verwirrende und schräge Paralleluniversen, in denen ihre Freunde und Bekannten in immer anderen Rollen wieder auftauchen. Sie versuchen immer wieder diesen Welten zu entfliehen, aber anstatt immer wie versprochen zu Hause zu landen, landen sie abermals wieder in einer Parallelwelt.

    Eine witzige, abgedrehte Parodie auf alle möglichen Animes, Filme und Games mit liebenswürdigen und gut ausgearbeiteten Hauptcharakteren.


    Spieldauer: 24min
    Genre: Komödie
    Nebengenres: Abenteuer, Action, Ecchi, Fantasy, Komödie, Scifi
    Jahr: 2002
    Sprache: Deutsch, Japanisch
    Untertitel: Deutsch
    Größe pro Folge: ~338 MiB
    Episodenanzahl: 13/13
    Format: MKV
    Auflösung: 432p (16:9)
    Videocodec: x264 (AVC)
    Audiocodec: AC-3
    Releasegruppe: AST4u
    Hoster: Share-Online, Uploaded


    MediaInfo
    Code:
    
    Format                                   : Matroska
    Format version                           : Version 1
    File size                                : 338 MiB
    Duration                                 : 24mn 19s
    Overall bit rate                         : 1 942 Kbps
    Encoded date                             : UTC 2011-04-26 22:43:40
    Writing application                      : VirtualDubMod 1.5.10.2 (build 2540/release)
    Writing library                          : libebml-0.7.5 & libmatroska-0.7.7
    
    Video
    ID                                       : 1
    Format                                   : AVC
    Format/Info                              : Advanced Video Codec
    Format profile                           : [email protected]
    Format settings, CABAC                   : Yes
    Format settings, ReFrames                : 2 frames
    Codec ID                                 : V_MS/VFW/FOURCC / H264
    Duration                                 : 24mn 19s
    Bit rate                                 : 1 264 Kbps
    Width                                    : 768 pixels
    Height                                   : 432 pixels
    Display aspect ratio                     : 16:9
    Frame rate mode                          : Constant
    Frame rate                               : 25.000 fps
    Color space                              : YUV
    Chroma subsampling                       : 4:2:0
    Bit depth                                : 8 bits
    Scan type                                : Progressive
    Bits/(Pixel*Frame)                       : 0.152
    Stream size                              : 214 MiB (63%)
    Writing library                          : x264 core 58 svn-736bm
    Encoding settings                        : cabac=1 / ref=1 / deblock=1:0:0 / analyse=0x1:0x131 / me=hex / subme=5 / brdo=0 / mixed_ref=0 / me_range=16 / chroma_me=1 / trellis=1 / 8x8dct=0 / cqm=0 / deadzone=21,11 / chroma_qp_offset=0 / threads=2 / nr=0 / decimate=1 / mbaff=0 / bframes=2 / b_pyramid=0 / b_adapt=1 / b_bias=0 / direct=1 / wpredb=1 / bime=0 / keyint=250 / keyint_min=25 / scenecut=40(pre) / rc=2pass / bitrate=1264 / ratetol=1.0 / rceq='blurCplx^(1-qComp)' / qcomp=0.60 / qpmin=10 / qpmax=51 / qpstep=4 / cplxblur=20.0 / qblur=0.5 / ip_ratio=1.40 / pb_ratio=1.30
    Language                                 : English
    Default                                  : Yes
    Forced                                   : No
    
    Audio #1
    ID                                       : 2
    Format                                   : AC-3
    Format/Info                              : Audio Coding 3
    Mode extension                           : CM (complete main)
    Format settings, Endianness              : Big
    Codec ID                                 : A_AC3
    Duration                                 : 24mn 19s
    Bit rate mode                            : Constant
    Bit rate                                 : 448 Kbps
    Channel(s)                               : 6 channels
    Channel positions                        : Front: L C R, Side: L R, LFE
    Sampling rate                            : 48.0 KHz
    Compression mode                         : Lossy
    Stream size                              : 78.0 MiB (23%)
    Language                                 : English
    Default                                  : Yes
    Forced                                   : No
    
    Audio #2
    ID                                       : 3
    Format                                   : AC-3
    Format/Info                              : Audio Coding 3
    Mode extension                           : CM (complete main)
    Format settings, Endianness              : Big
    Codec ID                                 : A_AC3
    Duration                                 : 24mn 19s
    Bit rate mode                            : Constant
    Bit rate                                 : 224 Kbps
    Channel(s)                               : 2 channels
    Channel positions                        : Front: L R
    Sampling rate                            : 48.0 KHz
    Compression mode                         : Lossy
    Stream size                              : 39.0 MiB (12%)
    Language                                 : English
    Default                                  : No
    Forced                                   : No
    
    Menu
    00:00:00.000                             : Ch. 01 @ 00:00:00
    00:02:42.720                             : Ch. 02 @ 00:02:42
    00:10:35.160                             : Ch. 03 @ 00:10:35
    00:22:14.520                             : Ch. 04 @ 00:22:14
    00:23:44.520                             : Ch. 05 @ 00:23:44
    
    




    Geschützter Bereich - Bedanke dich beim Poster, um den Bereich sehen zu können
    Hier erfährst Du wie Du Dich bedanken kannst oder werde jetzt Premium Mitglied ab einer Spende von 5€ und erhalte sofortigen Zugriff auf den Downloadbereich!

    [Links sind nur für registrierte und aktivierte Nutzer sichtbar. Klicke hier um dich zu registrieren.]
    !!!Alle Anliegen bezüglich Uploads werden nur mit direktem Threadlink zum Angebot bearbeitet!!!

    Re-Uploadanfragen nur per PN - Ihr könnt mir auch Listen schicken

    Re-Uploads erfolgen meist innerhalb 24h, kann aber auch bis zu 7 Tage dauern

    [Links sind nur für registrierte und aktivierte Nutzer sichtbar. Klicke hier um dich zu registrieren.] | [Links sind nur für registrierte und aktivierte Nutzer sichtbar. Klicke hier um dich zu registrieren.] | >[Links sind nur für registrierte und aktivierte Nutzer sichtbar. Klicke hier um dich zu registrieren.]<
    [Links sind nur für registrierte und aktivierte Nutzer sichtbar. Klicke hier um dich zu registrieren.]

  2. 4 Benutzer sagen Danke:

    Aluaran (4. May 2016),midnighter (25. August 2016),Roy_Coleman (29. May 2016),TorbenSonnenStern (18. October 2016)

Lesezeichen

Berechtigungen

  • Neue Themen erstellen: Nein
  • Themen beantworten: Nein
  • Anhänge hochladen: Nein
  • Beiträge bearbeiten: Nein
  •  

1 2 3 4 5 6 7 8 9 10 11 12 13 14 15 16 17 18 19 20 21 22 23 24 25 26 27 28 29 30 31 32 33 34 35 36 37 38 39 40 41 42 43 44 45 46 47 48 49 50 51 52 53 54 55 56 57 58 59 60 61 62 63 64 65 66 67 68 69 70 71 72 73 74 75 76 77 78 79 80 81 82 83 84 85 86 87 88 89 90 91 92 93 94 95 96 97 98 99 100 101 102 103 104 105 106 107 108 109 110 111 112 113 114 115 116 117 118 119 120 121 122 123 124 125 126 127 128 129 130 131 132 133 134 135 136 137 138 139 140 141 142 143 144 145 146 147 148 149 150 151 152 153 154 155 156 157 158