Ergebnis 1 bis 1 von 1

Thema: Afro Samurai [Ger-Eng-Dub][DVDRip]-AST4u

Dieser Thread wurde noch nicht bewertet. Bewerte ihn doch, wenn er dir gefällt!
  1. #1
    United we Stand Avatar von 00Ryuji00
    Registriert seit
    Oct 2012
    Beiträge
    3.902
    Punkte
    100.220
    Errungenschaften:
    TomodachisGang LeaderHikikomoriTagger Amateur50000 Erfahrungspunkte

    Afro Samurai [Ger-Eng-Dub][DVDRip]-AST4u


    Afro Samurai
    アフロサムライ






    Kurzbeschreibung:
    Zitat Zitat von AniSearch.com
    Als kleines Kind muss Afrosamurai mit ansehen, wie sein Vater getötet wird, nur damit der Gegner das Kopfband der Nummer eins auf Erden bekommt, wodurch dieser zu einer Art "Gott" wird. Als Erwachsener, ausgerüstet mit einem Samuraischwert und dem Kopfband der Nummer zwei, will Afrosamurai nun Rache nehmen. Doch auf dem langen Weg stellen sich ihm viele Gegner in den Weg, die ihm sein Kopfband entreißen wollen, um selbst als Nummer zwei zu gelten.


    Spieldauer: 28min
    Genre: Fighting-Shounen
    Nebengenres: Action, Fantasy, Fighting-Shounen, Scifi, Übermäßige Gewaltdarstellung
    Jahr: 2007
    Sprache: Deutsch, Englisch
    Größe pro Folge: ~294 MiB ~294 MiB
    Episodenanzahl: 5/5
    Format: AVI
    Auflösung: 400p (16:9)
    Videocodec: XviD (MPEG-4 Visual)
    Audiocodec: MPEG Audio
    Releasegruppe: AST4u
    Hoster: Share-Online, Uploaded


    MediaInfo
    Code:
    
    Format                                   : AVI
    Format/Info                              : Audio Video Interleave
    File size                                : 294 MiB
    Duration                                 : 23mn 10s
    Overall bit rate mode                    : Variable
    Overall bit rate                         : 1 774 Kbps
    Writing application                      : VirtualDubMod 1.5.10.2 (build 2540/release)
    Writing library                          : VirtualDubMod build 2540/release
    
    Video
    ID                                       : 0
    Format                                   : MPEG-4 Visual
    Format profile                           : Advanced [email protected]
    Format settings, BVOP                    : 1
    Format settings, QPel                    : No
    Format settings, GMC                     : No warppoints
    Format settings, Matrix                  : Default (MPEG)
    Muxing mode                              : Packed bitstream
    Codec ID                                 : XVID
    Codec ID/Hint                            : XviD
    Duration                                 : 23mn 10s
    Bit rate                                 : 1 454 Kbps
    Width                                    : 720 pixels
    Height                                   : 400 pixels
    Display aspect ratio                     : 16:9
    Frame rate                               : 25.000 fps
    Color space                              : YUV
    Chroma subsampling                       : 4:2:0
    Bit depth                                : 8 bits
    Scan type                                : Progressive
    Compression mode                         : Lossy
    Bits/(Pixel*Frame)                       : 0.202
    Stream size                              : 241 MiB (82%)
    Writing library                          : XviD 1.2.0.dev47 (UTC 2006-11-01)
    
    Audio #1
    ID                                       : 1
    Format                                   : MPEG Audio
    Format version                           : Version 1
    Format profile                           : Layer 3
    Mode                                     : Joint stereo
    Mode extension                           : MS Stereo
    Codec ID                                 : 55
    Codec ID/Hint                            : MP3
    Duration                                 : 23mn 10s
    Bit rate mode                            : Variable
    Bit rate                                 : 179 Kbps
    Nominal bit rate                         : 192 Kbps
    Channel(s)                               : 2 channels
    Sampling rate                            : 48.0 KHz
    Compression mode                         : Lossy
    Stream size                              : 29.7 MiB (10%)
    Alignment                                : Aligned on interleaves
    Interleave, duration                     : 24 ms (0.60 video frame)
    Interleave, preload duration             : 102 ms
    Writing library                          : LAME3.97 
    Encoding settings                        : -m j -V 4 -q 2 -lowpass 18.6 --abr 192
    
    Audio #2
    ID                                       : 2
    Format                                   : MPEG Audio
    Format version                           : Version 1
    Format profile                           : Layer 3
    Mode                                     : Joint stereo
    Mode extension                           : MS Stereo
    Codec ID                                 : 55
    Codec ID/Hint                            : MP3
    Duration                                 : 23mn 10s
    Bit rate mode                            : Variable
    Bit rate                                 : 120 Kbps
    Nominal bit rate                         : 128 Kbps
    Channel(s)                               : 2 channels
    Sampling rate                            : 48.0 KHz
    Compression mode                         : Lossy
    Stream size                              : 19.8 MiB (7%)
    Alignment                                : Aligned on interleaves
    Interleave, duration                     : 24 ms (0.60 video frame)
    Interleave, preload duration             : 491 ms
    Writing library                          : LAME3.97 
    Encoding settings                        : -m j -V 4 -q 2 -lowpass 17 --abr 128
    
    




    Geschützter Bereich freigeschaltet - Viel Spaß!


    [Links sind nur für registrierte und aktivierte Nutzer sichtbar. Klicke hier um dich zu registrieren.]

    Passwort: by00Ryuji00


    [Links sind nur für registrierte und aktivierte Nutzer sichtbar. Klicke hier um dich zu registrieren.]
    !!!Alle Anliegen bezüglich Uploads werden nur mit direktem Threadlink zum Angebot bearbeitet!!!

    Re-Uploadanfragen nur per PN - Ihr könnt mir auch Listen schicken

    Re-Uploads folgen nach Anfrage meist am Wochenende

    [Links sind nur für registrierte und aktivierte Nutzer sichtbar. Klicke hier um dich zu registrieren.] | [Links sind nur für registrierte und aktivierte Nutzer sichtbar. Klicke hier um dich zu registrieren.] | >[Links sind nur für registrierte und aktivierte Nutzer sichtbar. Klicke hier um dich zu registrieren.]<
    [Links sind nur für registrierte und aktivierte Nutzer sichtbar. Klicke hier um dich zu registrieren.]

  2. 2 Benutzer sagen Danke:

    darkangel92 (26. May 2016),midnighter (25. August 2016)

Lesezeichen

Berechtigungen

  • Neue Themen erstellen: Nein
  • Themen beantworten: Nein
  • Anhänge hochladen: Nein
  • Beiträge bearbeiten: Nein
  •  

1 2 3 4 5 6 7 8 9 10 11 12 13 14 15 16 17 18 19 20 21 22 23 24 25 26 27 28 29 30 31 32 33 34 35 36 37 38 39 40 41 42 43 44 45 46 47 48 49 50 51 52 53 54 55 56 57 58 59 60 61 62 63 64 65 66 67 68 69 70 71 72 73 74 75 76 77 78 79 80 81 82 83 84 85 86 87 88 89 90 91 92 93 94 95 96 97 98 99 100 101 102 103 104 105 106 107 108 109 110 111 112 113 114 115 116 117 118 119 120 121 122 123 124 125 126 127 128 129 130 131 132 133 134 135 136 137 138 139 140 141 142 143 144 145 146 147 148 149 150 151 152 153 154 155 156 157 158