Ergebnis 1 bis 1 von 1

Thema: Aishite Knight [Ger-Dub][DVDRip]-AST4u

Dieser Thread wurde noch nicht bewertet. Bewerte ihn doch, wenn er dir gefällt!
  1. #1
    United we Stand Avatar von 00Ryuji00
    Registriert seit
    Oct 2012
    Beiträge
    3.902
    Punkte
    100.092
    Errungenschaften:
    TomodachisGang LeaderHikikomoriTagger Amateur50000 Erfahrungspunkte

    Aishite Knight [Ger-Dub][DVDRip]-AST4u


    Aishite Knight
    愛してナイト
    Rock'n Roll Kids
    Rock'n' Roll Kids






    Kurzbeschreibung:
    Zitat Zitat von AniSearch.com
    Yakko lernt den kleinen Hashizo und seinen dicken Kater Giulianno kennen. Der kleine Junge ist sofort hin und weg von ihr und meint er müsste sie unbedingt mit seinem großen Bruder Joe verkuppeln. Dies versucht er auch ständig in die Tat umzusetzen. Leider läuft alles schief. Joe, der Sänger in der Band "Bee Hive" ist, fängt sich beim ersten unfreiwilligen Treffen schon eine Ohrfeige ein, sein Bandkollege Sami flirtet wild mit Yakko und Maeko ist eifersüchtig auf Yakko, da sie von Sami schon lange begeistert ist. Und das schlimme ist, dass Yakko noch nicht mal weiß, dass der Typ mit der "Klobürsten Frisur", wie ihr Vater Shigemaru gerne sagt, Hashizos Bruder ist. Das erfährt sie erst in einem großen Konzert, auf das Hashizo sie schleppt. Die ganze Beziehungskiste entwickelt sich dann doch noch ganz gut. Sami bindet sich an Maeko, Yakkos Freundin Isuzu schmeißt sich erfolgreich an einen von Joes Bandkollegen ran und schließlich finden sich auch Joe und Yakko. Später gelingt es Kaori, Maekos kleiner Schwester, die mit Hashizo zusammen in den Kindergarten geht, Sami dazu zu bringen, Maeko einen Heiratsantrag zu machen. Auch Isuzu und Eichi Tono heiraten. Yakkos und Joe Glück stehen zwei Dinge im Weg. Erstens Yakkos Vater, der nicht sehr viel von Joe hält. Und zweitens die Tatsache, dass die Gruppe "Bee Hive" eine Amerika Tournee vor sich hat. Schließlich gibt Papa Shigemaru nach und Yakko wartet zusammen mit Hashizo und Giulianno, die Shigemaru schon richtig ins Herz geschlossen hat, in Japan.


    Spieldauer: 20min
    Genre: Romanze
    Nebengenres: Alltagsleben, Drama, Komödie, Romanze
    Jahr: 1983
    Sprache: Deutsch
    Größe pro Folge: ~277 MiB
    Episodenanzahl: 42/42
    Format: AVI
    Auflösung: 528p (4:3)
    Videocodec: XviD (MPEG-4 Visual)
    Audiocodec: MPEG Audio
    Releasegruppe: AST4u
    Hoster: Share-Online, Uploaded


    MediaInfo
    Code:
    
    Format                                   : AVI
    Format/Info                              : Audio Video Interleave
    File size                                : 277 MiB
    Duration                                 : 23mn 25s
    Overall bit rate mode                    : Variable
    Overall bit rate                         : 1 655 Kbps
    Writing application                      : VirtualDubMod 1.5.10.2 (build 2542/release)
    Writing library                          : VirtualDubMod build 2542/release
    
    Video
    ID                                       : 0
    Format                                   : MPEG-4 Visual
    Format profile                           : Advanced [email protected]
    Format settings, BVOP                    : 1
    Format settings, QPel                    : No
    Format settings, GMC                     : No warppoints
    Format settings, Matrix                  : Default (MPEG)
    Muxing mode                              : Packed bitstream
    Codec ID                                 : XVID
    Codec ID/Hint                            : XviD
    Duration                                 : 23mn 25s
    Bit rate                                 : 1 465 Kbps
    Width                                    : 720 pixels
    Height                                   : 528 pixels
    Display aspect ratio                     : 4:3
    Frame rate                               : 25.000 fps
    Color space                              : YUV
    Chroma subsampling                       : 4:2:0
    Bit depth                                : 8 bits
    Scan type                                : Progressive
    Compression mode                         : Lossy
    Bits/(Pixel*Frame)                       : 0.154
    Stream size                              : 245 MiB (88%)
    Writing library                          : XviD 1.2.0.dev47 (UTC 2006-11-01)
    
    Audio
    ID                                       : 1
    Format                                   : MPEG Audio
    Format version                           : Version 1
    Format profile                           : Layer 3
    Mode                                     : Joint stereo
    Mode extension                           : MS Stereo
    Codec ID                                 : 55
    Codec ID/Hint                            : MP3
    Duration                                 : 23mn 25s
    Bit rate mode                            : Variable
    Bit rate                                 : 178 Kbps
    Nominal bit rate                         : 192 Kbps
    Channel(s)                               : 2 channels
    Sampling rate                            : 48.0 KHz
    Compression mode                         : Lossy
    Stream size                              : 29.8 MiB (11%)
    Alignment                                : Aligned on interleaves
    Interleave, duration                     : 24 ms (0.60 video frame)
    Interleave, preload duration             : 103 ms
    Writing library                          : LAME3.97 
    Encoding settings                        : -m j -V 4 -q 2 -lowpass 18.6 --abr 192
    
    




    Geschützter Bereich - Bedanke dich beim Poster, um den Bereich sehen zu können
    Hier erfährst Du wie Du Dich bedanken kannst oder werde jetzt Premium Mitglied ab einer Spende von 5€ und erhalte sofortigen Zugriff auf den Downloadbereich!

    [Links sind nur für registrierte und aktivierte Nutzer sichtbar. Klicke hier um dich zu registrieren.]
    !!!Alle Anliegen bezüglich Uploads werden nur mit direktem Threadlink zum Angebot bearbeitet!!!

    Re-Uploadanfragen nur per PN - Ihr könnt mir auch Listen schicken

    Re-Uploads folgen nach Anfrage meist am Wochenende

    [Links sind nur für registrierte und aktivierte Nutzer sichtbar. Klicke hier um dich zu registrieren.] | [Links sind nur für registrierte und aktivierte Nutzer sichtbar. Klicke hier um dich zu registrieren.] | >[Links sind nur für registrierte und aktivierte Nutzer sichtbar. Klicke hier um dich zu registrieren.]<
    [Links sind nur für registrierte und aktivierte Nutzer sichtbar. Klicke hier um dich zu registrieren.]

  2. 13 Benutzer sagen Danke:

    animefan84 (7. May 2016),Arekusu (5. May 2016),Cy_Baer (5. May 2016),darkangel92 (26. May 2016),midnighter (16. August 2016),noizmaker (16. June 2016),Poocky (5. May 2016),prinzvegeta (30. May 2016),Scorpionlord88 (7. May 2016),setugen no ao (6. May 2016),stellar (12. October 2016),xifaxufu (19. July 2016),Zapzerap (17. May 2016)

Lesezeichen

Berechtigungen

  • Neue Themen erstellen: Nein
  • Themen beantworten: Nein
  • Anhänge hochladen: Nein
  • Beiträge bearbeiten: Nein
  •  

1 2 3 4 5 6 7 8 9 10 11 12 13 14 15 16 17 18 19 20 21 22 23 24 25 26 27 28 29 30 31 32 33 34 35 36 37 38 39 40 41 42 43 44 45 46 47 48 49 50 51 52 53 54 55 56 57 58 59 60 61 62 63 64 65 66 67 68 69 70 71 72 73 74 75 76 77 78 79 80 81 82 83 84 85 86 87 88 89 90 91 92 93 94 95 96 97 98 99 100 101 102 103 104 105 106 107 108 109 110 111 112 113 114 115 116 117 118 119 120 121 122 123 124 125 126 127 128 129 130 131 132 133 134 135 136 137 138 139 140 141 142 143 144 145 146 147 148 149 150 151 152 153 154 155 156 157 158