Ergebnis 1 bis 1 von 1

Thema: Aldnoah.Zero [Ger-Jap-Dub][Ger-Sub][720p/1080p][BluRay]-STARS

Dieser Thread wurde noch nicht bewertet. Bewerte ihn doch, wenn er dir gefällt!
  1. #1
    United we Stand Avatar von 00Ryuji00
    Registriert seit
    Oct 2012
    Beiträge
    3.902
    Punkte
    100.019
    Errungenschaften:
    TomodachisGang LeaderHikikomoriTagger Amateur50000 Erfahrungspunkte

    Aldnoah.Zero [Ger-Jap-Dub][Ger-Sub][720p/1080p][BluRay]-STARS


    Aldnoah.Zero
    アルドノア・ゼロ






    Kurzbeschreibung:
    Zitat Zitat von AniSearch.com
    Die Entdeckung eines Hypergates außerirdischen Ursprungs auf dem Mond im Jahre 1972 ermöglichte es der Menschheit den Mars zu kolonisieren. Dort stieß man auf weitere außerirdische Technologie, doch wandten sich die Kolonialisten von ihrem Heimatplaneten Erde ab und gründeten das Vers Imperium. Gestützt auf die überlegene Technologie begann man einen Krieg gegen die Erde, der 1999 in der Zerstörung des Hypergates samt des ganzen Monds seinen Höhepunkt fand. Ein Waffenstillstand wurde ausgerufen, doch wuchsen die Spannungen durch die in der Folge vom Vers Imperium in der Erdumlaufbahn errichteten Raumstationen stetig an. Nun, 2014, liegt wieder Krieg in der Luft. Zurückgehalten vom seitens der Königsfamilie unterstützten Waffenstillstand, hat die Ungeduld der Adeligen des Vers Imperiums sich die Erde einzuverleiben ihren Höhepunkt erreicht, während sich die seit 15 Jahren in ständiger Bedrohung lebende Erdbevölkerung zunehmend militarisiert und bestmöglich auf einen Angriff vorbereitet hat. Es reicht nur noch ein Funke um die angespannte Lage eskalieren und den Kampf um die Erde wieder beginnen zu lassen.


    Spieldauer: 24min
    Genre: Actiondrama
    Nebengenres: Action, Drama, Mecha, Scifi
    Jahr: 2014
    Sprache: Deutsch, Japanisch
    Untertitel: Deutsch
    Größe pro Folge: ~244 MiB ~442 MiB
    Episodenanzahl: 12/12
    Format: MKV
    Auflösung: 720p (16:9), 1080p (16:9)
    Videocodec: x264 (AVC)
    Audiocodec: AC-3
    Releasegruppe: STARS
    Hoster: Share-Online, Uploaded


    MediaInfo
    720p
    Code:
    
    Format                                   : Matroska
    Format version                           : Version 4 / Version 2
    File size                                : 244 MiB
    Duration                                 : 23mn 40s
    Overall bit rate                         : 1 438 Kbps
    Movie name                               : ALDNOAH ZERO - E01 - PRINCESS OF VERS - 720P - STARS
    Encoded date                             : UTC 2016-01-12 03:41:05
    Writing application                      : mkvmerge v6.1.0 ('Old Devil') built on Mar  2 2013 14:32:37
    Writing library                          : libebml v1.3.0 + libmatroska v1.4.0
    
    Video
    ID                                       : 1
    Format                                   : AVC
    Format/Info                              : Advanced Video Codec
    Format profile                           : [email protected]
    Format settings, CABAC                   : Yes
    Format settings, ReFrames                : 5 frames
    Codec ID                                 : V_MPEG4/ISO/AVC
    Duration                                 : 23mn 40s
    Bit rate                                 : 1 026 Kbps
    Width                                    : 1 280 pixels
    Height                                   : 720 pixels
    Display aspect ratio                     : 16:9
    Frame rate mode                          : Constant
    Frame rate                               : 23.976 fps
    Color space                              : YUV
    Chroma subsampling                       : 4:2:0
    Bit depth                                : 8 bits
    Scan type                                : Progressive
    Bits/(Pixel*Frame)                       : 0.046
    Stream size                              : 174 MiB (71%)
    Title                                    : ALDNOAH ZERO - E01 - PRINCESS OF VERS - 720P - STARS
    Writing library                          : x264 core 148 r2638 7599210
    Encoding settings                        : cabac=1 / ref=5 / deblock=1:0:0 / analyse=0x3:0x133 / me=umh / subme=7 / psy=1 / psy_rd=1.00:0.00 / mixed_ref=1 / me_range=16 / chroma_me=1 / trellis=1 / 8x8dct=1 / cqm=0 / deadzone=21,11 / fast_pskip=0 / chroma_qp_offset=-2 / threads=12 / lookahead_threads=2 / sliced_threads=0 / nr=0 / decimate=1 / interlaced=0 / bluray_compat=0 / constrained_intra=0 / bframes=3 / b_pyramid=2 / b_adapt=1 / b_bias=0 / direct=1 / weightb=1 / open_gop=0 / weightp=1 / keyint=250 / keyint_min=23 / scenecut=40 / intra_refresh=0 / rc_lookahead=40 / rc=crf / mbtree=1 / crf=20.0 / qcomp=0.60 / qpmin=0 / qpmax=69 / qpstep=4 / ip_ratio=1.40 / aq=1:1.00
    Default                                  : Yes
    Forced                                   : Yes
    
    Audio #1
    ID                                       : 2
    Format                                   : AC-3
    Format/Info                              : Audio Coding 3
    Mode extension                           : CM (complete main)
    Format settings, Endianness              : Big
    Codec ID                                 : A_AC3
    Duration                                 : 23mn 40s
    Bit rate mode                            : Constant
    Bit rate                                 : 192 Kbps
    Channel(s)                               : 2 channels
    Channel positions                        : Front: L R
    Sampling rate                            : 48.0 KHz
    Compression mode                         : Lossy
    Stream size                              : 32.5 MiB (13%)
    Title                                    : GER - AC3
    Language                                 : German
    Default                                  : Yes
    Forced                                   : Yes
    
    Audio #2
    ID                                       : 3
    Format                                   : AC-3
    Format/Info                              : Audio Coding 3
    Mode extension                           : CM (complete main)
    Format settings, Endianness              : Big
    Codec ID                                 : A_AC3
    Duration                                 : 23mn 40s
    Bit rate mode                            : Constant
    Bit rate                                 : 192 Kbps
    Channel(s)                               : 2 channels
    Channel positions                        : Front: L R
    Sampling rate                            : 48.0 KHz
    Compression mode                         : Lossy
    Stream size                              : 32.5 MiB (13%)
    Title                                    : JPN - AC3
    Language                                 : Japanese
    Default                                  : No
    Forced                                   : No
    
    Text #1
    ID                                       : 4
    Format                                   : UTF-8
    Codec ID                                 : S_TEXT/UTF8
    Codec ID/Info                            : UTF-8 Plain Text
    Title                                    : GER - FORCED
    Language                                 : German
    Default                                  : Yes
    Forced                                   : Yes
    
    Text #2
    ID                                       : 5
    Format                                   : UTF-8
    Codec ID                                 : S_TEXT/UTF8
    Codec ID/Info                            : UTF-8 Plain Text
    Title                                    : GER - SUBS
    Language                                 : German
    Default                                  : No
    Forced                                   : No
    
    


    1080p
    Code:
    
    Format                                   : Matroska
    Format version                           : Version 4 / Version 2
    File size                                : 442 MiB
    Duration                                 : 23mn 40s
    Overall bit rate                         : 2 610 Kbps
    Movie name                               : ALDNOAH ZERO - E01 - PRINCESS OF VERS - 1080P - STARS
    Encoded date                             : UTC 2016-01-12 03:43:36
    Writing application                      : mkvmerge v6.1.0 ('Old Devil') built on Mar  2 2013 14:32:37
    Writing library                          : libebml v1.3.0 + libmatroska v1.4.0
    
    Video
    ID                                       : 1
    Format                                   : AVC
    Format/Info                              : Advanced Video Codec
    Format profile                           : [email protected]
    Format settings, CABAC                   : Yes
    Format settings, ReFrames                : 4 frames
    Codec ID                                 : V_MPEG4/ISO/AVC
    Duration                                 : 23mn 40s
    Bit rate                                 : 2 174 Kbps
    Width                                    : 1 920 pixels
    Height                                   : 1 080 pixels
    Display aspect ratio                     : 16:9
    Frame rate mode                          : Constant
    Frame rate                               : 23.976 fps
    Color space                              : YUV
    Chroma subsampling                       : 4:2:0
    Bit depth                                : 8 bits
    Scan type                                : Progressive
    Bits/(Pixel*Frame)                       : 0.044
    Stream size                              : 368 MiB (83%)
    Title                                    : ALDNOAH ZERO - E01 - PRINCESS OF VERS - 1080P - STARS
    Writing library                          : x264 core 148 r2638 7599210
    Encoding settings                        : cabac=1 / ref=4 / deblock=1:0:0 / analyse=0x3:0x133 / me=umh / subme=7 / psy=1 / psy_rd=1.00:0.00 / mixed_ref=1 / me_range=16 / chroma_me=1 / trellis=1 / 8x8dct=1 / cqm=0 / deadzone=21,11 / fast_pskip=0 / chroma_qp_offset=-2 / threads=12 / lookahead_threads=2 / sliced_threads=0 / nr=0 / decimate=1 / interlaced=0 / bluray_compat=0 / constrained_intra=0 / bframes=3 / b_pyramid=2 / b_adapt=1 / b_bias=0 / direct=1 / weightb=1 / open_gop=0 / weightp=1 / keyint=250 / keyint_min=23 / scenecut=40 / intra_refresh=0 / rc_lookahead=40 / rc=crf / mbtree=1 / crf=20.0 / qcomp=0.60 / qpmin=0 / qpmax=69 / qpstep=4 / ip_ratio=1.40 / aq=1:1.00
    Default                                  : Yes
    Forced                                   : Yes
    
    Audio #1
    ID                                       : 2
    Format                                   : AC-3
    Format/Info                              : Audio Coding 3
    Mode extension                           : CM (complete main)
    Format settings, Endianness              : Big
    Codec ID                                 : A_AC3
    Duration                                 : 23mn 40s
    Bit rate mode                            : Constant
    Bit rate                                 : 192 Kbps
    Channel(s)                               : 2 channels
    Channel positions                        : Front: L R
    Sampling rate                            : 48.0 KHz
    Compression mode                         : Lossy
    Stream size                              : 32.5 MiB (7%)
    Title                                    : GER - AC3
    Language                                 : German
    Default                                  : Yes
    Forced                                   : Yes
    
    Audio #2
    ID                                       : 3
    Format                                   : AC-3
    Format/Info                              : Audio Coding 3
    Mode extension                           : CM (complete main)
    Format settings, Endianness              : Big
    Codec ID                                 : A_AC3
    Duration                                 : 23mn 40s
    Bit rate mode                            : Constant
    Bit rate                                 : 192 Kbps
    Channel(s)                               : 2 channels
    Channel positions                        : Front: L R
    Sampling rate                            : 48.0 KHz
    Compression mode                         : Lossy
    Stream size                              : 32.5 MiB (7%)
    Title                                    : JPN - AC3
    Language                                 : Japanese
    Default                                  : No
    Forced                                   : No
    
    Text #1
    ID                                       : 4
    Format                                   : UTF-8
    Codec ID                                 : S_TEXT/UTF8
    Codec ID/Info                            : UTF-8 Plain Text
    Title                                    : GER - FORCED
    Language                                 : German
    Default                                  : Yes
    Forced                                   : Yes
    
    Text #2
    ID                                       : 5
    Format                                   : UTF-8
    Codec ID                                 : S_TEXT/UTF8
    Codec ID/Info                            : UTF-8 Plain Text
    Title                                    : GER - SUBS
    Language                                 : German
    Default                                  : No
    Forced                                   : No
    
    






    Geschützter Bereich - Bedanke dich beim Poster, um den Bereich sehen zu können
    Hier erfährst Du wie Du Dich bedanken kannst oder werde jetzt Premium Mitglied ab einer Spende von 5€ und erhalte sofortigen Zugriff auf den Downloadbereich!

    [Links sind nur für registrierte und aktivierte Nutzer sichtbar. Klicke hier um dich zu registrieren.]
    !!!Alle Anliegen bezüglich Uploads werden nur mit direktem Threadlink zum Angebot bearbeitet!!!

    Re-Uploadanfragen nur per PN - Ihr könnt mir auch Listen schicken

    Re-Uploads erfolgen meist innerhalb 24h, kann aber auch bis zu 7 Tage dauern

    [Links sind nur für registrierte und aktivierte Nutzer sichtbar. Klicke hier um dich zu registrieren.] | [Links sind nur für registrierte und aktivierte Nutzer sichtbar. Klicke hier um dich zu registrieren.] | >[Links sind nur für registrierte und aktivierte Nutzer sichtbar. Klicke hier um dich zu registrieren.]<
    [Links sind nur für registrierte und aktivierte Nutzer sichtbar. Klicke hier um dich zu registrieren.]

  2. 46 Benutzer sagen Danke:

    bloodman (20. September 2016),Clumbaby (3. September 2016),Coolwars (2. July 2016),darkangel92 (9. May 2016),downloader_1987 (19. May 2016),fab1 (7. September 2016),frankra (16. October 2016),Hawkfeder (18. June 2016),Inowan (12. August 2016),InSaNe.CodeZ (5. May 2016),Kaan- (28. May 2016),Kaito_O (15. May 2016),Kouta-chii (9. November 2016),Kuddel (21. May 2016),Leomar (6. May 2016),midnighter (16. August 2016),NanaNo7 (6. May 2016),Necronomikon (4. June 2016),nickssystem (8. May 2016),Nijazi2000 (6. September 2016),NLHTeddyNLH (2. June 2016),Noire16 (26. October 2016),omega (26. November 2016),Over (7. May 2016),Paradox1906 (8. December 2016),sansaku (4. August 2016),Satiini (6. October 2016),skylier (1. June 2016),Smiths (28. May 2016),Spotix (29. May 2016),Stones (26. June 2016),Swani (15. May 2016),Tai1988 (28. June 2016),TheOne0815 (27. July 2016),The_Iron (5. May 2016),tompace (9. May 2016),TUROcKK (2. November 2016),T§sseract (18. June 2016),UndeadBan (20. July 2016),undertaker0951 (6. August 2016),Wallaby (7. July 2016),xFamoussZ (16. May 2016),XxXYurrippeXxX (17. November 2016),ZeroCM89 (19. July 2016),zoe#449 (5. May 2016),Zumay (5. August 2016)

Lesezeichen

Berechtigungen

  • Neue Themen erstellen: Nein
  • Themen beantworten: Nein
  • Anhänge hochladen: Nein
  • Beiträge bearbeiten: Nein
  •  

1 2 3 4 5 6 7 8 9 10 11 12 13 14 15 16 17 18 19 20 21 22 23 24 25 26 27 28 29 30 31 32 33 34 35 36 37 38 39 40 41 42 43 44 45 46 47 48 49 50 51 52 53 54 55 56 57 58 59 60 61 62 63 64 65 66 67 68 69 70 71 72 73 74 75 76 77 78 79 80 81 82 83 84 85 86 87 88 89 90 91 92 93 94 95 96 97 98 99 100 101 102 103 104 105 106 107 108 109 110 111 112 113 114 115 116 117 118 119 120 121 122 123 124 125 126 127 128 129 130 131 132 133 134 135 136 137 138 139 140 141 142 143 144 145 146 147 148 149 150 151 152 153 154 155 156 157 158