Ergebnis 1 bis 2 von 2

Thema: Angel Beats! + Bonus [Ger-Jap-Dub][Ger-Sub][AC3/DTS-HD][720p/1080p][BluRay] - AST4u

Dieser Thread wurde noch nicht bewertet. Bewerte ihn doch, wenn er dir gefällt!
  1. #1
    United we Stand Avatar von 00Ryuji00
    Registriert seit
    Oct 2012
    Beiträge
    3.902
    Punkte
    100.092
    Errungenschaften:
    TomodachisGang LeaderHikikomoriTagger Amateur50000 Erfahrungspunkte

    Angel Beats! + Bonus [Ger-Jap-Dub][Ger-Sub][AC3/DTS-HD][720p/1080p][BluRay] - AST4u


    Angel Beats!

    エンジェルビーツ!
    AB!



    Kurzbeschreibung:
    Zitat Zitat von AniSearch.com
    Als Otonashi auf dem Gelände einer ihm unbekannten Schule erwacht, weiß er zunächst nicht, was vor sich geht. Weder das Mädchen mit der Feuerwaffe in der Hand, das ihn in Empfang nimmt, noch die Tatsache, dass er sich an kein Detail seines bisherigen Lebens erinnern kann, wecken in ihm Begeisterung. Das Mädchen, Yuri, erklärt Otonashi, dass er gestorben sei, und dass es sich bei dem Schulgelände, auf dem sie sich befinden, um eine Welt zwischen Leben und Tod handle. Sie erzählt ihm von der Shinda Sekai Sensen, einer Art Untergrundorganisation, der sie und einige andere Bewohner dieser Welt angehören. Die Mitglieder der SSS sind allesamt "tote" Jugendliche, die sich weigern, sich dem System der Schule anzupassen. Denn sobald man sich den Schulregeln beugt, verschwindet man auf mysteriöse Weise aus der Zwischenwelt.Doch Yuri und ihre Freunde kämpfen nicht nur gegen das System selbst, sie haben einen handfesten Gegner: Die Vorsitzende der Schülervertretung, genannt Tenshi. Mit ihren übermenschlichen Kräften versucht sie, die Ordnung auf dem Schulgelände wiederherzustellen, doch die Mitglieder der SSS wissen sich zu wehren. Otonashi, welcher der SSS beitritt, kann dennoch sein Interesse am "Engel" nicht leugnen, denn ihm kommt sie vor wie ein ganz gewöhnliches Mädchen...
    Spieldauer: 25min
    Genre: Sentimentales Drama
    Nebengenres: Action, Drama, Komödie, Männlich, Romanze, Weiblich
    Jahr: 2010
    Sprache: Deutsch, Japanisch
    Untertitel: Deutsch
    Größe pro Folge: ~ 300MB/500MB/900MB/1,3GB
    Episodenanzahl: 13/13 + Ep 4,5 + Ep 13,5
    Format: mkv
    Auflösung: 404p (16:9), 720p (16:9), 1080p (16:9)
    Videocodec: XviD, x264 (AVC)
    Audiocodec: MP3, AC-3, DTS
    Releasegruppe: AST4u
    Hoster: Uploaded, Share-Online

    MediaInfo
    720p AC-3
    Code:
    
    Format                                   : Matroska
    Format version                           : Version 4 / Version 2
    File size                                : 565 MiB
    Duration                                 : 26mn 3s
    Overall bit rate                         : 3 032 Kbps
    Encoded date                             : UTC 2015-06-14 18:57:47
    Writing application                      : mkvmerge v7.4.0 ('Circles') 64bit built on Dec 12 2014 12:19:56
    Writing library                          : libebml v1.3.0 + libmatroska v1.4.1
    _STATISTICS_WRITING_APP                  : mkvmerge v7.4.0 ('Circles') 64bit built on Dec 12 2014 12:19:56
    _STATISTICS_WRITING_DATE_UTC             : 2015-06-14 18:57:47
    _STATISTICS_TAGS                         : BPS DURATION NUMBER_OF_FRAMES NUMBER_OF_BYTES
    DURATION                                 : 00:25:40.122000000
    NUMBER_OF_FRAMES                         : 1018
    NUMBER_OF_BYTES                          : 4569554
    
    Video
    ID                                       : 1
    Format                                   : AVC
    Format/Info                              : Advanced Video Codec
    Format profile                           : [email protected]
    Format settings, CABAC                   : Yes
    Format settings, ReFrames                : 6 frames
    Codec ID                                 : V_MPEG4/ISO/AVC
    Duration                                 : 26mn 3s
    Bit rate                                 : 1 628 Kbps
    Width                                    : 1 280 pixels
    Height                                   : 720 pixels
    Display aspect ratio                     : 16:9
    Frame rate mode                          : Constant
    Frame rate                               : 23.976 fps
    Color space                              : YUV
    Chroma subsampling                       : 4:2:0
    Bit depth                                : 8 bits
    Scan type                                : Progressive
    Bits/(Pixel*Frame)                       : 0.074
    Stream size                              : 303 MiB (54%)
    Writing library                          : x264 core 146 r2538 121396c
    Encoding settings                        : cabac=1 / ref=6 / deblock=1:1:1 / analyse=0x3:0x113 / me=hex / subme=7 / psy=1 / psy_rd=1.00:0.00 / mixed_ref=1 / me_range=16 / chroma_me=1 / trellis=1 / 8x8dct=1 / cqm=0 / deadzone=21,11 / fast_pskip=1 / chroma_qp_offset=-2 / threads=6 / lookahead_threads=1 / sliced_threads=0 / nr=0 / decimate=1 / interlaced=0 / bluray_compat=0 / constrained_intra=0 / bframes=5 / b_pyramid=2 / b_adapt=1 / b_bias=0 / direct=1 / weightb=1 / open_gop=0 / weightp=2 / keyint=240 / keyint_min=23 / scenecut=40 / intra_refresh=0 / rc_lookahead=40 / rc=crf / mbtree=1 / crf=16.0 / qcomp=0.60 / qpmin=0 / qpmax=69 / qpstep=4 / vbv_maxrate=62500 / vbv_bufsize=78125 / crf_max=0.0 / nal_hrd=none / filler=0 / ip_ratio=1.40 / aq=1:0.60
    Default                                  : Yes
    Forced                                   : No
    
    Audio #1
    ID                                       : 2
    Format                                   : AC-3
    Format/Info                              : Audio Coding 3
    Mode extension                           : CM (complete main)
    Format settings, Endianness              : Big
    Codec ID                                 : A_AC3
    Duration                                 : 26mn 3s
    Bit rate mode                            : Constant
    Bit rate                                 : 448 Kbps
    Channel count                            : 2 channels
    Channel positions                        : Front: L R
    Sampling rate                            : 48.0 KHz
    Bit depth                                : 16 bits
    Compression mode                         : Lossy
    Stream size                              : 83.5 MiB (15%)
    Default                                  : Yes
    Forced                                   : No
    
    Audio #2
    ID                                       : 3
    Format                                   : AC-3
    Format/Info                              : Audio Coding 3
    Mode extension                           : CM (complete main)
    Format settings, Endianness              : Big
    Codec ID                                 : A_AC3
    Duration                                 : 26mn 3s
    Bit rate mode                            : Constant
    Bit rate                                 : 448 Kbps
    Channel count                            : 2 channels
    Channel positions                        : Front: L R
    Sampling rate                            : 48.0 KHz
    Bit depth                                : 16 bits
    Compression mode                         : Lossy
    Stream size                              : 83.5 MiB (15%)
    Default                                  : No
    Forced                                   : No
    
    Audio #3
    ID                                       : 4
    Format                                   : AC-3
    Format/Info                              : Audio Coding 3
    Mode extension                           : CM (complete main)
    Format settings, Endianness              : Big
    Codec ID                                 : A_AC3
    Duration                                 : 26mn 3s
    Bit rate mode                            : Constant
    Bit rate                                 : 448 Kbps
    Channel count                            : 2 channels
    Channel positions                        : Front: L R
    Sampling rate                            : 48.0 KHz
    Bit depth                                : 16 bits
    Compression mode                         : Lossy
    Stream size                              : 83.5 MiB (15%)
    Default                                  : No
    Forced                                   : No
    
    Text #1
    ID                                       : 5
    Format                                   : PGS
    Muxing mode                              : zlib
    Codec ID                                 : S_HDMV/PGS
    Codec ID/Info                            : The same subtitle format used on BDs/HD-DVDs
    Default                                  : No
    Forced                                   : No
    
    Text #2
    ID                                       : 6
    Format                                   : PGS
    Muxing mode                              : zlib
    Codec ID                                 : S_HDMV/PGS
    Codec ID/Info                            : The same subtitle format used on BDs/HD-DVDs
    Default                                  : No
    Forced                                   : No
    
    Text #3
    ID                                       : 7
    Format                                   : PGS
    Muxing mode                              : zlib
    Codec ID                                 : S_HDMV/PGS
    Codec ID/Info                            : The same subtitle format used on BDs/HD-DVDs
    Default                                  : No
    Forced                                   : No
    1080p AC-3
    Code:
    
    Format                                   : Matroska
    Format version                           : Version 4 / Version 2
    File size                                : 954 MiB
    Duration                                 : 26mn 3s
    Overall bit rate                         : 5 119 Kbps
    Encoded date                             : UTC 2015-06-14 18:52:35
    Writing application                      : mkvmerge v7.4.0 ('Circles') 64bit built on Dec 12 2014 12:19:56
    Writing library                          : libebml v1.3.0 + libmatroska v1.4.1
    _STATISTICS_WRITING_APP                  : mkvmerge v7.4.0 ('Circles') 64bit built on Dec 12 2014 12:19:56
    _STATISTICS_WRITING_DATE_UTC             : 2015-06-14 18:52:35
    _STATISTICS_TAGS                         : BPS DURATION NUMBER_OF_FRAMES NUMBER_OF_BYTES
    DURATION                                 : 00:25:40.122000000
    NUMBER_OF_FRAMES                         : 1018
    NUMBER_OF_BYTES                          : 4569554
    
    Video
    ID                                       : 1
    Format                                   : AVC
    Format/Info                              : Advanced Video Codec
    Format profile                           : [email protected]
    Format settings, CABAC                   : Yes
    Format settings, ReFrames                : 4 frames
    Codec ID                                 : V_MPEG4/ISO/AVC
    Duration                                 : 26mn 3s
    Bit rate                                 : 3 673 Kbps
    Width                                    : 1 920 pixels
    Height                                   : 1 080 pixels
    Display aspect ratio                     : 16:9
    Frame rate mode                          : Constant
    Frame rate                               : 23.976 fps
    Color space                              : YUV
    Chroma subsampling                       : 4:2:0
    Bit depth                                : 8 bits
    Scan type                                : Progressive
    Bits/(Pixel*Frame)                       : 0.074
    Stream size                              : 685 MiB (72%)
    Writing library                          : x264 core 146 r2538 121396c
    Encoding settings                        : cabac=1 / ref=4 / deblock=1:1:1 / analyse=0x3:0x113 / me=hex / subme=7 / psy=1 / psy_rd=1.00:0.00 / mixed_ref=1 / me_range=16 / chroma_me=1 / trellis=1 / 8x8dct=1 / cqm=0 / deadzone=21,11 / fast_pskip=1 / chroma_qp_offset=-2 / threads=6 / lookahead_threads=1 / sliced_threads=0 / nr=0 / decimate=1 / interlaced=0 / bluray_compat=0 / constrained_intra=0 / bframes=5 / b_pyramid=2 / b_adapt=1 / b_bias=0 / direct=1 / weightb=1 / open_gop=0 / weightp=2 / keyint=240 / keyint_min=23 / scenecut=40 / intra_refresh=0 / rc_lookahead=40 / rc=crf / mbtree=1 / crf=16.0 / qcomp=0.60 / qpmin=0 / qpmax=69 / qpstep=4 / vbv_maxrate=62500 / vbv_bufsize=78125 / crf_max=0.0 / nal_hrd=none / filler=0 / ip_ratio=1.40 / aq=1:0.60
    Default                                  : Yes
    Forced                                   : No
    
    Audio #1
    ID                                       : 2
    Format                                   : AC-3
    Format/Info                              : Audio Coding 3
    Mode extension                           : CM (complete main)
    Format settings, Endianness              : Big
    Codec ID                                 : A_AC3
    Duration                                 : 26mn 3s
    Bit rate mode                            : Constant
    Bit rate                                 : 448 Kbps
    Channel count                            : 2 channels
    Channel positions                        : Front: L R
    Sampling rate                            : 48.0 KHz
    Bit depth                                : 16 bits
    Compression mode                         : Lossy
    Stream size                              : 83.5 MiB (9%)
    Default                                  : Yes
    Forced                                   : No
    
    Audio #2
    ID                                       : 3
    Format                                   : AC-3
    Format/Info                              : Audio Coding 3
    Mode extension                           : CM (complete main)
    Format settings, Endianness              : Big
    Codec ID                                 : A_AC3
    Duration                                 : 26mn 3s
    Bit rate mode                            : Constant
    Bit rate                                 : 448 Kbps
    Channel count                            : 2 channels
    Channel positions                        : Front: L R
    Sampling rate                            : 48.0 KHz
    Bit depth                                : 16 bits
    Compression mode                         : Lossy
    Stream size                              : 83.5 MiB (9%)
    Default                                  : No
    Forced                                   : No
    
    Audio #3
    ID                                       : 4
    Format                                   : AC-3
    Format/Info                              : Audio Coding 3
    Mode extension                           : CM (complete main)
    Format settings, Endianness              : Big
    Codec ID                                 : A_AC3
    Duration                                 : 26mn 3s
    Bit rate mode                            : Constant
    Bit rate                                 : 448 Kbps
    Channel count                            : 2 channels
    Channel positions                        : Front: L R
    Sampling rate                            : 48.0 KHz
    Bit depth                                : 16 bits
    Compression mode                         : Lossy
    Stream size                              : 83.5 MiB (9%)
    Default                                  : No
    Forced                                   : No
    
    Text #1
    ID                                       : 5
    Format                                   : PGS
    Muxing mode                              : zlib
    Codec ID                                 : S_HDMV/PGS
    Codec ID/Info                            : The same subtitle format used on BDs/HD-DVDs
    Default                                  : No
    Forced                                   : No
    
    Text #2
    ID                                       : 6
    Format                                   : PGS
    Muxing mode                              : zlib
    Codec ID                                 : S_HDMV/PGS
    Codec ID/Info                            : The same subtitle format used on BDs/HD-DVDs
    Default                                  : No
    Forced                                   : No
    
    Text #3
    ID                                       : 7
    Format                                   : PGS
    Muxing mode                              : zlib
    Codec ID                                 : S_HDMV/PGS
    Codec ID/Info                            : The same subtitle format used on BDs/HD-DVDs
    Default                                  : No
    Forced                                   : No
    1080p DTS
    Code:
    
    Format                                   : Matroska
    Format version                           : Version 4 / Version 2
    File size                                : 1.28 GiB
    Duration                                 : 26mn 3s
    Overall bit rate mode                    : Variable
    Overall bit rate                         : 7 019 Kbps
    Encoded date                             : UTC 2015-06-14 12:57:32
    Writing application                      : mkvmerge v7.4.0 ('Circles') 64bit built on Dec 12 2014 12:19:56
    Writing library                          : libebml v1.3.0 + libmatroska v1.4.1
    _STATISTICS_WRITING_APP                  : mkvmerge v7.4.0 ('Circles') 64bit built on Dec 12 2014 12:19:56
    _STATISTICS_WRITING_DATE_UTC             : 2015-06-14 12:57:32
    _STATISTICS_TAGS                         : BPS DURATION NUMBER_OF_FRAMES NUMBER_OF_BYTES
    DURATION                                 : 00:25:40.122000000
    NUMBER_OF_FRAMES                         : 1018
    NUMBER_OF_BYTES                          : 4569554
    
    Video
    ID                                       : 1
    Format                                   : AVC
    Format/Info                              : Advanced Video Codec
    Format profile                           : [email protected]
    Format settings, CABAC                   : Yes
    Format settings, ReFrames                : 4 frames
    Codec ID                                 : V_MPEG4/ISO/AVC
    Duration                                 : 26mn 3s
    Width                                    : 1 920 pixels
    Height                                   : 1 080 pixels
    Display aspect ratio                     : 16:9
    Frame rate mode                          : Constant
    Frame rate                               : 23.976 fps
    Color space                              : YUV
    Chroma subsampling                       : 4:2:0
    Bit depth                                : 8 bits
    Scan type                                : Progressive
    Writing library                          : x264 core 146 r2538 121396c
    Encoding settings                        : cabac=1 / ref=4 / deblock=1:1:1 / analyse=0x3:0x113 / me=hex / subme=7 / psy=1 / psy_rd=1.00:0.00 / mixed_ref=1 / me_range=16 / chroma_me=1 / trellis=1 / 8x8dct=1 / cqm=0 / deadzone=21,11 / fast_pskip=1 / chroma_qp_offset=-2 / threads=6 / lookahead_threads=1 / sliced_threads=0 / nr=0 / decimate=1 / interlaced=0 / bluray_compat=0 / constrained_intra=0 / bframes=5 / b_pyramid=2 / b_adapt=1 / b_bias=0 / direct=1 / weightb=1 / open_gop=0 / weightp=2 / keyint=240 / keyint_min=23 / scenecut=40 / intra_refresh=0 / rc_lookahead=40 / rc=crf / mbtree=1 / crf=16.0 / qcomp=0.60 / qpmin=0 / qpmax=69 / qpstep=4 / vbv_maxrate=62500 / vbv_bufsize=78125 / crf_max=0.0 / nal_hrd=none / filler=0 / ip_ratio=1.40 / aq=1:0.60
    Default                                  : Yes
    Forced                                   : No
    
    Audio #1
    ID                                       : 2
    Format                                   : DTS
    Format/Info                              : Digital Theater Systems
    Format profile                           : MA / Core
    Mode                                     : 16
    Format settings, Endianness              : Big
    Codec ID                                 : A_DTS
    Duration                                 : 26mn 3s
    Bit rate mode                            : Variable
    Bit rate                                 : Unknown / 768 Kbps
    Channel count                            : 2 channels
    Channel positions                        : Front: L R
    Sampling rate                            : 48.0 KHz
    Bit depth                                : 24 bits
    Compression mode                         : Lossless / Lossy
    Default                                  : Yes
    Forced                                   : No
    
    Audio #2
    ID                                       : 3
    Format                                   : DTS
    Format/Info                              : Digital Theater Systems
    Format profile                           : MA / Core
    Mode                                     : 16
    Format settings, Endianness              : Big
    Codec ID                                 : A_DTS
    Duration                                 : 26mn 3s
    Bit rate mode                            : Variable
    Bit rate                                 : Unknown / 768 Kbps
    Channel count                            : 2 channels
    Channel positions                        : Front: L R
    Sampling rate                            : 48.0 KHz
    Bit depth                                : 24 bits
    Compression mode                         : Lossless / Lossy
    Default                                  : No
    Forced                                   : No
    
    Audio #3
    ID                                       : 4
    Format                                   : DTS
    Format/Info                              : Digital Theater Systems
    Mode                                     : 16
    Format settings, Endianness              : Big
    Codec ID                                 : A_DTS
    Duration                                 : 26mn 3s
    Bit rate mode                            : Constant
    Bit rate                                 : 318 Kbps
    Channel count                            : 2 channels
    Channel positions                        : Front: L R
    Sampling rate                            : 48.0 KHz
    Bit depth                                : 24 bits
    Compression mode                         : Lossy
    Stream size                              : 59.3 MiB (5%)
    Default                                  : No
    Forced                                   : No
    
    Text #1
    ID                                       : 5
    Format                                   : PGS
    Muxing mode                              : zlib
    Codec ID                                 : S_HDMV/PGS
    Codec ID/Info                            : The same subtitle format used on BDs/HD-DVDs
    Default                                  : Yes
    Forced                                   : No
    
    Text #2
    ID                                       : 6
    Format                                   : PGS
    Muxing mode                              : zlib
    Codec ID                                 : S_HDMV/PGS
    Codec ID/Info                            : The same subtitle format used on BDs/HD-DVDs
    Default                                  : No
    Forced                                   : No
    
    Text #3
    ID                                       : 7
    Format                                   : PGS
    Muxing mode                              : zlib
    Codec ID                                 : S_HDMV/PGS
    Codec ID/Info                            : The same subtitle format used on BDs/HD-DVDs
    Default                                  : No
    Forced                                   : No




    Geschützter Bereich - Bedanke dich beim Poster, um den Bereich sehen zu können
    Hier erfährst Du wie Du Dich bedanken kannst oder werde jetzt Premium Mitglied ab einer Spende von 5€ und erhalte sofortigen Zugriff auf den Downloadbereich!
    !!!Alle Anliegen bezüglich Uploads werden nur mit direktem Threadlink zum Angebot bearbeitet!!!

    Re-Uploadanfragen nur per PN - Ihr könnt mir auch Listen schicken

    Re-Uploads folgen nach Anfrage meist am Wochenende

    [Links sind nur für registrierte und aktivierte Nutzer sichtbar. Klicke hier um dich zu registrieren.] | [Links sind nur für registrierte und aktivierte Nutzer sichtbar. Klicke hier um dich zu registrieren.] | >[Links sind nur für registrierte und aktivierte Nutzer sichtbar. Klicke hier um dich zu registrieren.]<
    [Links sind nur für registrierte und aktivierte Nutzer sichtbar. Klicke hier um dich zu registrieren.]

  2. 190 Benutzer sagen Danke:

    Anzeigen

    -tomcat- (30. August 2016),123nitro123 (15. August 2015),ace1234560 (13. November 2015),Akatsuki (27. September 2015),Akio (20. February 2016),animeathome (24. March 2016),AnimeGuy69 (7. June 2016),ApCeLlonDinG (25. December 2015),archonize (1. November 2015),arginator (2. January 2016),Asuka Langley (1. September 2015),Avises (6. September 2015),Behind you! (1. February 2016),BK-201 (31. December 2015),BlackPhoenix (12. August 2015),bloodman (19. September 2016),Bloodrevenge (12. October 2015),Brumme (10. October 2015),Bubblefish717 (14. October 2016),Carbon (13. October 2016),Chaosdragon (21. October 2015),Charly (21. October 2015),Chillasedi (20. August 2015),ChriisP (9. November 2015),Conopas (5. May 2016),Cooop34 (28. January 2016),crazy_p (29. September 2015),Dark-Noir (15. September 2015),david21 (15. August 2015),DBounce (8. January 2016),DedSec (21. August 2016),demonac (27. November 2016),deofration (4. September 2015),Der Doctor (15. August 2015),downloader_1987 (11. August 2015),Dragon29 (28. September 2016),Eight (1. November 2016),El Senna (2. February 2016),elta92 (9. January 2016),enfii (12. August 2015),FantasticZ (3. December 2015),farmerjoe (17. May 2016),fexco (24. October 2015),Fishbowl (12. August 2015),Flexx7000 (28. February 2016),FrankyxD (16. August 2015),Freeman1599 (12. February 2016),FreshMagma (25. December 2015),galudo (30. August 2016),Gintoki (5. January 2016),graythunder (27. February 2016),Grom (22. May 2016),Gromm (12. August 2015),Haftiabi Tefflondon (21. May 2016),HappyTree (28. October 2015),Hardman (9. September 2015),harry9x (6. January 2016),HellSPawn91 (11. September 2016),Heroic (17. May 2016),Hi im Shini (14. August 2015),Hiruja (6. September 2016),Hobbitgraf (8. April 2016),Hollow-Ichigo (10. April 2016),Holzmodem (17. January 2016),Hyperfresh (10. November 2015),Ibanezar (3. January 2016),IBlackstar (6. September 2015),Inowan (21. July 2016),ioki (9. January 2016),IRazziCz (18. September 2015),JackyMono (1. March 2016),jesan6 (1. November 2015),Kaan- (20. April 2016),kaiste (9. April 2016),Kaktusmensch (18. September 2015),katey01 (12. February 2016),Kenny328 (29. October 2016),Kevin386 (13. February 2016),khavatarie (6. September 2016),Kirdock (12. August 2015),Kradus (24. August 2015),krasserGaul (12. August 2015),Kupan (18. February 2016),Lamperouge (28. January 2016),Ley0304 (21. September 2015),lol3333 (10. October 2015),Lukutus33_inactive (16. August 2015),madmax916sps (30. August 2016),Mallaye (6. March 2016),Manuk (23. March 2016),MatrixEsl (25. March 2016),max3366 (23. April 2016),MCRFG (25. August 2015),merb (29. February 2016),midnighter (15. August 2015),midori-iro (25. September 2016),Mikarmi (17. June 2016),Mike-San_inactive (23. August 2015),mikle20 (27. July 2016),mik_y (30. May 2016),Miriweth (12. November 2016),Missingz0r (29. October 2015),mOlDaViA (11. January 2016),mossi93 (31. August 2015),Mr.Shit (23. August 2015),mrsh4rky (25. September 2016),MrSuicideSheeep (24. November 2015),MrThief (10. January 2016),MutationACE (9. January 2016),Nandemonai (5. September 2015),Natsu008 (20. May 2016),NeefBenriya (15. September 2016),nickssystem (13. August 2015),nuggl (28. November 2015),olevonpopole (3. April 2016),Paachan (16. March 2016),Paradox1906 (8. December 2016),passi (28. May 2016),Pazu (1. May 2016),philipp1602 (16. August 2015),Pitou (14. May 2016),Radesys (19. December 2015),Raphael96 (8. February 2016),re.tischi (1. January 2016),Regi (19. February 2016),rekiznuh1 (19. September 2015),Reudenboy (26. August 2015),RiPLEYY (28. October 2015),Roxas8139 (10. December 2015),S1M0N93 (26. March 2016),saarx (15. August 2015),Saiga (6. October 2015),Sakamoto (1. April 2016),san1n (30. August 2016),Sandy7580 (27. March 2016),Sansento (27. September 2015),Sanubo (7. October 2015),Schumi2405 (25. December 2015),SciTeC (21. February 2016),Sendo2k (2. March 2016),Sergej10 (3. October 2016),setugen no ao (27. June 2016),Sharan955 (24. April 2016),sharline (21. March 2016),Shinigami1337 (10. October 2015),Shinosenshi (30. September 2015),Shinu Luna (23. November 2015),Shirobaka (5. June 2016),shorteh (Heute),SiiiNaN (14. November 2015),Skaze (2. December 2015),sn4tch (14. August 2016),SONNYxq (12. August 2015),Sora (30. August 2016),swagrid (23. February 2016),Sylux (31. August 2015),syman8989 (30. August 2016),syth (14. March 2016),Tabacko (12. August 2015),TakashiKudo (3. March 2016),Talerius (2. September 2016),Tana-kun (3. December 2015),TastyCrysis (10. January 2016),Terrorhasii.x3 (28. May 2016),ThaProduca (27. December 2015),theglone (13. September 2015),thomas (12. March 2016),Tidus18 (4. January 2016),tigerhai (19. April 2016),tohotono1987 (26. August 2015),treffgarnix (5. December 2015),Tzi (17. August 2015),undertaker0951 (29. July 2016),VatosLocos (30. September 2015),ventus1991 (14. September 2016),Verethragna (18. October 2015),videoseven (25. October 2015),visor (25. August 2015),Volki002 (26. March 2016),Whitebeard18 (7. October 2015),wirtzor_inactive (18. August 2015),WolfsBlade (23. August 2015),XenoX (7. April 2016),xEssentiaLx (7. September 2016),Yoarashi (28. March 2016),Yoma (2. May 2016),Zaiphel (3. July 2016),Zapzerap (16. May 2016),Zeroxar (27. August 2015),zoe#449 (30. August 2016)

  3. #2
    United we Stand Avatar von 00Ryuji00
    Registriert seit
    Oct 2012
    Beiträge
    3.902
    Punkte
    100.092
    Errungenschaften:
    TomodachisGang LeaderHikikomoriTagger Amateur50000 Erfahrungspunkte

    AW: Angel Beats! + Bonus [Ger-Jap-Dub][Ger-Sub][AC3/DTS-HD][720p/1080p][BluRay] - AST4u

    Update: Dateien auf Wunsch wieder online.
    !!!Alle Anliegen bezüglich Uploads werden nur mit direktem Threadlink zum Angebot bearbeitet!!!

    Re-Uploadanfragen nur per PN - Ihr könnt mir auch Listen schicken

    Re-Uploads folgen nach Anfrage meist am Wochenende

    [Links sind nur für registrierte und aktivierte Nutzer sichtbar. Klicke hier um dich zu registrieren.] | [Links sind nur für registrierte und aktivierte Nutzer sichtbar. Klicke hier um dich zu registrieren.] | >[Links sind nur für registrierte und aktivierte Nutzer sichtbar. Klicke hier um dich zu registrieren.]<
    [Links sind nur für registrierte und aktivierte Nutzer sichtbar. Klicke hier um dich zu registrieren.]

  4. 1 Benutzer sagt Danke:

    Sora (30. August 2016)

Lesezeichen

Berechtigungen

  • Neue Themen erstellen: Nein
  • Themen beantworten: Nein
  • Anhänge hochladen: Nein
  • Beiträge bearbeiten: Nein
  •  

1 2 3 4 5 6 7 8 9 10 11 12 13 14 15 16 17 18 19 20 21 22 23 24 25 26 27 28 29 30 31 32 33 34 35 36 37 38 39 40 41 42 43 44 45 46 47 48 49 50 51 52 53 54 55 56 57 58 59 60 61 62 63 64 65 66 67 68 69 70 71 72 73 74 75 76 77 78 79 80 81 82 83 84 85 86 87 88 89 90 91 92 93 94 95 96 97 98 99 100 101 102 103 104 105 106 107 108 109 110 111 112 113 114 115 116 117 118 119 120 121 122 123 124 125 126 127 128 129 130 131 132 133 134 135 136 137 138 139 140 141 142 143 144 145 146 147 148 149 150 151 152 153 154 155 156 157 158