Ergebnis 1 bis 1 von 1

Thema: Beyblade 2001 Ger-Dub MP3 TVRip DivX - aF

Dieser Thread wurde noch nicht bewertet. Bewerte ihn doch, wenn er dir gefällt!
  1. #1
    High Quality Anime Avatar von Uploading123
    Registriert seit
    Mar 2013
    Beiträge
    1.009
    Punkte
    44.135
    Errungenschaften:
    TomodachisTagger Amateur25000 ErfahrungspunkteHikikomoriKapitän

    Beyblade 2001 Ger-Dub MP3 TVRip DivX - aF


    Beyblade 2001 German MP3 TVRip DivX - aF




    Der zwölfjährige Tyson hat nur ein Ziel - Beybladeweltmeister zu werden. Beyblades sind kleine High-Techkreisel, die man mit seinem Willen kontrollieren und so gegeneinander kämpfen lassen kann. Es gilt als DIE Sportart schlechthin, was aber nicht heißt, dass es immer fair zugeht. So trifft Tyson auf seinem Weg zum Beybladechamp auf niederträchtige Gangs, stellt sich zwielichtigen Personen entgegen und kämpft sich seinen Weg nach vorne. Währenddessen muss er erkennen, dass es sich bei Beyblades um mehr handelt, als einfaches Spielzeug. Bitbeasts, mystische und uralte Wesen mit enormen Kräften, können sich in ihnen verstecken und dem Beyblade den nötigen Powerschub verpassen; was ihm oft auf unangenehme Weise klar gemacht wird. Begleitet von Kenny, dem Computergenie, und dem Rest seines Beybladteams steigt er an die Spitze und verhindert sogar die Weltherrschaft...

    Neun Jahre später werden erneut Morde begangen, die den damaligen Ereignissen sehr ähneln. Durch Zufall gerät auch Tenma in die Ermittlungen und er erkennt schnell, dass in Wahrheit Johann für die Morde verantwortlich ist. Bald darauf begegnet er Johann und dieser offenbart sein monströses Wesen. Er begeht vor seinen Augen einen Mord und dankt ihm gleichzeitig, dass er ihn damals gerettet hat. Deswegen lässt er Tenma am Leben, doch der ist jetzt selbst ins Visier der Polizei geraten. Damit beginnt für ihn ein Leben auf der Flucht und eine Reise quer durch Deutschland, denn er will nicht nur Anna wiederfinden, sondern auch das Morden stoppen.


    Größe: 9.9 GB // ca. 200 MB pro Folge
    Laufzeit: ca. 20 Minuten pro Folge
    Auflösung: 640x480
    Bittiefe: 8-Bit
    Audio: MP3
    Format: avi
    Sprache: Deutsch
    Release Group: aF
    Episodenanzahl: 51

    Mediainfo
    Spoiler

    General
    Complete name : [aF]Beyblade.-.01.-.Ein.Neuer.Herausforderer[5DE89F0E].avi
    Format : AVI
    Format/Info : Audio Video Interleave
    File size : 202 MiB
    Duration : 20mn 0s
    Overall bit rate : 1 409 Kbps
    Writing library : VirtualDub build 0/release

    Video
    ID : 0
    Format : MPEG-4 Visual
    Format settings, BVOP : 1
    Format settings, QPel : No
    Format settings, GMC : No warppoints
    Format settings, Matrix : Default (H.263)
    Muxing mode : Packed bitstream
    Codec ID : DX50
    Codec ID/Hint : DivX 5
    Duration : 20mn 0s
    Bit rate : 1 301 Kbps
    Width : 640 pixels
    Height : 480 pixels
    Display aspect ratio : 4:3
    Frame rate : 25.000 fps
    Color space : YUV
    Chroma subsampling : 4:2:0
    Bit depth : 8 bits
    Scan type : Progressive
    Compression mode : Lossy
    Bits/(Pixel*Frame) : 0.169
    Stream size : 186 MiB (92%)
    Writing library : DivX 5.0.3 (UTC 2003-01-24)

    Audio
    ID : 1
    Format : MPEG Audio
    Format version : Version 1
    Format profile : Layer 3
    Codec ID : 55
    Codec ID/Hint : MP3
    Duration : 20mn 0s
    Bit rate mode : Constant
    Bit rate : 96.0 Kbps
    Channel count : 2 channels
    Sampling rate : 44.1 KHz
    Compression mode : Lossy
    Delay relative to video : 7ms
    Stream size : 13.7 MiB (7%)
    Alignment : Aligned on interleaves
    Interleave, duration : 26 ms (0.65 video frame)
    Interleave, preload duration : 522 ms



    // Folgen einzeln ladbar //

    Mirrors kompatibel

    Geschützter Bereich - Bedanke dich beim Poster, um den Bereich sehen zu können
    Hier erfährst Du wie Du Dich bedanken kannst oder werde jetzt Premium Mitglied ab einer Spende von 5€ und erhalte sofortigen Zugriff auf den Downloadbereich!


    Geschützter Bereich - Bedanke dich beim Poster, um den Bereich sehen zu können
    Hier erfährst Du wie Du Dich bedanken kannst oder werde jetzt Premium Mitglied ab einer Spende von 5€ und erhalte sofortigen Zugriff auf den Downloadbereich!



    Spoiler
    Insanity

    Geändert von Uploading123 (1. April 2014 um 21:51 Uhr)
    Ihr seht nur Oboom als Mirror, obwohl Uploaded bzw. Share-Online angegeben ist?
    [Links sind nur für registrierte und aktivierte Nutzer sichtbar. Klicke hier um dich zu registrieren.]

  2. 65 Benutzer sagen Danke:

    Anzeigen

    ApCeLlonDinG (25. December 2015),atomwesen (21. May 2016),Avenger2201 (8. November 2014),BK-201 (17. May 2015),Bohnihater (3. July 2014),Buddha (9. February 2016),Buffy.P (27. October 2016),C3M-O- (4. August 2015),Cena90 (6. August 2015),cheetray (4. June 2014),Cloud002 (18. August 2015),Conopas (7. March 2015),crazy_p (12. December 2015),dannyidk (9. August 2014),Demolchen (7. July 2015),downloader_1987 (14. March 2014),Enirito (22. November 2014),eraz (15. February 2015),error157 (10. May 2015),Fenrir00_inactive (26. May 2014),Flint (1. August 2014),Gebbi (17. December 2015),Goodbyelogik (13. May 2014),Hakku (13. November 2015),HellSPawn91 (5. February 2015),Himuckel (6. September 2015),Hisamaki (6. April 2016),Itachi700 (17. November 2014),janik2009 (19. January 2016),JugoBetrugo (10. May 2015),Kalchi (3. August 2016),kiks (13. December 2014),Kirdock (9. January 2016),Kohlii (13. December 2014),Kradus (31. October 2015),Kupan (18. February 2016),kybant (9. March 2016),Lautrerbomber (17. February 2015),midnighter (5. January 2015),naban (24. April 2014),neomaker (18. December 2014),nitsuj1001 (31. October 2015),noizmaker (15. April 2015),onepiecefreak (11. April 2015),QWiiK_inactive (16. May 2015),re.tischi (15. December 2015),RyuLelouch (19. November 2015),SerienStream (31. August 2015),Silentshipping (11. July 2015),skilletor (16. July 2016),Snake_at_web (15. February 2015),sparx44 (11. April 2014),sponkyplayer (9. April 2015),StrikeAngel13 (8. April 2015),SunburstHD (1. August 2014),Sw33p (21. September 2015),thegroudge (6. November 2016),Toad (2. August 2016),Tysar (18. March 2016),UndeadBan (19. July 2016),Whitebeard (26. March 2014),Wnark (7. February 2016),xifaxufu (27. May 2014),Zaisen (3. April 2014)

Lesezeichen

Berechtigungen

  • Neue Themen erstellen: Nein
  • Themen beantworten: Nein
  • Anhänge hochladen: Nein
  • Beiträge bearbeiten: Nein
  •  

1 2 3 4 5 6 7 8 9 10 11 12 13 14 15 16 17 18 19 20 21 22 23 24 25 26 27 28 29 30 31 32 33 34 35 36 37 38 39 40 41 42 43 44 45 46 47 48 49 50 51 52 53 54 55 56 57 58 59 60 61 62 63 64 65 66 67 68 69 70 71 72 73 74 75 76 77 78 79 80 81 82 83 84 85 86 87 88 89 90 91 92 93 94 95 96 97 98 99 100 101 102 103 104 105 106 107 108 109 110 111 112 113 114 115 116 117 118 119 120 121 122 123 124 125 126 127 128 129 130 131 132 133 134 135 136 137 138 139 140 141 142 143 144 145 146 147 148 149 150 151 152 153 154 155 156 157 158