Ergebnis 1 bis 1 von 1

Thema: Beyblade V-Force 2002 German MP3 TVRip XviD - aF

Dieser Thread wurde noch nicht bewertet. Bewerte ihn doch, wenn er dir gefällt!
  1. #1
    High Quality Anime Avatar von Uploading123
    Registriert seit
    Mar 2013
    Beiträge
    1.009
    Punkte
    44.135
    Errungenschaften:
    TomodachisTagger Amateur25000 ErfahrungspunkteHikikomoriKapitän

    Beyblade V-Force 2002 German MP3 TVRip XviD - aF


    Beyblade V-Force 2002 German MP3 TVRip XviD - aF




    Diese Serie beginnt mit einer Legende über die Abstammung der Beyblades. Danach sind Tyson und sein Großvater in einem Dojo. Der Großvater zeigt Tyson das uralte Schwert, das schon seit Jahren im Besitz der Familie ist. Er sagt, dass in dem Schwert Dragoon sei. Tyson hat keine Lust mehr zu trainieren, weil er noch einen Kampf mit Andrew austragen muss. Als er auf dem Weg zum Kampf ist, kommt ein Junge und fordert Tyson zu einem Duell – Tyson gewinnt.


    Größe: 10,2 GB // ca. 214 MB pro Folge
    Laufzeit: ca. 20 Minuten pro Folge
    Auflösung: 640x480
    Bittiefe: 8-Bit
    Audio: MP3
    Format: avi
    Sprache: Deutsch
    Release Group: aF

    Mediainfo
    Spoiler

    General
    Complete name : [aF]Beyblade.VForce.-.01.-.Nur.ein.kleines.Turnier....avi
    Format : AVI
    Format/Info : Audio Video Interleave
    File size : 214 MiB
    Duration : 20mn 0s
    Overall bit rate : 1 498 Kbps
    Writing library : VirtualDub build 15654/release

    Video
    ID : 0
    Format : MPEG-4 Visual
    Format profile : [email protected]
    Format settings, BVOP : 2
    Format settings, QPel : No
    Format settings, GMC : No warppoints
    Format settings, Matrix : Default (H.263)
    Codec ID : XVID
    Codec ID/Hint : XviD
    Duration : 20mn 0s
    Bit rate : 1 360 Kbps
    Width : 640 pixels
    Height : 480 pixels
    Display aspect ratio : 4:3
    Frame rate : 25.000 fps
    Color space : YUV
    Chroma subsampling : 4:2:0
    Bit depth : 8 bits
    Scan type : Progressive
    Compression mode : Lossy
    Bits/(Pixel*Frame) : 0.177
    Stream size : 195 MiB (91%)
    Writing library : XviD 0.0.09 (UTC 2003-03-25)

    Audio
    ID : 1
    Format : MPEG Audio
    Format version : Version 1
    Format profile : Layer 3
    Mode : Joint stereo
    Mode extension : MS Stereo
    Codec ID : 55
    Codec ID/Hint : MP3
    Duration : 20mn 0s
    Bit rate mode : Constant
    Bit rate : 128 Kbps
    Channel count : 2 channels
    Sampling rate : 48.0 KHz
    Compression mode : Lossy
    Stream size : 18.3 MiB (9%)
    Alignment : Split accross interleaves
    Interleave, duration : 40 ms (1.00 video frame)
    Interleave, preload duration : 451 ms



    // Folgen einzeln ladbar //

    Mirrors kompatibel

    Geschützter Bereich - Bedanke dich beim Poster, um den Bereich sehen zu können
    Hier erfährst Du wie Du Dich bedanken kannst oder werde jetzt Premium Mitglied ab einer Spende von 5€ und erhalte sofortigen Zugriff auf den Downloadbereich!


    Geschützter Bereich - Bedanke dich beim Poster, um den Bereich sehen zu können
    Hier erfährst Du wie Du Dich bedanken kannst oder werde jetzt Premium Mitglied ab einer Spende von 5€ und erhalte sofortigen Zugriff auf den Downloadbereich!



    Spoiler
    Insanity

    Ihr seht nur Oboom als Mirror, obwohl Uploaded bzw. Share-Online angegeben ist?
    [Links sind nur für registrierte und aktivierte Nutzer sichtbar. Klicke hier um dich zu registrieren.]

  2. 38 Benutzer sagen Danke:

    Ares78 (13. March 2014),BK-201 (10. June 2016),Bohnihater (3. July 2014),C3M-O- (4. August 2015),Cena90 (6. August 2015),cheetray (4. June 2014),Cloud002 (18. August 2015),dannyidk (9. August 2014),Demolchen (7. July 2015),Fenrir00_inactive (26. May 2014),Flint (1. August 2014),Hakku (13. November 2015),HellSPawn91 (13. February 2015),Hisamaki (6. April 2016),Itachi700 (17. November 2014),janik2009 (19. January 2016),Kalchi (3. August 2016),kiks (13. December 2014),Kirdock (9. January 2016),Lautrerbomber (17. February 2015),midnighter (5. January 2015),naban (24. April 2014),neomaker (18. December 2014),noizmaker (15. April 2015),onepiecefreak (11. April 2015),re.tischi (15. December 2015),RyuLelouch (19. November 2015),SerienStream (31. August 2015),skylier (4. June 2016),sparx44 (11. April 2014),Sw33p (21. September 2015),Timberwolf (24. April 2016),Tysar (1. April 2016),UndeadBan (19. July 2016),Whitebeard (26. March 2014),xifaxufu (27. May 2014),Zaisen (3. April 2014)

Lesezeichen

Berechtigungen

  • Neue Themen erstellen: Nein
  • Themen beantworten: Nein
  • Anhänge hochladen: Nein
  • Beiträge bearbeiten: Nein
  •  

1 2 3 4 5 6 7 8 9 10 11 12 13 14 15 16 17 18 19 20 21 22 23 24 25 26 27 28 29 30 31 32 33 34 35 36 37 38 39 40 41 42 43 44 45 46 47 48 49 50 51 52 53 54 55 56 57 58 59 60 61 62 63 64 65 66 67 68 69 70 71 72 73 74 75 76 77 78 79 80 81 82 83 84 85 86 87 88 89 90 91 92 93 94 95 96 97 98 99 100 101 102 103 104 105 106 107 108 109 110 111 112 113 114 115 116 117 118 119 120 121 122 123 124 125 126 127 128 129 130 131 132 133 134 135 136 137 138 139 140 141 142 143 144 145 146 147 148 149 150 151 152 153 154 155 156 157 158