Ergebnis 1 bis 3 von 3

Thema: Black Lagoon S01+S02+OVA [Ger-Jap-Dub][Ger-Sub][720p/1080p][BluRay] - AST4u

Dieser Thread wurde durchschnittlich mit 5 Sternen bewertet, wobei 1 Stern die schlechteste und 5 Sterne die beste Bewertung ist. Es haben insgesamt 2 Mitglieder eine Bewertung abgegeben.

  1. #1
    United we Stand Avatar von 00Ryuji00
    Registriert seit
    Oct 2012
    Beiträge
    3.902
    Punkte
    99.823
    Errungenschaften:
    TomodachisGang LeaderHikikomoriTagger Amateur50000 Erfahrungspunkte

    Black Lagoon S01+S02+OVA [Ger-Jap-Dub][Ger-Sub][720p/1080p][BluRay] - AST4u


    Black Lagoon

    ブラック・ラグーン
    +
    Black Lagoon: The Second Barrage ブラックラグーン The Second Barrage
    Black Lagoon 2nd Season, Black Lagoon Saison 2
    +
    Black Lagoon: Roberta's Blood Trail ブラック・ラグーン -Roberta's Blood Trail-
    Black Lagoon 3, BL3



    Kurzbeschreibung:
    Zitat Zitat von AniSearch.com
    Rokurou Okajima*ist ein Angestellter einer großen Firma in Tokio. Als sein Schiff auf einer Geschäftsreise in Südost-Asien von einer Gruppe Piraten überfallen wird, wird er als Geisel verschleppt. Die Lagoon Company besteht aus ihrem Anführer Dutch, der schießwütigen Revy und dem Techniker Benny. Die drei haben es nur auf die CD mit Plänen für Atomwaffen abgesehen, die Rokurou dabei hat, und wollen mit seiner Entführung noch etwas Lösegeld rausschlagen.

    Die Firma interessiert sich aber nicht für das Schicksal von Rokurou, der sich inzwischen mit seinen Entführern angefreundet hat, und entsendet eine handvoll Söldner um Rokurou und die Piraten auszulöschen.

    Durch eine rettende Idee von Rokurou werden die Söldner getötet und die Piraten, beeindruckt von seiner Leistung, nehmen ihn in die Crew der "Black Lagoon" auf. Fortan nennt er sich Rock und erfüllt für die Lagoon Company Aufträge für die Mafia und verschiedene Verbrechersyndikate.
    Spieldauer: 24min
    Genre: Action
    Nebengenres: Abenteuer, Action, Drama, Männlich, Psychodrama, Thriller, Volljährig, Übermäßige Gewaltdarstellung
    Jahr: 2006
    Sprache: Deutsch, Japanisch
    Untertitel: Deutsch
    Größe pro Folge: ~ 450MB/900MB
    Episodenanzahl: 12/12 + 12/12 + 5/5
    Format: MKV
    Auflösung: 720p (16:9), 1080p (16:9)
    Videocodec: x264 (AVC)
    Audiocodec: AC-3
    Releasegruppe: AST4u
    Hoster: Uploaded, Share-Online

    MediaInfo
    720p
    Code:
    
    Format                                   : Matroska
    Format version                           : Version 4 / Version 2
    File size                                : 408 MiB
    Duration                                 : 23mn 27s
    Overall bit rate                         : 2 432 Kbps
    Encoded date                             : UTC 2015-04-19 15:57:29
    Writing application                      : mkvmerge v7.4.0 ('Circles') 64bit built on Dec 12 2014 12:19:56
    Writing library                          : libebml v1.3.0 + libmatroska v1.4.1
    _STATISTICS_WRITING_APP                  : mkvmerge v7.4.0 ('Circles') 64bit built on Dec 12 2014 12:19:56
    _STATISTICS_WRITING_DATE_UTC             : 2015-04-19 15:57:29
    _STATISTICS_TAGS                         : BPS DURATION NUMBER_OF_FRAMES NUMBER_OF_BYTES
    DURATION                                 : 00:21:50.809000000
    NUMBER_OF_FRAMES                         : 10
    NUMBER_OF_BYTES                          : 28404
    
    Video
    ID                                       : 1
    Format                                   : AVC
    Format/Info                              : Advanced Video Codec
    Format profile                           : [email protected]
    Format settings, CABAC                   : Yes
    Format settings, ReFrames                : 6 frames
    Codec ID                                 : V_MPEG4/ISO/AVC
    Duration                                 : 23mn 26s
    Bit rate                                 : 1 488 Kbps
    Width                                    : 1 280 pixels
    Height                                   : 720 pixels
    Display aspect ratio                     : 16:9
    Frame rate mode                          : Constant
    Frame rate                               : 23.976 fps
    Color space                              : YUV
    Chroma subsampling                       : 4:2:0
    Bit depth                                : 8 bits
    Scan type                                : Progressive
    Bits/(Pixel*Frame)                       : 0.067
    Stream size                              : 250 MiB (61%)
    Writing library                          : x264 core 146 r2538 121396c
    Encoding settings                        : cabac=1 / ref=6 / deblock=1:1:1 / analyse=0x3:0x113 / me=hex / subme=7 / psy=1 / psy_rd=1.00:0.00 / mixed_ref=1 / me_range=16 / chroma_me=1 / trellis=1 / 8x8dct=1 / cqm=0 / deadzone=21,11 / fast_pskip=1 / chroma_qp_offset=-2 / threads=6 / lookahead_threads=1 / sliced_threads=0 / nr=0 / decimate=1 / interlaced=0 / bluray_compat=0 / constrained_intra=0 / bframes=5 / b_pyramid=2 / b_adapt=1 / b_bias=0 / direct=1 / weightb=1 / open_gop=0 / weightp=2 / keyint=240 / keyint_min=23 / scenecut=40 / intra_refresh=0 / rc_lookahead=40 / rc=crf / mbtree=1 / crf=16.0 / qcomp=0.60 / qpmin=0 / qpmax=69 / qpstep=4 / vbv_maxrate=62500 / vbv_bufsize=78125 / crf_max=0.0 / nal_hrd=none / filler=0 / ip_ratio=1.40 / aq=1:0.60
    Default                                  : Yes
    Forced                                   : No
    
    Audio #1
    ID                                       : 2
    Format                                   : AC-3
    Format/Info                              : Audio Coding 3
    Mode extension                           : CM (complete main)
    Format settings, Endianness              : Big
    Codec ID                                 : A_AC3
    Duration                                 : 23mn 27s
    Bit rate mode                            : Constant
    Bit rate                                 : 448 Kbps
    Channel count                            : 2 channels
    Channel positions                        : Front: L R
    Sampling rate                            : 48.0 KHz
    Bit depth                                : 16 bits
    Compression mode                         : Lossy
    Stream size                              : 75.1 MiB (18%)
    Default                                  : Yes
    Forced                                   : No
    
    Audio #2
    ID                                       : 3
    Format                                   : AC-3
    Format/Info                              : Audio Coding 3
    Mode extension                           : CM (complete main)
    Format settings, Endianness              : Big
    Codec ID                                 : A_AC3
    Duration                                 : 23mn 27s
    Bit rate mode                            : Constant
    Bit rate                                 : 448 Kbps
    Channel count                            : 2 channels
    Channel positions                        : Front: L R
    Sampling rate                            : 48.0 KHz
    Bit depth                                : 16 bits
    Compression mode                         : Lossy
    Stream size                              : 75.1 MiB (18%)
    Default                                  : No
    Forced                                   : No
    
    Text #1
    ID                                       : 4
    Format                                   : PGS
    Muxing mode                              : zlib
    Codec ID                                 : S_HDMV/PGS
    Codec ID/Info                            : The same subtitle format used on BDs/HD-DVDs
    Default                                  : No
    Forced                                   : No
    
    Text #2
    ID                                       : 5
    Format                                   : PGS
    Muxing mode                              : zlib
    Codec ID                                 : S_HDMV/PGS
    Codec ID/Info                            : The same subtitle format used on BDs/HD-DVDs
    Default                                  : No
    Forced                                   : No
    1080p
    Code:
    
    Format                                   : Matroska
    Format version                           : Version 4 / Version 2
    File size                                : 679 MiB
    Duration                                 : 23mn 27s
    Overall bit rate                         : 4 047 Kbps
    Encoded date                             : UTC 2015-04-19 16:05:45
    Writing application                      : mkvmerge v7.4.0 ('Circles') 64bit built on Dec 12 2014 12:19:56
    Writing library                          : libebml v1.3.0 + libmatroska v1.4.1
    _STATISTICS_WRITING_APP                  : mkvmerge v7.4.0 ('Circles') 64bit built on Dec 12 2014 12:19:56
    _STATISTICS_WRITING_DATE_UTC             : 2015-04-19 16:05:45
    _STATISTICS_TAGS                         : BPS DURATION NUMBER_OF_FRAMES NUMBER_OF_BYTES
    DURATION                                 : 00:21:50.809000000
    NUMBER_OF_FRAMES                         : 10
    NUMBER_OF_BYTES                          : 28404
    
    Video
    ID                                       : 1
    Format                                   : AVC
    Format/Info                              : Advanced Video Codec
    Format profile                           : [email protected]
    Format settings, CABAC                   : Yes
    Format settings, ReFrames                : 4 frames
    Codec ID                                 : V_MPEG4/ISO/AVC
    Duration                                 : 23mn 26s
    Bit rate                                 : 3 070 Kbps
    Width                                    : 1 920 pixels
    Height                                   : 1 080 pixels
    Display aspect ratio                     : 16:9
    Frame rate mode                          : Constant
    Frame rate                               : 23.976 fps
    Color space                              : YUV
    Chroma subsampling                       : 4:2:0
    Bit depth                                : 8 bits
    Scan type                                : Progressive
    Bits/(Pixel*Frame)                       : 0.062
    Stream size                              : 515 MiB (76%)
    Writing library                          : x264 core 146 r2538 121396c
    Encoding settings                        : cabac=1 / ref=4 / deblock=1:1:1 / analyse=0x3:0x113 / me=hex / subme=7 / psy=1 / psy_rd=1.00:0.00 / mixed_ref=1 / me_range=16 / chroma_me=1 / trellis=1 / 8x8dct=1 / cqm=0 / deadzone=21,11 / fast_pskip=1 / chroma_qp_offset=-2 / threads=6 / lookahead_threads=1 / sliced_threads=0 / nr=0 / decimate=1 / interlaced=0 / bluray_compat=0 / constrained_intra=0 / bframes=5 / b_pyramid=2 / b_adapt=1 / b_bias=0 / direct=1 / weightb=1 / open_gop=0 / weightp=2 / keyint=240 / keyint_min=23 / scenecut=40 / intra_refresh=0 / rc_lookahead=40 / rc=crf / mbtree=1 / crf=16.0 / qcomp=0.60 / qpmin=0 / qpmax=69 / qpstep=4 / vbv_maxrate=62500 / vbv_bufsize=78125 / crf_max=0.0 / nal_hrd=none / filler=0 / ip_ratio=1.40 / aq=1:0.60
    Default                                  : Yes
    Forced                                   : No
    
    Audio #1
    ID                                       : 2
    Format                                   : AC-3
    Format/Info                              : Audio Coding 3
    Mode extension                           : CM (complete main)
    Format settings, Endianness              : Big
    Codec ID                                 : A_AC3
    Duration                                 : 23mn 27s
    Bit rate mode                            : Constant
    Bit rate                                 : 448 Kbps
    Channel count                            : 2 channels
    Channel positions                        : Front: L R
    Sampling rate                            : 48.0 KHz
    Bit depth                                : 16 bits
    Compression mode                         : Lossy
    Stream size                              : 75.1 MiB (11%)
    Default                                  : Yes
    Forced                                   : No
    
    Audio #2
    ID                                       : 3
    Format                                   : AC-3
    Format/Info                              : Audio Coding 3
    Mode extension                           : CM (complete main)
    Format settings, Endianness              : Big
    Codec ID                                 : A_AC3
    Duration                                 : 23mn 27s
    Bit rate mode                            : Constant
    Bit rate                                 : 448 Kbps
    Channel count                            : 2 channels
    Channel positions                        : Front: L R
    Sampling rate                            : 48.0 KHz
    Bit depth                                : 16 bits
    Compression mode                         : Lossy
    Stream size                              : 75.1 MiB (11%)
    Default                                  : No
    Forced                                   : No
    
    Text #1
    ID                                       : 4
    Format                                   : PGS
    Muxing mode                              : zlib
    Codec ID                                 : S_HDMV/PGS
    Codec ID/Info                            : The same subtitle format used on BDs/HD-DVDs
    Default                                  : No
    Forced                                   : No
    
    Text #2
    ID                                       : 5
    Format                                   : PGS
    Muxing mode                              : zlib
    Codec ID                                 : S_HDMV/PGS
    Codec ID/Info                            : The same subtitle format used on BDs/HD-DVDs
    Default                                  : No
    Forced                                   : No




    Geschützter Bereich - Bedanke dich beim Poster, um den Bereich sehen zu können
    Hier erfährst Du wie Du Dich bedanken kannst oder werde jetzt Premium Mitglied ab einer Spende von 5€ und erhalte sofortigen Zugriff auf den Downloadbereich!


    [Links sind nur für registrierte und aktivierte Nutzer sichtbar. Klicke hier um dich zu registrieren.]
    Geändert von 00Ryuji00 (8. April 2016 um 00:04 Uhr)
    !!!Alle Anliegen bezüglich Uploads werden nur mit direktem Threadlink zum Angebot bearbeitet!!!

    Re-Uploadanfragen nur per PN - Ihr könnt mir auch Listen schicken

    Re-Uploads erfolgen meist innerhalb 24h, kann aber auch bis zu 7 Tage dauern

    [Links sind nur für registrierte und aktivierte Nutzer sichtbar. Klicke hier um dich zu registrieren.] | [Links sind nur für registrierte und aktivierte Nutzer sichtbar. Klicke hier um dich zu registrieren.] | >[Links sind nur für registrierte und aktivierte Nutzer sichtbar. Klicke hier um dich zu registrieren.]<
    [Links sind nur für registrierte und aktivierte Nutzer sichtbar. Klicke hier um dich zu registrieren.]

  2. 165 Benutzer sagen Danke:

    Anzeigen

    -tomcat- (8. August 2016),Akio (29. August 2015),Androkai (6. May 2016),AnimeFanBoy (26. August 2015),Antipott (7. September 2015),assa (7. April 2016),Asuka Langley (1. September 2015),azzrah0815 (8. November 2015),Baschti1989 (6. August 2016),basdi (6. February 2016),beckiiyy1 (30. August 2015),BlackPhoenix (30. August 2015),BlackReaper (9. April 2016),BlackWidow (26. August 2015),bleach-master (11. October 2015),Boff (13. April 2016),bonsai (26. May 2016),brunsdumm (28. September 2015),Bunchy (26. August 2015),carollatranny (18. December 2015),chopper23 (26. August 2015),ChriisP (1. November 2015),cooliero (26. August 2015),crazy_p (1. October 2015),CrossOvah (5. February 2016),Curo (30. April 2016),D15c05 (8. February 2016),dacheff (26. August 2015),dagger85 (4. September 2015),Dalurin (27. August 2015),Dark-Noir (15. September 2015),darkangel92 (8. December 2015),Der Doctor (27. August 2015),Donquixote (30. December 2015),Drdyne (25. September 2015),egon1212 (27. August 2015),Eight (16. July 2016),el guyo (1. May 2016),enfii (30. August 2015),Evilon (7. December 2015),Extraneis (18. January 2016),Feed Me x33 (22. December 2015),Ferax (7. February 2016),Filbo11 (25. August 2015),FlagSFX (30. October 2016),foiderbua (3. April 2016),foxtrot (17. February 2016),galudo (2. May 2016),Ghostraven (12. October 2015),Goldwipf (20. March 2016),Gorbatschow (13. December 2015),graythunder (27. February 2016),Grom (19. April 2016),Gromm (27. August 2015),GutiHaz_14 (3. September 2016),Hacibush (26. August 2015),Hardman (9. September 2015),Haxz0r (19. September 2015),Hi im Shini (12. September 2015),hisoka suzuya (26. August 2015),Holzmodem (8. April 2016),hunter4320 (6. August 2016),Hyro (27. May 2016),iCapuz (27. September 2016),Icke (15. March 2016),Inowan (10. May 2016),Itachi.Uchiha (27. November 2015),Jack (29. September 2015),janik2009 (14. March 2016),JoleenLovesMina (23. September 2016),Junns (26. October 2015),just4me1 (8. September 2015),Kaan- (23. June 2016),Kanade Chan (3. April 2016),keku (27. August 2015),Kevin386 (25. April 2016),kiirei15242 (29. September 2015),killer7977 (25. September 2015),King-Loretta (25. November 2016),knuddel34582 (26. August 2015),Knuddelbearli (6. September 2015),Kodama1989 (20. November 2015),KrachbumAlex (10. January 2016),Kradus (31. August 2015),krasserGaul (25. August 2015),Kuruse (26. August 2016),Kushikime (29. July 2016),Lautrerbomber (21. July 2016),lol3333 (12. October 2015),mar3el (7. July 2016),masta.ace (11. September 2016),mateo1234 (28. September 2015),MCRFG (3. September 2015),midnighter (30. September 2015),Miriweth (8. August 2016),Monkey (31. March 2016),mylo8595 (16. March 2016),Natsu008 (20. May 2016),Nexus777 (31. August 2015),Nijazi2000 (9. March 2016),NLHTeddyNLH (1. October 2015),Number11 (29. May 2016),Nyan (28. August 2015),Paraxamos (22. September 2015),piggsylol (8. May 2016),PreciseBlade (11. March 2016),Predatorr5412 (13. May 2016),Razel86 (9. May 2016),Regi (19. February 2016),Repcak (11. April 2016),Rin58 (3. December 2015),rinnegan93 (15. November 2016),rizzor666 (12. December 2015),Rord Venom (22. May 2016),Ryota (18. September 2015),RyuLelouch (18. November 2015),S4nCh3z (26. August 2016),Saiga (14. August 2016),samuuil (29. May 2016),san1n (7. May 2016),Sapper (26. October 2015),Schumi2405 (23. December 2015),SchwarzKlaue (6. May 2016),Schweigi (15. April 2016),Scrappedmaster (14. August 2016),Sedos (29. September 2015),SenseiSasone (8. May 2016),SertiX (17. November 2015),setugen no ao (9. April 2016),Shadowa (27. August 2015),sharline (28. June 2016),Shi No Ryu (7. August 2016),Shinosenshi (17. September 2015),sid6581 (20. November 2015),SiiiNaN (3. May 2016),Skaze (19. September 2016),Skully_88 (17. September 2015),SL4V3R (23. September 2015),Sora (21. July 2016),spielmacher9 (24. January 2016),sure21 (4. January 2016),Susch (26. August 2015),Sylux (13. September 2015),syth (14. April 2016),Tekk (30. October 2015),Tenma90 (9. April 2016),Tevion32 (21. February 2016),Tex (8. May 2016),thomas (24. July 2016),tigerhai (6. April 2016),Titanime (11. August 2016),tohotono1987 (26. August 2015),Troll (8. September 2015),undertaker0951 (24. July 2016),VatosLocos (4. September 2015),Vaxes013 (5. February 2016),Virgel (8. April 2016),Wakaba (20. December 2015),WolfsBlade (10. September 2015),xEssentiaLx (7. January 2016),xhellsingx (24. October 2015),XRA9 (31. August 2015),Yishar (19. September 2016),Z5991E (17. November 2016),zorro177 (20. November 2016)

  3. #2
    United we Stand Avatar von 00Ryuji00
    Registriert seit
    Oct 2012
    Beiträge
    3.902
    Punkte
    99.823
    Errungenschaften:
    TomodachisGang LeaderHikikomoriTagger Amateur50000 Erfahrungspunkte

    AW: Black Lagoon S01+S02+OVA [Ger-Jap-Dub][Ger-Sub][720p/1080p][BluRay] - AST4u

    Wieder online ~
    !!!Alle Anliegen bezüglich Uploads werden nur mit direktem Threadlink zum Angebot bearbeitet!!!

    Re-Uploadanfragen nur per PN - Ihr könnt mir auch Listen schicken

    Re-Uploads erfolgen meist innerhalb 24h, kann aber auch bis zu 7 Tage dauern

    [Links sind nur für registrierte und aktivierte Nutzer sichtbar. Klicke hier um dich zu registrieren.] | [Links sind nur für registrierte und aktivierte Nutzer sichtbar. Klicke hier um dich zu registrieren.] | >[Links sind nur für registrierte und aktivierte Nutzer sichtbar. Klicke hier um dich zu registrieren.]<
    [Links sind nur für registrierte und aktivierte Nutzer sichtbar. Klicke hier um dich zu registrieren.]

  4. 1 Benutzer sagt Danke:

    Virgel (8. April 2016)

  5. #3
    United we Stand Avatar von 00Ryuji00
    Registriert seit
    Oct 2012
    Beiträge
    3.902
    Punkte
    99.823
    Errungenschaften:
    TomodachisGang LeaderHikikomoriTagger Amateur50000 Erfahrungspunkte

    AW: Black Lagoon S01+S02+OVA [Ger-Jap-Dub][Ger-Sub][720p/1080p][BluRay] - AST4u

    Update: Dateien auf Wunsch wieder online.
    !!!Alle Anliegen bezüglich Uploads werden nur mit direktem Threadlink zum Angebot bearbeitet!!!

    Re-Uploadanfragen nur per PN - Ihr könnt mir auch Listen schicken

    Re-Uploads erfolgen meist innerhalb 24h, kann aber auch bis zu 7 Tage dauern

    [Links sind nur für registrierte und aktivierte Nutzer sichtbar. Klicke hier um dich zu registrieren.] | [Links sind nur für registrierte und aktivierte Nutzer sichtbar. Klicke hier um dich zu registrieren.] | >[Links sind nur für registrierte und aktivierte Nutzer sichtbar. Klicke hier um dich zu registrieren.]<
    [Links sind nur für registrierte und aktivierte Nutzer sichtbar. Klicke hier um dich zu registrieren.]

  6. 1 Benutzer sagt Danke:

    Lautrerbomber (31. July 2016)

Lesezeichen

Berechtigungen

  • Neue Themen erstellen: Nein
  • Themen beantworten: Nein
  • Anhänge hochladen: Nein
  • Beiträge bearbeiten: Nein
  •  

1 2 3 4 5 6 7 8 9 10 11 12 13 14 15 16 17 18 19 20 21 22 23 24 25 26 27 28 29 30 31 32 33 34 35 36 37 38 39 40 41 42 43 44 45 46 47 48 49 50 51 52 53 54 55 56 57 58 59 60 61 62 63 64 65 66 67 68 69 70 71 72 73 74 75 76 77 78 79 80 81 82 83 84 85 86 87 88 89 90 91 92 93 94 95 96 97 98 99 100 101 102 103 104 105 106 107 108 109 110 111 112 113 114 115 116 117 118 119 120 121 122 123 124 125 126 127 128 129 130 131 132 133 134 135 136 137 138 139 140 141 142 143 144 145 146 147 148 149 150 151 152 153 154 155 156 157 158