Ergebnis 1 bis 2 von 2

Thema: Black Lagoon + Second Barrage + Roberta's Blood Trail + Omake + Extras [Ger-Jap-Eng-Dub][FLAC][Ger-Eng-Sub][1080p][Remux][Blu-ray]-SantaKlaus

Dieser Thread wurde durchschnittlich mit 5 Sternen bewertet, wobei 1 Stern die schlechteste und 5 Sterne die beste Bewertung ist. Es haben insgesamt 1 Mitglieder eine Bewertung abgegeben.

  1. #1
    Kleiner Experte Avatar von SantaKlaus
    Registriert seit
    Feb 2014
    Beiträge
    103
    Punkte
    5.867
    Errungenschaften:
    Hikikomori5000 Erfahrungspunkte

    Black Lagoon + Second Barrage + Roberta's Blood Trail + Omake + Extras [Ger-Jap-Eng-Dub][FLAC][Ger-Eng-Sub][1080p][Remux][Blu-ray]-SantaKlaus

    Black Lagoon
    ブラック・ラグーン






    Kurzbeschreibung:
    Rokurou Okajima ist ein Angestellter einer großen Firma in Tokio. Als sein Schiff auf einer Geschäftsreise in Südost-Asien von einer Gruppe Piraten überfallen wird, wird er als Geisel verschleppt. Die Lagoon Company besteht aus ihrem Anführer Dutch, der schießwütigen Revy und dem Techniker Benny. Die drei haben es nur auf die CD mit Plänen für Atomwaffen abgesehen, die Rokurou dabei hat, und wollen mit seiner Entführung noch etwas Lösegeld rausschlagen.

    Die Firma interessiert sich aber nicht für das Schicksal von Rokurou, der sich inzwischen mit seinen Entführern angefreundet hat, und entsendet eine handvoll Söldner um Rokurou und die Piraten auszulöschen.

    Durch eine rettende Idee von Rokurou werden die Söldner getötet und die Piraten, beeindruckt von seiner Leistung, nehmen ihn in die Crew der "Black Lagoon" auf. Fortan nennt er sich Rock und erfüllt für die Lagoon Company Aufträge für die Mafia und verschiedene Verbrechersyndikate.


    Format: 16:9
    Auflösung: 1920 x 1080
    Episoden: 12/12
    Source: JP & EU Blu-ray
    Codec: AVC (JP BD)
    Hoster: Share-Online
    Ton:
    Deutsch FLAC 2.0 (EU BD)
    Japanisch FLAC 2.0 (EU BD)
    Englisch FLAC 2.0 (EU BD)

    Spoiler
    Code:
    General
    Unique ID                   : 178128515348232677004253849045463923192 (0x86024DDDD0007F5FB4B607F50822F9F8)
    Complete name               : Black Lagoon - S01E01 - Die Black Lagoon.mkv
    Format                      : Matroska
    Format version              : Version 4 / Version 2
    File size                   : 4.48 GiB
    Duration                    : 23mn 27s
    Overall bit rate mode       : Variable
    Overall bit rate            : 27.3 Mbps
    Encoded date                : UTC 2016-03-15 14:13:13
    Writing application         : mkvmerge v8.9.0 ('Father Daughter') 64bit
    Writing library             : libebml v1.3.3 + libmatroska v1.4.4
    
    Video
    ID                          : 1
    Format                      : AVC
    Format/Info                 : Advanced Video Codec
    Format profile              : [email protected]
    Format settings, CABAC      : Yes
    Format settings, ReFrames   : 2 frames
    Codec ID                    : V_MPEG4/ISO/AVC
    Duration                    : 23mn 26s
    Bit rate mode               : Variable
    Bit rate                    : 25.6 Mbps
    Width                       : 1 920 pixels
    Height                      : 1 080 pixels
    Display aspect ratio        : 16:9
    Frame rate mode             : Constant
    Frame rate                  : 23.976 (24000/1001) fps
    Color space                 : YUV
    Chroma subsampling          : 4:2:0
    Bit depth                   : 8 bits
    Scan type                   : Progressive
    Bits/(Pixel*Frame)          : 0.515
    Stream size                 : 4.19 GiB (94%)
    Language                    : Japanese
    Default                     : Yes
    Forced                      : No
    
    Audio #1
    ID                          : 2
    Format                      : FLAC
    Format/Info                 : Free Lossless Audio Codec
    Codec ID                    : A_FLAC
    Duration                    : 23mn 27s
    Bit rate mode               : Variable
    Bit rate                    : 400 Kbps
    Channel(s)                  : 2 channels
    Channel positions           : Front: L R
    Sampling rate               : 48.0 KHz
    Frame rate                  : 11.719 fps (4096 spf)
    Bit depth                   : 16 bits
    Stream size                 : 67.1 MiB (1%)
    Writing library             : libFLAC 1.2.1 (UTC 2007-09-17)
    Language                    : German
    Default                     : Yes
    Forced                      : No
    
    Audio #2
    ID                          : 3
    Format                      : FLAC
    Format/Info                 : Free Lossless Audio Codec
    Codec ID                    : A_FLAC
    Duration                    : 23mn 27s
    Bit rate mode               : Variable
    Bit rate                    : 690 Kbps
    Channel(s)                  : 2 channels
    Channel positions           : Front: L R
    Sampling rate               : 48.0 KHz
    Frame rate                  : 11.719 fps (4096 spf)
    Bit depth                   : 16 bits
    Stream size                 : 116 MiB (3%)
    Writing library             : libFLAC 1.2.1 (UTC 2007-09-17)
    Language                    : Japanese
    Default                     : No
    Forced                      : No
    
    Audio #3
    ID                          : 4
    Format                      : FLAC
    Format/Info                 : Free Lossless Audio Codec
    Codec ID                    : A_FLAC
    Duration                    : 23mn 27s
    Bit rate mode               : Variable
    Bit rate                    : 611 Kbps
    Channel(s)                  : 2 channels
    Channel positions           : Front: L R
    Sampling rate               : 48.0 KHz
    Frame rate                  : 11.719 fps (4096 spf)
    Bit depth                   : 16 bits
    Stream size                 : 102 MiB (2%)
    Writing library             : libFLAC 1.2.1 (UTC 2007-09-17)
    Language                    : English
    Default                     : No
    Forced                      : No
    
    Text #1
    ID                          : 5
    Format                      : PGS
    Muxing mode                 : zlib
    Codec ID                    : S_HDMV/PGS
    Codec ID/Info               : Picture based subtitle format used on BDs/HD-DVDs
    Duration                    : 21mn 50s
    Bit rate                    : 173 bps
    Count of elements           : 10
    Stream size                 : 27.7 KiB (0%)
    Language                    : German
    Default                     : Yes
    Forced                      : Yes
    
    Text #2
    ID                          : 6
    Format                      : PGS
    Muxing mode                 : zlib
    Codec ID                    : S_HDMV/PGS
    Codec ID/Info               : Picture based subtitle format used on BDs/HD-DVDs
    Duration                    : 21mn 49s
    Bit rate                    : 13.2 Kbps
    Count of elements           : 804
    Stream size                 : 2.06 MiB (0%)
    Language                    : German
    Default                     : No
    Forced                      : No
    
    Text #3
    ID                          : 7
    Format                      : PGS
    Muxing mode                 : zlib
    Codec ID                    : S_HDMV/PGS
    Codec ID/Info               : Picture based subtitle format used on BDs/HD-DVDs
    Duration                    : 960ms
    Bit rate                    : 27.3 Kbps
    Count of elements           : 2
    Stream size                 : 3.20 KiB (0%)
    Language                    : English
    Default                     : No
    Forced                      : Yes
    
    Text #4
    ID                          : 8
    Format                      : PGS
    Muxing mode                 : zlib
    Codec ID                    : S_HDMV/PGS
    Codec ID/Info               : Picture based subtitle format used on BDs/HD-DVDs
    Duration                    : 21mn 49s
    Bit rate                    : 11.8 Kbps
    Count of elements           : 632
    Stream size                 : 1.84 MiB (0%)
    Language                    : English
    Default                     : No
    Forced                      : No
    
    Menu
    00:00:00.000                : en:Opening
    00:01:30.006                : en:A-part
    00:13:13.042                : en:B-part
    00:21:46.346                : en:Ending
    00:23:16.228                : en:Next



    Black Lagoon: The Second Barrage
    ブラックラグーン The Second Barrage






    Kurzbeschreibung:
    Auf mysteriöse Weise werden in Roanapur verschiedene Gangster ermordet. Hotel Moskau stellt Nachforschungen an, um Rache an den Tätern nehmen zu können. Zur Unterstützung ihrer Leute bei der Suche setzt Balalaika ein Kopfgeld aus, weshalb es in der ganzen Stadt bald von Kopfgeldjägern aus der ganzen Welt wimmelt. Sobald sie herausgefunden hat, wer hinter den Morden steckt, stellt sie den Mördern eine Falle - und gerät dabei Revy und Eda in die Quere, die ganz andere Pläne als Hotel Moskau haben. Als auch noch einer der Mörder die Lagoon Company um Hilfe bittet, spitzt sich die Situation zu...


    Format: 16:9
    Auflösung: 1920 x 1080
    Episoden: 12/12
    Source: JP & EU Blu-ray
    Codec: AVC (JP BD)
    Hoster: Share-Online
    Ton:
    Deutsch FLAC 2.0 (EU BD)
    Japanisch FLAC 2.0 (EU BD)
    Englisch FLAC 2.0 (EU BD)

    Spoiler
    Code:
    General
    Unique ID                   : 195262353265807377283951320456208253405 (0x92E6294C0BAC3AF08214CB79F80701DD)
    Complete name               : Black Lagoon - S01E13 - The Vampire Twins Comen.mkv
    Format                      : Matroska
    Format version              : Version 4 / Version 2
    File size                   : 4.98 GiB
    Duration                    : 23mn 27s
    Overall bit rate mode       : Variable
    Overall bit rate            : 30.4 Mbps
    Encoded date                : UTC 2016-03-18 14:26:36
    Writing application         : mkvmerge v8.9.0 ('Father Daughter') 64bit
    Writing library             : libebml v1.3.3 + libmatroska v1.4.4
    
    Video
    ID                          : 1
    Format                      : AVC
    Format/Info                 : Advanced Video Codec
    Format profile              : [email protected]
    Format settings, CABAC      : Yes
    Format settings, ReFrames   : 2 frames
    Codec ID                    : V_MPEG4/ISO/AVC
    Duration                    : 23mn 26s
    Bit rate mode               : Variable
    Bit rate                    : 28.9 Mbps
    Width                       : 1 920 pixels
    Height                      : 1 080 pixels
    Display aspect ratio        : 16:9
    Frame rate mode             : Constant
    Frame rate                  : 23.976 (24000/1001) fps
    Color space                 : YUV
    Chroma subsampling          : 4:2:0
    Bit depth                   : 8 bits
    Scan type                   : Progressive
    Bits/(Pixel*Frame)          : 0.580
    Stream size                 : 4.72 GiB (95%)
    Language                    : Japanese
    Default                     : Yes
    Forced                      : No
    
    Audio #1
    ID                          : 2
    Format                      : FLAC
    Format/Info                 : Free Lossless Audio Codec
    Codec ID                    : A_FLAC
    Duration                    : 23mn 27s
    Bit rate mode               : Variable
    Bit rate                    : 357 Kbps
    Channel(s)                  : 2 channels
    Channel positions           : Front: L R
    Sampling rate               : 48.0 KHz
    Frame rate                  : 11.719 fps (4096 spf)
    Bit depth                   : 16 bits
    Stream size                 : 59.9 MiB (1%)
    Writing library             : libFLAC 1.2.1 (UTC 2007-09-17)
    Language                    : German
    Default                     : Yes
    Forced                      : No
    
    Audio #2
    ID                          : 3
    Format                      : FLAC
    Format/Info                 : Free Lossless Audio Codec
    Codec ID                    : A_FLAC
    Duration                    : 23mn 27s
    Bit rate mode               : Variable
    Bit rate                    : 622 Kbps
    Channel(s)                  : 2 channels
    Channel positions           : Front: L R
    Sampling rate               : 48.0 KHz
    Frame rate                  : 11.719 fps (4096 spf)
    Bit depth                   : 16 bits
    Stream size                 : 104 MiB (2%)
    Writing library             : libFLAC 1.2.1 (UTC 2007-09-17)
    Language                    : Japanese
    Default                     : No
    Forced                      : No
    
    Audio #3
    ID                          : 4
    Format                      : FLAC
    Format/Info                 : Free Lossless Audio Codec
    Codec ID                    : A_FLAC
    Duration                    : 23mn 27s
    Bit rate mode               : Variable
    Bit rate                    : 520 Kbps
    Channel(s)                  : 2 channels
    Channel positions           : Front: L R
    Sampling rate               : 48.0 KHz
    Frame rate                  : 11.719 fps (4096 spf)
    Bit depth                   : 16 bits
    Stream size                 : 87.3 MiB (2%)
    Writing library             : libFLAC 1.2.1 (UTC 2007-09-17)
    Language                    : English
    Default                     : No
    Forced                      : No
    
    Text #1
    ID                          : 5
    Format                      : PGS
    Muxing mode                 : zlib
    Codec ID                    : S_HDMV/PGS
    Codec ID/Info               : Picture based subtitle format used on BDs/HD-DVDs
    Duration                    : 21mn 50s
    Bit rate                    : 110 bps
    Count of elements           : 8
    Stream size                 : 17.7 KiB (0%)
    Language                    : German
    Default                     : Yes
    Forced                      : Yes
    
    Text #2
    ID                          : 6
    Format                      : PGS
    Muxing mode                 : zlib
    Codec ID                    : S_HDMV/PGS
    Codec ID/Info               : Picture based subtitle format used on BDs/HD-DVDs
    Duration                    : 21mn 57s
    Bit rate                    : 12.5 Kbps
    Count of elements           : 786
    Stream size                 : 1.96 MiB (0%)
    Language                    : German
    Default                     : No
    Forced                      : No
    
    Text #3
    ID                          : 7
    Format                      : PGS
    Muxing mode                 : zlib
    Codec ID                    : S_HDMV/PGS
    Codec ID/Info               : Picture based subtitle format used on BDs/HD-DVDs
    Duration                    : 918ms
    Bit rate                    : 30.7 Kbps
    Count of elements           : 2
    Stream size                 : 3.45 KiB (0%)
    Language                    : English
    Default                     : No
    Forced                      : Yes
    
    Text #4
    ID                          : 8
    Format                      : PGS
    Muxing mode                 : zlib
    Codec ID                    : S_HDMV/PGS
    Codec ID/Info               : Picture based subtitle format used on BDs/HD-DVDs
    Duration                    : 21mn 48s
    Bit rate                    : 13.6 Kbps
    Count of elements           : 646
    Stream size                 : 2.12 MiB (0%)
    Language                    : English
    Default                     : No
    Forced                      : No
    
    Menu
    00:00:00.000                : en:Opening
    00:01:30.006                : en:A-part
    00:11:21.764                : en:B-part
    00:21:46.555                : en:Ending
    00:23:16.269                : en:Next



    Black Lagoon: Robertas Blood Trail
    ブラック・ラグーン -Roberta's Blood Trail-






    Kurzbeschreibung:
    Das brutale und skrupellose Hausmädchen Roberta ist vielen noch aus dem Vorgänger Black Lagoon bekannt und diesmal erhält sie ihre ganz eigene kleine Geschichte. Im friedlichen Anwesen der Familie Lovelace verrichtet die - auch früher als "Bloodhound" bekannte - Attentäterin ihren täglichen Dienst und lebt ein ganz normales Leben. Bis zu dem Tag, an dem Herr Lovelace einem Anschlag zum Opfer fällt und der Sohn ihres sehr geschätzten Arbeitgebers zum Waisen wird. Roberta bleibt nun nichts anderes übrig, als nach den Hintermännern des Anschlags zu suchen, da sie geradezu nach blutiger Rache dürstet. Dass sich die Hardcore-Maid wieder auf Beutezug macht, spricht sich schnell in der Unterwelt herum und alle fragen sich, wo sie wohl als nächstes zuschlagen wird. Auch "Two-Hand" Revy und ihre Black Lagoon Company bekommen davon Wind und selbstverständlich freut sich Revy sehnlichst auf ein erneutes Aufeinandertreffen mit ihrer wahrscheinlich stärksten Konkurrentin.


    Format: 16:9
    Auflösung: 1920 x 1080
    Episoden: 5/5
    Source: JP, US & DE Blu-ray
    Codec: AVC (JP BD)
    Hoster: Share-Online
    Ton:
    Deutsch AC3 2.0 (DE BD)
    Japanisch FLAC 2.0 (JP BD)
    Englisch TrueHD 5.1 (US BD) - als extra DL

    Spoiler
    Code:
    General
    Unique ID                   : 171675800583051484733748191925982463871 (0x81278E773D63F3EA8CDE6C384ED4077F)
    Complete name               : Black Lagoon - S00E08 - Roberta's Blood Trail- Collateral Massacre.mkv
    Format                      : Matroska
    Format version              : Version 4 / Version 2
    File size                   : 9.36 GiB
    Duration                    : 34mn 17s
    Overall bit rate mode       : Variable
    Overall bit rate            : 39.1 Mbps
    Encoded date                : UTC 2016-03-18 15:33:22
    Writing application         : mkvmerge v8.9.0 ('Father Daughter') 64bit
    Writing library             : libebml v1.3.3 + libmatroska v1.4.4
    
    Video
    ID                          : 1
    Format                      : AVC
    Format/Info                 : Advanced Video Codec
    Format profile              : [email protected]
    Format settings, CABAC      : Yes
    Format settings, ReFrames   : 2 frames
    Codec ID                    : V_MPEG4/ISO/AVC
    Duration                    : 34mn 17s
    Bit rate mode               : Variable
    Bit rate                    : 38.1 Mbps
    Width                       : 1 920 pixels
    Height                      : 1 080 pixels
    Display aspect ratio        : 16:9
    Frame rate mode             : Constant
    Frame rate                  : 23.976 (24000/1001) fps
    Color space                 : YUV
    Chroma subsampling          : 4:2:0
    Bit depth                   : 8 bits
    Scan type                   : Progressive
    Bits/(Pixel*Frame)          : 0.767
    Stream size                 : 9.13 GiB (98%)
    Language                    : Japanese
    Default                     : Yes
    Forced                      : No
    
    Audio #1
    ID                          : 2
    Format                      : AC-3
    Format/Info                 : Audio Coding 3
    Mode extension              : CM (complete main)
    Format settings, Endianness : Big
    Codec ID                    : A_AC3
    Duration                    : 34mn 17s
    Bit rate mode               : Constant
    Bit rate                    : 320 Kbps
    Channel(s)                  : 2 channels
    Channel positions           : Front: L R
    Sampling rate               : 48.0 KHz
    Frame rate                  : 31.250 fps (1536 spf)
    Compression mode            : Lossy
    Stream size                 : 78.5 MiB (1%)
    Language                    : German
    Default                     : Yes
    Forced                      : No
    
    Audio #2
    ID                          : 3
    Format                      : FLAC
    Format/Info                 : Free Lossless Audio Codec
    Codec ID                    : A_FLAC
    Duration                    : 34mn 17s
    Bit rate mode               : Variable
    Bit rate                    : 626 Kbps
    Channel(s)                  : 2 channels
    Channel positions           : Front: L R
    Sampling rate               : 48.0 KHz
    Frame rate                  : 10.417 fps (4608 spf)
    Bit depth                   : 16 bits
    Delay relative to video     : 55ms
    Stream size                 : 153 MiB (2%)
    Writing library             : MakeMKV v1.9.9 win(x64-release)
    Language                    : Japanese
    Default                     : No
    Forced                      : No
    
    Text #1
    ID                          : 4
    Format                      : PGS
    Muxing mode                 : zlib
    Codec ID                    : S_HDMV/PGS
    Codec ID/Info               : Picture based subtitle format used on BDs/HD-DVDs
    Duration                    : 855ms
    Bit rate                    : 48.9 Kbps
    Count of elements           : 2
    Stream size                 : 5.11 KiB (0%)
    Language                    : German
    Default                     : Yes
    Forced                      : Yes
    
    Text #2
    ID                          : 5
    Format                      : PGS
    Muxing mode                 : zlib
    Codec ID                    : S_HDMV/PGS
    Codec ID/Info               : Picture based subtitle format used on BDs/HD-DVDs
    Duration                    : 32mn 40s
    Bit rate                    : 17.8 Kbps
    Count of elements           : 910
    Stream size                 : 4.16 MiB (0%)
    Language                    : German
    Default                     : No
    Forced                      : No
    
    Menu
    00:00:00.000                : en:Opening
    00:01:30.840                : en:A-part
    00:13:25.679                : en:B-part
    00:22:13.415                : en:C-part
    00:32:05.089                : en:Ending
    00:34:01.831                : en:Next



    Black Lagoon Omake
    ブラック・ラグーン オマケ



    Kurzbeschreibung:
    Bei diesen zweiminütigen Specials werden die Charaktere von Black Lagoon mal eben in ein anderes Umfeld gepackt, wo sie sich mit ihren Persönlichkeiten mal als Schüler, mal als Magical Girl oder auch schon mal im anderen Geschlecht zurechtfinden müssen.


    Format: 16:9
    Auflösung: 1920 x 1080
    Episoden: 7/7
    Source: JP Blu-ray
    Codec: AVC (JP BD)
    Hoster: Share-Online
    Ton:
    Japanisch FLAC 2.0 (JP BD)

    Spoiler
    Code:
    General
    Unique ID                   : 178702177208173574375185765645077228316 (0x8670C9947040B7DC98C0A746A188AB1C)
    Complete name               : Black Lagoon - S00E01 - Highschool Life.mkv
    Format                      : Matroska
    Format version              : Version 4 / Version 2
    File size                   : 468 MiB
    Duration                    : 2mn 5s
    Overall bit rate mode       : Variable
    Overall bit rate            : 31.4 Mbps
    Encoded date                : UTC 2016-03-18 16:29:25
    Writing application         : mkvmerge v8.9.0 ('Father Daughter') 64bit
    Writing library             : libebml v1.3.3 + libmatroska v1.4.4
    Attachments                 : CIYTL_0.TTF / MICROSS_0.TTF
    
    Video
    ID                          : 1
    Format                      : AVC
    Format/Info                 : Advanced Video Codec
    Format profile              : [email protected]
    Format settings, CABAC      : Yes
    Format settings, ReFrames   : 2 frames
    Codec ID                    : V_MPEG4/ISO/AVC
    Duration                    : 2mn 5s
    Bit rate mode               : Variable
    Bit rate                    : 30.8 Mbps
    Width                       : 1 920 pixels
    Height                      : 1 080 pixels
    Display aspect ratio        : 16:9
    Frame rate mode             : Constant
    Frame rate                  : 23.976 (24000/1001) fps
    Color space                 : YUV
    Chroma subsampling          : 4:2:0
    Bit depth                   : 8 bits
    Scan type                   : Progressive
    Bits/(Pixel*Frame)          : 0.620
    Stream size                 : 460 MiB (98%)
    Language                    : Japanese
    Default                     : Yes
    Forced                      : No
    
    Audio
    ID                          : 2
    Format                      : FLAC
    Format/Info                 : Free Lossless Audio Codec
    Codec ID                    : A_FLAC
    Duration                    : 2mn 5s
    Bit rate mode               : Variable
    Bit rate                    : 517 Kbps
    Channel(s)                  : 2 channels
    Channel positions           : Front: L R
    Sampling rate               : 48.0 KHz
    Frame rate                  : 10.417 fps (4608 spf)
    Bit depth                   : 16 bits
    Stream size                 : 7.71 MiB (2%)
    Writing library             : MakeMKV v1.9.9 win(x64-release)
    Language                    : Japanese
    Default                     : Yes
    Forced                      : No
    
    Text
    ID                          : 3
    Format                      : ASS
    Codec ID                    : S_TEXT/ASS
    Codec ID/Info               : Advanced Sub Station Alpha
    Duration                    : 1mn 57s
    Bit rate                    : 104 bps
    Count of elements           : 29
    Compression mode            : Lossless
    Stream size                 : 1.50 KiB (0%)
    Language                    : English
    Default                     : Yes
    Forced                      : No




    Geschützter Bereich - Bedanke dich beim Poster, um den Bereich sehen zu können
    Hier erfährst Du wie Du Dich bedanken kannst oder werde jetzt Premium Mitglied ab einer Spende von 5€ und erhalte sofortigen Zugriff auf den Downloadbereich!
    Geändert von SantaKlaus (5. April 2016 um 20:46 Uhr) Grund: Eng Dub & Sub für Roberta's Blood Trail hinzugefügt (extern - zum selber Muxen)

  2. 41 Benutzer sagen Danke:

    Black_ Reaper (21. March 2016),chopper23 (21. March 2016),Conopas (9. May 2016),darkangel92 (27. April 2016),deofration (5. May 2016),DjRayleigh (21. March 2016),Dreieckhard (22. March 2016),e4exuberance (26. March 2016),Eight (16. July 2016),ElCapitan (3. April 2016),Goldwipf (22. April 2016),Grom (12. September 2016),GutiHaz_14 (19. September 2016),heikobaer (21. March 2016),Hobbitgraf (10. April 2016),Jisagi (22. March 2016),Kaffeesahne340 (15. September 2016),Kanade Chan (3. April 2016),Kuruse (26. August 2016),lol3333 (22. March 2016),MCRFG (2. April 2016),midnighter (21. March 2016),Monkey (5. April 2016),Natsu008 (19. May 2016),Number11 (29. May 2016),Paradox1906 (18. July 2016),Porco (25. March 2016),Raphael96 (1. April 2016),Raziel (21. March 2016),Repcak (7. April 2016),rinnegan93 (15. November 2016),samuuil (1. May 2016),setugen no ao (24. April 2016),sharline (24. June 2016),Tekk (21. March 2016),ter_Kapitalist (18. April 2016),tigerhai (21. March 2016),Toblerowner (24. March 2016),Virgel (23. March 2016),XenoX (1. April 2016),Zumay (12. August 2016)

  3. #2
    Kleiner Experte Avatar von SantaKlaus
    Registriert seit
    Feb 2014
    Beiträge
    103
    Punkte
    5.867
    Errungenschaften:
    Hikikomori5000 Erfahrungspunkte

    AW: Black Lagoon + Second Barrage + Roberta's Blood Trail + Omake + Extras [Ger-Jap-Eng-Dub][FLAC][Ger-Eng-Sub][1080p][Remux][Blu-ray]-SantaKlaus

    Eng Dub & Sub für Roberta's Blood Trail hinzugefügt (extern - zum selber Muxen).


    Geschützter Bereich - Bedanke dich beim Poster, um den Bereich sehen zu können
    Hier erfährst Du wie Du Dich bedanken kannst oder werde jetzt Premium Mitglied ab einer Spende von 5€ und erhalte sofortigen Zugriff auf den Downloadbereich!

  4. 7 Benutzer sagen Danke:

    Goldwipf (22. April 2016),Kaffeesahne340 (15. September 2016),midnighter (8. September 2016),Monkey (5. April 2016),Porco (25. March 2016),rinnegan93 (15. November 2016),Virgel (23. March 2016)

Lesezeichen

Berechtigungen

  • Neue Themen erstellen: Nein
  • Themen beantworten: Nein
  • Anhänge hochladen: Nein
  • Beiträge bearbeiten: Nein
  •  

1 2 3 4 5 6 7 8 9 10 11 12 13 14 15 16 17 18 19 20 21 22 23 24 25 26 27 28 29 30 31 32 33 34 35 36 37 38 39 40 41 42 43 44 45 46 47 48 49 50 51 52 53 54 55 56 57 58 59 60 61 62 63 64 65 66 67 68 69 70 71 72 73 74 75 76 77 78 79 80 81 82 83 84 85 86 87 88 89 90 91 92 93 94 95 96 97 98 99 100 101 102 103 104 105 106 107 108 109 110 111 112 113 114 115 116 117 118 119 120 121 122 123 124 125 126 127 128 129 130 131 132 133 134 135 136 137 138 139 140 141 142 143 144 145 146 147 148 149 150 151 152 153 154 155 156 157 158