Ergebnis 1 bis 1 von 1

Thema: Black Rock Shooter (2012) [Ger-Jap-Dub][Ger-Sub][AC3/DTS-HD/PCM][720p/1080p][BluRay]-AST4u

Dieser Thread wurde noch nicht bewertet. Bewerte ihn doch, wenn er dir gefällt!
  1. #1
    United we Stand Avatar von 00Ryuji00
    Registriert seit
    Oct 2012
    Beiträge
    3.896
    Punkte
    99.519
    Errungenschaften:
    TomodachisGang LeaderHikikomoriTagger Amateur50000 Erfahrungspunkte

    Black Rock Shooter (2012) [Ger-Jap-Dub][Ger-Sub][AC3/DTS-HD/PCM][720p/1080p][BluRay]-AST4u


    Black Rock Shooter (2012)
    Black Rock Shooter






    Kurzbeschreibung:
    Zitat Zitat von AniSearch.com
    Diese alternative Version zu Black Rock Shooter spielt einige Jahre später und Mato Kuroi geht mittlerweile auf die Oberschule. Mit ihrem offenen und freundlichen Auftreten versucht sie auf Anhieb neue Freunde zu gewinnen. Allen voran die schüchterne Mitschülerin Yomi Takanashi, doch deren Freundin Kagari scheint eine tiefe Abneigung gegen Mato zu haben. Das hält das quirlige Mädchen natürlich nicht davon ab, es trotzdem zu versuchen. Währenddessen kämpft Black Rock Shooter in einer Parallelwelt gegen neue Gegner und gegen ihre erbitterte Widersacherin Dead Master.


    Spieldauer: 23min
    Genre: Drama
    Nebengenres: Action, Alltagsleben, Drama, Psychodrama
    Jahr: 2012
    Sprache: Deutsch, Japanisch
    Untertitel: Deutsch
    Größe pro Folge: ~545 MiB ~1.08 GiB ~1.79 GiB
    Episodenanzahl: 8/8
    Format: MKV
    Auflösung: 720p (16:9), 1080p (16:9)
    Videocodec: x264 (AVC)
    Audiocodec: AC-3, DTS, PCM
    Releasegruppe: AST4u
    Hoster: Share-Online, Uploaded


    MediaInfo
    720p AC3
    Code:
    
    Format                                   : Matroska
    Format version                           : Version 4 / Version 2
    File size                                : 545 MiB
    Duration                                 : 22mn 57s
    Overall bit rate                         : 3 321 Kbps
    Encoded date                             : UTC 2016-02-23 14:27:07
    Writing application                      : mkvmerge v8.2.0 ('World of Adventure') 32bit
    Writing library                          : libebml v1.3.1 + libmatroska v1.4.2
    DURATION                                 : 00:22:57.056000000
    NUMBER_OF_FRAMES                         : 43033
    NUMBER_OF_BYTES                          : 77115136
    _STATISTICS_WRITING_APP                  : mkvmerge v8.2.0 ('World of Adventure') 32bit
    _STATISTICS_WRITING_DATE_UTC             : 2016-02-23 14:27:07
    _STATISTICS_TAGS                         : BPS DURATION NUMBER_OF_FRAMES NUMBER_OF_BYTES
    
    Video
    ID                                       : 3
    Format                                   : AVC
    Format/Info                              : Advanced Video Codec
    Format profile                           : [email protected]
    Format settings, CABAC                   : Yes
    Format settings, ReFrames                : 6 frames
    Codec ID                                 : V_MPEG4/ISO/AVC
    Duration                                 : 22mn 57s
    Bit rate                                 : 2 359 Kbps
    Width                                    : 1 280 pixels
    Height                                   : 720 pixels
    Display aspect ratio                     : 16:9
    Frame rate mode                          : Constant
    Frame rate                               : 23.976 fps
    Color space                              : YUV
    Chroma subsampling                       : 4:2:0
    Bit depth                                : 8 bits
    Scan type                                : Progressive
    Bits/(Pixel*Frame)                       : 0.107
    Stream size                              : 387 MiB (71%)
    Writing library                          : x264 core 148 r2638 7599210
    Encoding settings                        : cabac=1 / ref=6 / deblock=1:1:1 / analyse=0x3:0x113 / me=hex / subme=9 / psy=1 / psy_rd=0.40:0.00 / mixed_ref=1 / me_range=16 / chroma_me=1 / trellis=1 / 8x8dct=1 / cqm=0 / deadzone=21,11 / fast_pskip=1 / chroma_qp_offset=-2 / threads=12 / lookahead_threads=1 / sliced_threads=0 / nr=0 / decimate=1 / interlaced=0 / bluray_compat=0 / constrained_intra=0 / bframes=5 / b_pyramid=2 / b_adapt=2 / b_bias=0 / direct=1 / weightb=1 / open_gop=0 / weightp=2 / keyint=240 / keyint_min=23 / scenecut=40 / intra_refresh=0 / rc_lookahead=40 / rc=crf / mbtree=1 / crf=16.0 / qcomp=0.60 / qpmin=0 / qpmax=69 / qpstep=4 / vbv_maxrate=62500 / vbv_bufsize=78125 / crf_max=0.0 / nal_hrd=none / filler=0 / ip_ratio=1.40 / aq=1:0.60
    Default                                  : Yes
    Forced                                   : No
    
    Audio #1
    ID                                       : 4
    Format                                   : AC-3
    Format/Info                              : Audio Coding 3
    Mode extension                           : CM (complete main)
    Format settings, Endianness              : Big
    Codec ID                                 : A_AC3
    Duration                                 : 22mn 57s
    Bit rate mode                            : Constant
    Bit rate                                 : 448 Kbps
    Channel(s)                               : 6 channels
    Channel positions                        : Front: L C R, Side: L R, LFE
    Sampling rate                            : 48.0 KHz
    Compression mode                         : Lossy
    Stream size                              : 73.5 MiB (13%)
    Language                                 : German
    Default                                  : Yes
    Forced                                   : No
    
    Audio #2
    ID                                       : 5
    Format                                   : AC-3
    Format/Info                              : Audio Coding 3
    Mode extension                           : CM (complete main)
    Format settings, Endianness              : Big
    Codec ID                                 : A_AC3
    Duration                                 : 22mn 57s
    Bit rate mode                            : Constant
    Bit rate                                 : 448 Kbps
    Channel(s)                               : 2 channels
    Channel positions                        : Front: L R
    Sampling rate                            : 48.0 KHz
    Compression mode                         : Lossy
    Stream size                              : 73.5 MiB (13%)
    Language                                 : Japanese
    Default                                  : No
    Forced                                   : No
    
    Text #1
    ID                                       : 1
    Format                                   : PGS
    Muxing mode                              : zlib
    Codec ID                                 : S_HDMV/PGS
    Codec ID/Info                            : Picture based subtitle format used on BDs/HD-DVDs
    Default                                  : Yes
    Forced                                   : No
    
    Text #2
    ID                                       : 2
    Format                                   : PGS
    Muxing mode                              : zlib
    Codec ID                                 : S_HDMV/PGS
    Codec ID/Info                            : Picture based subtitle format used on BDs/HD-DVDs
    Default                                  : No
    Forced                                   : No
    
    


    1080p AC3
    Code:
    
    Format                                   : Matroska
    Format version                           : Version 4 / Version 2
    File size                                : 1.08 GiB
    Duration                                 : 22mn 57s
    Overall bit rate                         : 6 765 Kbps
    Encoded date                             : UTC 2016-02-23 16:28:14
    Writing application                      : mkvmerge v8.1.0 ('Psychedelic Postcard') 64bit
    Writing library                          : libebml v1.3.1 + libmatroska v1.4.2
    DURATION                                 : 00:22:57.056000000
    NUMBER_OF_FRAMES                         : 43033
    NUMBER_OF_BYTES                          : 77115136
    _STATISTICS_WRITING_APP                  : mkvmerge v8.1.0 ('Psychedelic Postcard') 64bit
    _STATISTICS_WRITING_DATE_UTC             : 2016-02-23 16:28:14
    _STATISTICS_TAGS                         : BPS DURATION NUMBER_OF_FRAMES NUMBER_OF_BYTES
    
    Video
    ID                                       : 3
    Format                                   : AVC
    Format/Info                              : Advanced Video Codec
    Format profile                           : [email protected]
    Format settings, CABAC                   : Yes
    Format settings, ReFrames                : 4 frames
    Codec ID                                 : V_MPEG4/ISO/AVC
    Duration                                 : 22mn 57s
    Bit rate                                 : 5 734 Kbps
    Width                                    : 1 920 pixels
    Height                                   : 1 080 pixels
    Display aspect ratio                     : 16:9
    Frame rate mode                          : Constant
    Frame rate                               : 23.976 fps
    Color space                              : YUV
    Chroma subsampling                       : 4:2:0
    Bit depth                                : 8 bits
    Scan type                                : Progressive
    Bits/(Pixel*Frame)                       : 0.115
    Stream size                              : 941 MiB (85%)
    Writing library                          : x264 core 148 r2638 7599210
    Encoding settings                        : cabac=1 / ref=4 / deblock=1:1:1 / analyse=0x3:0x113 / me=hex / subme=9 / psy=1 / psy_rd=0.40:0.00 / mixed_ref=1 / me_range=16 / chroma_me=1 / trellis=1 / 8x8dct=1 / cqm=0 / deadzone=21,11 / fast_pskip=1 / chroma_qp_offset=-2 / threads=12 / lookahead_threads=1 / sliced_threads=0 / nr=0 / decimate=1 / interlaced=0 / bluray_compat=0 / constrained_intra=0 / bframes=5 / b_pyramid=2 / b_adapt=2 / b_bias=0 / direct=1 / weightb=1 / open_gop=0 / weightp=2 / keyint=240 / keyint_min=23 / scenecut=40 / intra_refresh=0 / rc_lookahead=40 / rc=crf / mbtree=1 / crf=16.0 / qcomp=0.60 / qpmin=0 / qpmax=69 / qpstep=4 / vbv_maxrate=62500 / vbv_bufsize=78125 / crf_max=0.0 / nal_hrd=none / filler=0 / ip_ratio=1.40 / aq=1:0.60
    Language                                 : English
    Default                                  : Yes
    Forced                                   : No
    
    Audio #1
    ID                                       : 4
    Format                                   : AC-3
    Format/Info                              : Audio Coding 3
    Mode extension                           : CM (complete main)
    Format settings, Endianness              : Big
    Codec ID                                 : A_AC3
    Duration                                 : 22mn 57s
    Bit rate mode                            : Constant
    Bit rate                                 : 448 Kbps
    Channel(s)                               : 6 channels
    Channel positions                        : Front: L C R, Side: L R, LFE
    Sampling rate                            : 48.0 KHz
    Compression mode                         : Lossy
    Stream size                              : 73.5 MiB (7%)
    Language                                 : German
    Default                                  : Yes
    Forced                                   : No
    
    Audio #2
    ID                                       : 5
    Format                                   : AC-3
    Format/Info                              : Audio Coding 3
    Mode extension                           : CM (complete main)
    Format settings, Endianness              : Big
    Codec ID                                 : A_AC3
    Duration                                 : 22mn 57s
    Bit rate mode                            : Constant
    Bit rate                                 : 448 Kbps
    Channel(s)                               : 2 channels
    Channel positions                        : Front: L R
    Sampling rate                            : 48.0 KHz
    Compression mode                         : Lossy
    Stream size                              : 73.5 MiB (7%)
    Language                                 : Japanese
    Default                                  : No
    Forced                                   : No
    
    Text #1
    ID                                       : 1
    Format                                   : PGS
    Muxing mode                              : zlib
    Codec ID                                 : S_HDMV/PGS
    Codec ID/Info                            : Picture based subtitle format used on BDs/HD-DVDs
    Default                                  : Yes
    Forced                                   : No
    DURATION                                 : 00:22:57.043000000
    NUMBER_OF_FRAMES                         : 33016
    NUMBER_OF_BYTES                          : 1007599371
    _STATISTICS_WRITING_APP                  : mkvmerge v8.1.0 ('Psychedelic Postcard') 64bit
    _STATISTICS_WRITING_DATE_UTC             : 2016-02-23 16:28:14
    _STATISTICS_TAGS                         : BPS DURATION NUMBER_OF_FRAMES NUMBER_OF_BYTES
    
    Text #2
    ID                                       : 2
    Format                                   : PGS
    Muxing mode                              : zlib
    Codec ID                                 : S_HDMV/PGS
    Codec ID/Info                            : Picture based subtitle format used on BDs/HD-DVDs
    Default                                  : No
    Forced                                   : No
    
    


    1080p DTS-HD/PCM
    Code:
    
    Format                                   : Matroska
    Format version                           : Version 4 / Version 2
    File size                                : 1.79 GiB
    Duration                                 : 22mn 57s
    Overall bit rate mode                    : Variable
    Overall bit rate                         : 11.1 Mbps
    Encoded date                             : UTC 2016-02-23 16:29:23
    Writing application                      : mkvmerge v8.1.0 ('Psychedelic Postcard') 64bit
    Writing library                          : libebml v1.3.1 + libmatroska v1.4.2
    DURATION                                 : 00:20:55.629000000
    NUMBER_OF_FRAMES                         : 491
    NUMBER_OF_BYTES                          : 2146793
    _STATISTICS_WRITING_APP                  : mkvmerge v8.1.0 ('Psychedelic Postcard') 64bit
    _STATISTICS_WRITING_DATE_UTC             : 2016-02-23 16:29:23
    _STATISTICS_TAGS                         : BPS DURATION NUMBER_OF_FRAMES NUMBER_OF_BYTES
    
    Video
    ID                                       : 5
    Format                                   : AVC
    Format/Info                              : Advanced Video Codec
    Format profile                           : [email protected]
    Format settings, CABAC                   : Yes
    Format settings, ReFrames                : 4 frames
    Codec ID                                 : V_MPEG4/ISO/AVC
    Duration                                 : 22mn 57s
    Width                                    : 1 920 pixels
    Height                                   : 1 080 pixels
    Display aspect ratio                     : 16:9
    Frame rate mode                          : Constant
    Frame rate                               : 23.976 fps
    Color space                              : YUV
    Chroma subsampling                       : 4:2:0
    Bit depth                                : 8 bits
    Scan type                                : Progressive
    Writing library                          : x264 core 148 r2638 7599210
    Encoding settings                        : cabac=1 / ref=4 / deblock=1:1:1 / analyse=0x3:0x113 / me=hex / subme=9 / psy=1 / psy_rd=0.40:0.00 / mixed_ref=1 / me_range=16 / chroma_me=1 / trellis=1 / 8x8dct=1 / cqm=0 / deadzone=21,11 / fast_pskip=1 / chroma_qp_offset=-2 / threads=12 / lookahead_threads=1 / sliced_threads=0 / nr=0 / decimate=1 / interlaced=0 / bluray_compat=0 / constrained_intra=0 / bframes=5 / b_pyramid=2 / b_adapt=2 / b_bias=0 / direct=1 / weightb=1 / open_gop=0 / weightp=2 / keyint=240 / keyint_min=23 / scenecut=40 / intra_refresh=0 / rc_lookahead=40 / rc=crf / mbtree=1 / crf=16.0 / qcomp=0.60 / qpmin=0 / qpmax=69 / qpstep=4 / vbv_maxrate=62500 / vbv_bufsize=78125 / crf_max=0.0 / nal_hrd=none / filler=0 / ip_ratio=1.40 / aq=1:0.60
    Language                                 : English
    Default                                  : Yes
    Forced                                   : No
    
    Audio #1
    ID                                       : 1
    Format                                   : DTS
    Format/Info                              : Digital Theater Systems
    Format profile                           : MA / Core
    Mode                                     : 16
    Format settings, Endianness              : Big
    Codec ID                                 : A_DTS
    Duration                                 : 22mn 57s
    Bit rate mode                            : Variable
    Bit rate                                 : Unknown / 1 509 Kbps
    Channel(s)                               : 6 channels
    Channel positions                        : Front: L C R, Side: L R, LFE
    Sampling rate                            : 48.0 KHz
    Bit depth                                : 24 bits
    Compression mode                         : Lossless / Lossy
    Default                                  : Yes
    Forced                                   : No
    DURATION                                 : 00:22:57.043000000
    NUMBER_OF_FRAMES                         : 33016
    NUMBER_OF_BYTES                          : 1007599371
    _STATISTICS_WRITING_APP                  : mkvmerge v8.1.0 ('Psychedelic Postcard') 64bit
    _STATISTICS_WRITING_DATE_UTC             : 2016-02-23 16:29:23
    _STATISTICS_TAGS                         : BPS DURATION NUMBER_OF_FRAMES NUMBER_OF_BYTES
    
    Audio #2
    ID                                       : 2
    Format                                   : PCM
    Format settings, Endianness              : Big
    Codec ID                                 : A_PCM/INT/BIG
    Duration                                 : 22mn 57s
    Bit rate mode                            : Constant
    Channel(s)                               : 2 channels
    Sampling rate                            : 48.0 KHz
    Bit depth                                : 16 bits
    Default                                  : No
    Forced                                   : No
    
    Text #1
    ID                                       : 3
    Format                                   : PGS
    Muxing mode                              : zlib
    Codec ID                                 : S_HDMV/PGS
    Codec ID/Info                            : Picture based subtitle format used on BDs/HD-DVDs
    Default                                  : Yes
    Forced                                   : No
    
    Text #2
    ID                                       : 4
    Format                                   : PGS
    Muxing mode                              : zlib
    Codec ID                                 : S_HDMV/PGS
    Codec ID/Info                            : Picture based subtitle format used on BDs/HD-DVDs
    Default                                  : No
    Forced                                   : No
    
    






    Geschützter Bereich - Bedanke dich beim Poster, um den Bereich sehen zu können
    Hier erfährst Du wie Du Dich bedanken kannst oder werde jetzt Premium Mitglied ab einer Spende von 5€ und erhalte sofortigen Zugriff auf den Downloadbereich!

    [Links sind nur für registrierte und aktivierte Nutzer sichtbar. Klicke hier um dich zu registrieren.]
    !!!Alle Anliegen bezüglich Uploads werden nur mit direktem Threadlink zum Angebot bearbeitet!!!

    Re-Uploadanfragen nur per PN - Ihr könnt mir auch Listen schicken

    Re-Uploads erfolgen meist innerhalb 24h, kann aber auch bis zu 7 Tage dauern

    [Links sind nur für registrierte und aktivierte Nutzer sichtbar. Klicke hier um dich zu registrieren.] | [Links sind nur für registrierte und aktivierte Nutzer sichtbar. Klicke hier um dich zu registrieren.] | >[Links sind nur für registrierte und aktivierte Nutzer sichtbar. Klicke hier um dich zu registrieren.]<
    [Links sind nur für registrierte und aktivierte Nutzer sichtbar. Klicke hier um dich zu registrieren.]

  2. 63 Benutzer sagen Danke:

    Anzeigen

    Akio (8. May 2016),arginator (25. April 2016),assa (12. November 2016),Asuka Langley (28. March 2016),beckerm (7. June 2016),BehindYA (1. June 2016),Bloodyair (18. July 2016),brunsdumm (28. March 2016),chopper23 (31. March 2016),coldbears48 (4. June 2016),Cy_Baer (28. March 2016),dacheff (28. March 2016),Daniel (21. April 2016),darkangel92 (27. April 2016),darkhammer (3. May 2016),DarthToast (10. November 2016),Das-Ying (18. May 2016),egon1212 (3. April 2016),felix043 (8. June 2016),fullmetal1995 (1. April 2016),graythunder (29. March 2016),Grom (29. July 2016),ichyiy (16. April 2016),Ikari-sama (17. May 2016),Kaan- (1. April 2016),kernelkatze (4. August 2016),KeyloggerCat (16. April 2016),Kirdock (3. April 2016),KiritoDerSchwertKämpfer (17. November 2016),Kouta-chii (31. August 2016),LEITZ (15. May 2016),LordBacon1 (29. March 2016),Lumeqentalea (10. May 2016),MacRul3z (17. September 2016),markusdamon5 (21. May 2016),Michih80 (28. March 2016),midnighter (8. September 2016),Mr.Shit (31. August 2016),mrsh4rky (25. August 2016),noizmaker (20. June 2016),olevonpopole (30. May 2016),Paradox1906 (18. July 2016),Praxas (7. April 2016),Psykzo (28. June 2016),qsywax (28. March 2016),Reaper1 (12. September 2016),Regi (6. July 2016),S4nCh3z (8. November 2016),saarx (1. August 2016),Sakamoto (14. April 2016),Sasuke (28. March 2016),shawn10398 (29. March 2016),songucku (15. July 2016),Superzorro (28. March 2016),test20 (17. October 2016),thanathan85 (28. March 2016),TheOne0815 (30. July 2016),Toad (31. July 2016),Virgel (14. April 2016),Wheark (26. July 2016),XenoX (28. March 2016),xXGaldorXx (31. March 2016),Zapzerap (30. May 2016)

Lesezeichen

Berechtigungen

  • Neue Themen erstellen: Nein
  • Themen beantworten: Nein
  • Anhänge hochladen: Nein
  • Beiträge bearbeiten: Nein
  •  

1 2 3 4 5 6 7 8 9 10 11 12 13 14 15 16 17 18 19 20 21 22 23 24 25 26 27 28 29 30 31 32 33 34 35 36 37 38 39 40 41 42 43 44 45 46 47 48 49 50 51 52 53 54 55 56 57 58 59 60 61 62 63 64 65 66 67 68 69 70 71 72 73 74 75 76 77 78 79 80 81 82 83 84 85 86 87 88 89 90 91 92 93 94 95 96 97 98 99 100 101 102 103 104 105 106 107 108 109 110 111 112 113 114 115 116 117 118 119 120 121 122 123 124 125 126 127 128 129 130 131 132 133 134 135 136 137 138 139 140 141 142 143 144 145 146 147 148 149 150 151 152 153 154 155 156 157 158