Ergebnis 1 bis 1 von 1

Thema: Captain Tsubasa (2001) [Ger-Dub][480p][TVRip] - IND

Dieser Thread wurde noch nicht bewertet. Bewerte ihn doch, wenn er dir gefällt!
  1. #1
    United we Stand Avatar von 00Ryuji00
    Registriert seit
    Oct 2012
    Beiträge
    3.896
    Punkte
    99.519
    Errungenschaften:
    TomodachisGang LeaderHikikomoriTagger Amateur50000 Erfahrungspunkte

    Captain Tsubasa (2001) [Ger-Dub][480p][TVRip] - IND


    Captain Tsubasa (2001)
    キャプテン翼 (2001)
    Captain Tsubasa: Road to Dream
    Super Kickers 2006






    Kurzbeschreibung:
    Zitat Zitat von AniSearch.com
    "Tsubasa in seinem letzten Spiel, er fällt, liegt auf dem Rasen. Er scheint nicht mehr zu wollen, doch er erinnert sich an die Jugendzeit..."

    Die ersten Episoden sind ein zusammenhängender Rückblick auf die erste Staffel, die auch bei uns läuft. Aber keine Angst, es wird alles schneller erzählt und gespielt, wie etwa in "Captain Tsubasa J". So, z.b. spielt Tsubasa schon in der 7. Folge gegen Jun Misugi. Aber manche Storylines wurden abgeändert. So spielt Ishizaki schon zu Beginn der Auswahlmannschaft in der Stammelf. Die Ergebnisse sind ein wenig anders und manche Figuren, wie Yayoi sehen ganz anders aus. Dies ist allerdings nicht so schlimm. Was vielleicht störend, gegenüber den alten Folgen ist, dass die Spiele alle um einiges realistischer sind und somit viel von der Spannung der ersten Staffel auf der Strecke bleibt. Die Spiele dauern auch keine 10 Folgen mehr, die Spieler laufen nicht mehr dem Horizont hinterher und die Bälle fliegen nicht länger wie in der Realität auch. Ebenso sind manche Folgen speziell auf Charaktere bezogen. Die zweite Episode zeigt die Vergangenheit von Roberto Hongo, wobei die vierte mehr auf Kojiro bezogen ist, etc...


    Spieldauer: 24min
    Genre: Ganbatte
    Nebengenres: Action, Drama, Ganbatte, Romanze, Sport
    Jahr: 2001
    Sprache: Deutsch
    Größe pro Folge: ~176 MiB
    Episodenanzahl: 52/52
    Format: AVI
    Auflösung: 480p (4:3)
    Videocodec: XviD (MPEG-4 Visual)
    Audiocodec: MPEG Audio
    Releasegruppe: IND
    Hoster: Share-Online, Uploaded


    MediaInfo
    Code:
    
    Format                                   : AVI
    Format/Info                              : Audio Video Interleave
    File size                                : 176 MiB
    Duration                                 : 22mn 16s
    Overall bit rate                         : 1 107 Kbps
    Writing application                      : VirtualDubMod 1.5.10.2 (build 2540/release)
    Writing library                          : VirtualDub build 23774/release
    
    Video
    ID                                       : 0
    Format                                   : MPEG-4 Visual
    Format profile                           : Advanced [email protected]
    Format settings, BVOP                    : 2
    Format settings, QPel                    : No
    Format settings, GMC                     : No warppoints
    Format settings, Matrix                  : Default (H.263)
    Muxing mode                              : Packed bitstream
    Codec ID                                 : XVID
    Codec ID/Hint                            : XviD
    Duration                                 : 22mn 16s
    Bit rate                                 : 969 Kbps
    Width                                    : 640 pixels
    Height                                   : 480 pixels
    Display aspect ratio                     : 4:3
    Frame rate                               : 25.000 fps
    Color space                              : YUV
    Chroma subsampling                       : 4:2:0
    Bit depth                                : 8 bits
    Scan type                                : Progressive
    Compression mode                         : Lossy
    Bits/(Pixel*Frame)                       : 0.126
    Stream size                              : 154 MiB (88%)
    Writing library                          : XviD 0039 build=2005.09.25 (UTC 2005-09-25)
    
    Audio
    ID                                       : 1
    Format                                   : MPEG Audio
    Format version                           : Version 1
    Format profile                           : Layer 3
    Mode                                     : Joint stereo
    Mode extension                           : MS Stereo
    Codec ID                                 : 55
    Codec ID/Hint                            : MP3
    Duration                                 : 22mn 16s
    Bit rate mode                            : Constant
    Bit rate                                 : 128 Kbps
    Channel(s)                               : 2 channels
    Sampling rate                            : 48.0 KHz
    Compression mode                         : Lossy
    Stream size                              : 20.4 MiB (12%)
    Alignment                                : Split accross interleaves
    Interleave, duration                     : 40 ms (1.00 video frame)
    Interleave, preload duration             : 500 ms
    
    




    Geschützter Bereich - Bedanke dich beim Poster, um den Bereich sehen zu können
    Hier erfährst Du wie Du Dich bedanken kannst oder werde jetzt Premium Mitglied ab einer Spende von 5€ und erhalte sofortigen Zugriff auf den Downloadbereich!

    [Links sind nur für registrierte und aktivierte Nutzer sichtbar. Klicke hier um dich zu registrieren.]
    !!!Alle Anliegen bezüglich Uploads werden nur mit direktem Threadlink zum Angebot bearbeitet!!!

    Re-Uploadanfragen nur per PN - Ihr könnt mir auch Listen schicken

    Re-Uploads erfolgen meist innerhalb 24h, kann aber auch bis zu 7 Tage dauern

    [Links sind nur für registrierte und aktivierte Nutzer sichtbar. Klicke hier um dich zu registrieren.] | [Links sind nur für registrierte und aktivierte Nutzer sichtbar. Klicke hier um dich zu registrieren.] | >[Links sind nur für registrierte und aktivierte Nutzer sichtbar. Klicke hier um dich zu registrieren.]<
    [Links sind nur für registrierte und aktivierte Nutzer sichtbar. Klicke hier um dich zu registrieren.]

  2. 6 Benutzer sagen Danke:

    Cande (18. July 2016),darkwarrior (25. July 2016),midnighter (13. August 2016),rinnegan93 (1. December 2016),ShiboNoTenshi (7. September 2016),Suigetsu (1. December 2016)

Lesezeichen

Berechtigungen

  • Neue Themen erstellen: Nein
  • Themen beantworten: Nein
  • Anhänge hochladen: Nein
  • Beiträge bearbeiten: Nein
  •  

1 2 3 4 5 6 7 8 9 10 11 12 13 14 15 16 17 18 19 20 21 22 23 24 25 26 27 28 29 30 31 32 33 34 35 36 37 38 39 40 41 42 43 44 45 46 47 48 49 50 51 52 53 54 55 56 57 58 59 60 61 62 63 64 65 66 67 68 69 70 71 72 73 74 75 76 77 78 79 80 81 82 83 84 85 86 87 88 89 90 91 92 93 94 95 96 97 98 99 100 101 102 103 104 105 106 107 108 109 110 111 112 113 114 115 116 117 118 119 120 121 122 123 124 125 126 127 128 129 130 131 132 133 134 135 136 137 138 139 140 141 142 143 144 145 146 147 148 149 150 151 152 153 154 155 156 157 158