Ergebnis 1 bis 2 von 2

Thema: Card Captor Sakura [Ger-Dub][544p][DVDRip] - IND

Dieser Thread wurde noch nicht bewertet. Bewerte ihn doch, wenn er dir gefällt!
  1. #1
    United we Stand Avatar von 00Ryuji00
    Registriert seit
    Oct 2012
    Beiträge
    3.902
    Punkte
    100.092
    Errungenschaften:
    TomodachisGang LeaderHikikomoriTagger Amateur50000 Erfahrungspunkte

    Card Captor Sakura [Ger-Dub][544p][DVDRip] - IND


    Card Captor Sakura

    カードキャプターさくら
    Card Captors
    Cardcaptor Sakura






    Kurzbeschreibung:
    Zitat Zitat von AniSearch.com
    In Card Captor Sakura geht es um Sakura Kinomoto, ein ganz normales zehnjähriges Mädchen. Ihr Leben ändert sich, als sie eines Tages in der Bibliothek ihres Vaters ein geheimnisvolles Buch mit dem Titel "The Clow" öffnet. In dem Buch befinden sich magische Karten, die den geöffneten Buchdeckel sofort dazu benutzen, sich in alle vier Windrichtungen aus dem Staub zu machen. Gleichzeitig erwacht auch Kerberos, der Wächter der Clow Cards, der gerade ein kleines Nickerchen von 30 Jahren gemacht hat. Die Karten, die mit ihren magischen Kräften imstande sind große Schäden anzurichten, sind weg und müssen wieder zurück ins Buch. Kerberos verleiht Sakura die Kraft, sich in einen Card Captor, eine Kartenfängerin, verwandeln zu können, um die Clow Cards wieder einzufangen. Und damit beginnt für Sakura das große Abenteuer, das mit vielen Überraschungen aufwarten wird…...mehr


    Spieldauer: 25min
    Genre: Actionkomödie
    Nebengenres: Abenteuer, Action, Alltagsleben, Fantasy, Komödie, Magical Girl, Romanze
    Jahr: 1998
    Sprache: Deutsch
    Größe pro Folge: ~250 MiB
    Episodenanzahl: 35/70
    Format: AVI
    Auflösung: 544p (4:3)
    Videocodec: XviD (MPEG-4 Visual)
    Audiocodec: MPEG Audio
    Releasegruppe: IND
    Hoster: Share-Online, Uploaded

    Note: Folgen 36-70 sind nicht lizenziert, findet ihr aber auch bei uns.
    [Links sind nur für registrierte und aktivierte Nutzer sichtbar. Klicke hier um dich zu registrieren.]


    MediaInfo
    Code:
    
    Format                                   : AVI
    Format/Info                              : Audio Video Interleave
    File size                                : 250 MiB
    Duration                                 : 23mn 54s
    Overall bit rate mode                    : Variable
    Overall bit rate                         : 1 459 Kbps
    Writing application                      : VirtualDubMod 1.5.4.1 (build 2178/release)
    Writing library                          : VirtualDubMod build 2178/release
    
    Video
    ID                                       : 0
    Format                                   : MPEG-4 Visual
    Format profile                           : Advanced [email protected]
    Format settings, BVOP                    : 1
    Format settings, QPel                    : No
    Format settings, GMC                     : No warppoints
    Format settings, Matrix                  : Custom
    Codec ID                                 : XVID
    Codec ID/Hint                            : XviD
    Duration                                 : 23mn 54s
    Bit rate                                 : 1 271 Kbps
    Width                                    : 720 pixels
    Height                                   : 544 pixels
    Display aspect ratio                     : 4:3
    Frame rate                               : 25.000 fps
    Color space                              : YUV
    Chroma subsampling                       : 4:2:0
    Bit depth                                : 8 bits
    Scan type                                : Progressive
    Compression mode                         : Lossy
    Bits/(Pixel*Frame)                       : 0.130
    Stream size                              : 217 MiB (87%)
    Writing library                          : XviD 1.1.0 (UTC 2005-11-22)
    
    Audio
    ID                                       : 1
    Format                                   : MPEG Audio
    Format version                           : Version 1
    Format profile                           : Layer 3
    Mode                                     : Joint stereo
    Mode extension                           : MS Stereo
    Codec ID                                 : 55
    Codec ID/Hint                            : MP3
    Duration                                 : 23mn 54s
    Bit rate mode                            : Variable
    Bit rate                                 : 175 Kbps
    Nominal bit rate                         : 192 Kbps
    Channel(s)                               : 2 channels
    Sampling rate                            : 48.0 KHz
    Compression mode                         : Lossy
    Stream size                              : 29.9 MiB (12%)
    Alignment                                : Aligned on interleaves
    Interleave, duration                     : 24 ms (0.60 video frame)
    Interleave, preload duration             : 105 ms
    Writing library                          : LAME3.97b
    Encoding settings                        : -m j -V 4 -q 2 -lowpass 18.6 --abr 192
    
    




    Geschützter Bereich - Bedanke dich beim Poster, um den Bereich sehen zu können
    Hier erfährst Du wie Du Dich bedanken kannst oder werde jetzt Premium Mitglied ab einer Spende von 5€ und erhalte sofortigen Zugriff auf den Downloadbereich!

    [Links sind nur für registrierte und aktivierte Nutzer sichtbar. Klicke hier um dich zu registrieren.]
    !!!Alle Anliegen bezüglich Uploads werden nur mit direktem Threadlink zum Angebot bearbeitet!!!

    Re-Uploadanfragen nur per PN - Ihr könnt mir auch Listen schicken

    Re-Uploads folgen nach Anfrage meist am Wochenende

    [Links sind nur für registrierte und aktivierte Nutzer sichtbar. Klicke hier um dich zu registrieren.] | [Links sind nur für registrierte und aktivierte Nutzer sichtbar. Klicke hier um dich zu registrieren.] | >[Links sind nur für registrierte und aktivierte Nutzer sichtbar. Klicke hier um dich zu registrieren.]<
    [Links sind nur für registrierte und aktivierte Nutzer sichtbar. Klicke hier um dich zu registrieren.]

  2. 16 Benutzer sagen Danke:

    alucat (12. May 2016),Asuka Langley (20. May 2016),Baschti1989 (13. May 2016),Blackdragon1702 (25. June 2016),cooliero (6. December 2016),Exede (13. May 2016),happydrop99 (27. May 2016),JackyMono (17. September 2016),KudoShinichi (15. October 2016),Llyrell (30. November 2016),midnighter (16. August 2016),MX-sk (19. June 2016),nickssystem (10. June 2016),ShayPatrickCormac (30. October 2016),skylier (1. June 2016),Usagi91 (12. May 2016)

  3. #2
    United we Stand Avatar von 00Ryuji00
    Registriert seit
    Oct 2012
    Beiträge
    3.902
    Punkte
    100.092
    Errungenschaften:
    TomodachisGang LeaderHikikomoriTagger Amateur50000 Erfahrungspunkte

    AW: Card Captor Sakura [Ger-Dub][544p][DVDRip] - IND

    Update: Dateien auf Wunsch wieder online.
    !!!Alle Anliegen bezüglich Uploads werden nur mit direktem Threadlink zum Angebot bearbeitet!!!

    Re-Uploadanfragen nur per PN - Ihr könnt mir auch Listen schicken

    Re-Uploads folgen nach Anfrage meist am Wochenende

    [Links sind nur für registrierte und aktivierte Nutzer sichtbar. Klicke hier um dich zu registrieren.] | [Links sind nur für registrierte und aktivierte Nutzer sichtbar. Klicke hier um dich zu registrieren.] | >[Links sind nur für registrierte und aktivierte Nutzer sichtbar. Klicke hier um dich zu registrieren.]<
    [Links sind nur für registrierte und aktivierte Nutzer sichtbar. Klicke hier um dich zu registrieren.]

Lesezeichen

Berechtigungen

  • Neue Themen erstellen: Nein
  • Themen beantworten: Nein
  • Anhänge hochladen: Nein
  • Beiträge bearbeiten: Nein
  •  

1 2 3 4 5 6 7 8 9 10 11 12 13 14 15 16 17 18 19 20 21 22 23 24 25 26 27 28 29 30 31 32 33 34 35 36 37 38 39 40 41 42 43 44 45 46 47 48 49 50 51 52 53 54 55 56 57 58 59 60 61 62 63 64 65 66 67 68 69 70 71 72 73 74 75 76 77 78 79 80 81 82 83 84 85 86 87 88 89 90 91 92 93 94 95 96 97 98 99 100 101 102 103 104 105 106 107 108 109 110 111 112 113 114 115 116 117 118 119 120 121 122 123 124 125 126 127 128 129 130 131 132 133 134 135 136 137 138 139 140 141 142 143 144 145 146 147 148 149 150 151 152 153 154 155 156 157 158