Ergebnis 1 bis 1 von 1

Thema: Chouja Raideen [Ger-Dub][520p][DVDRip] - AST4u

Dieser Thread wurde noch nicht bewertet. Bewerte ihn doch, wenn er dir gefällt!
  1. #1
    United we Stand Avatar von 00Ryuji00
    Registriert seit
    Oct 2012
    Beiträge
    3.902
    Punkte
    99.909
    Errungenschaften:
    TomodachisGang LeaderHikikomoriTagger Amateur50000 Erfahrungspunkte

    Chouja Raideen [Ger-Dub][520p][DVDRip] - AST4u


    Chouja Raideen
    超者ライディーン
    Reideen: Im Kampf gegen die Mächte der Finsternis






    Kurzbeschreibung:
    Zitat Zitat von AniSearch.com
    Der Kampf um das Ende der Welt zeichnet sich ab. Louche de Mon versucht mit Hilfe verschiedener Monster und Dämonen, die zwölf Zodiac-Steine in seinen Besitz zu bringen. Dann kann er den mächtigen Reideen erwecken, mit dem er die Macht über das ganze Universum erhält.

    Die heilige Feder sucht daraufhin nach den in der ganzen Welt verstreut lebenden Reideen (»Engeln«), den einzigen Kämpfern, die das Böse aufhalten können. Nicht alle dieser Jungs und jungen Männer sind glücklich darüber, auserwählt zu sein ...

    Doch es lässt sich nicht verhindern. Der mächtige Reideen erwacht und beginnt sein beispielloses Werk der Zerstörung. Was können die Reideen tun? Wie können sie gegen dieses übermächtige Wesen angehen? Wird die Erde vernichtet, oder gibt es eine Möglichkeit, den mächtigen Reideen zu besiegen?


    Spieldauer: 30min
    Genre: Action
    Nebengenres: Abenteuer, Action, Mecha, Scifi
    Jahr: 1996
    Sprache: Deutsch
    Größe pro Folge: ~490 MiB
    Episodenanzahl: 38/38
    Format: MKV
    Auflösung: 520p (4:3)
    Videocodec: x264 (AVC)
    Audiocodec: AC-3
    Releasegruppe: AST4u
    Hoster: Share-Online, Uploaded


    MediaInfo
    Code:
    
    Format                                   : Matroska
    Format version                           : Version 2
    File size                                : 490 MiB
    Duration                                 : 22mn 9s
    Overall bit rate                         : 3 090 Kbps
    Encoded date                             : UTC 2016-09-06 23:19:58
    Writing application                      : mkvmerge v8.5.2 ('Crosses') 32bit
    Writing library                          : libebml v1.3.3 + libmatroska v1.4.4
    DURATION                                 : 00:22:08.864000000
    NUMBER_OF_FRAMES                         : 41527
    NUMBER_OF_BYTES                          : 31892736
    _STATISTICS_WRITING_APP                  : mkvmerge v8.5.2 ('Crosses') 32bit
    _STATISTICS_WRITING_DATE_UTC             : 2016-09-06 23:19:58
    _STATISTICS_TAGS                         : BPS DURATION NUMBER_OF_FRAMES NUMBER_OF_BYTES
    
    Video
    ID                                       : 1
    Format                                   : AVC
    Format/Info                              : Advanced Video Codec
    Format profile                           : [email protected]
    Format settings, CABAC                   : Yes
    Format settings, ReFrames                : 6 frames
    Codec ID                                 : V_MPEG4/ISO/AVC
    Duration                                 : 22mn 9s
    Bit rate                                 : 2 836 Kbps
    Width                                    : 696 pixels
    Height                                   : 520 pixels
    Display aspect ratio                     : 4:3
    Frame rate mode                          : Constant
    Frame rate                               : 25.000 fps
    Color space                              : YUV
    Chroma subsampling                       : 4:2:0
    Bit depth                                : 8 bits
    Scan type                                : Progressive
    Bits/(Pixel*Frame)                       : 0.313
    Stream size                              : 449 MiB (92%)
    Writing library                          : x264 core 148 r2638 7599210
    Encoding settings                        : cabac=1 / ref=6 / deblock=1:1:1 / analyse=0x3:0x113 / me=hex / subme=9 / psy=1 / psy_rd=0.40:0.00 / mixed_ref=1 / me_range=16 / chroma_me=1 / trellis=1 / 8x8dct=1 / cqm=0 / deadzone=21,11 / fast_pskip=1 / chroma_qp_offset=-2 / threads=12 / lookahead_threads=1 / sliced_threads=0 / nr=0 / decimate=1 / interlaced=0 / bluray_compat=0 / constrained_intra=0 / bframes=5 / b_pyramid=2 / b_adapt=2 / b_bias=0 / direct=1 / weightb=1 / open_gop=0 / weightp=2 / keyint=250 / keyint_min=25 / scenecut=40 / intra_refresh=0 / rc_lookahead=40 / rc=crf / mbtree=1 / crf=16.0 / qcomp=0.60 / qpmin=0 / qpmax=69 / qpstep=4 / vbv_maxrate=62500 / vbv_bufsize=78125 / crf_max=0.0 / nal_hrd=none / filler=0 / ip_ratio=1.40 / aq=1:0.60
    Default                                  : Yes
    Forced                                   : No
    
    Audio
    ID                                       : 2
    Format                                   : AC-3
    Format/Info                              : Audio Coding 3
    Mode extension                           : CM (complete main)
    Format settings, Endianness              : Big
    Codec ID                                 : A_AC3
    Duration                                 : 22mn 9s
    Bit rate mode                            : Constant
    Bit rate                                 : 192 Kbps
    Channel(s)                               : 2 channels
    Channel positions                        : Front: L R
    Sampling rate                            : 48.0 KHz
    Compression mode                         : Lossy
    Delay relative to video                  : 79ms
    Stream size                              : 30.4 MiB (6%)
    Language                                 : German
    Default                                  : Yes
    Forced                                   : No
    
    Menu
    00:00:00.000                             : en:Chapter 01
    00:01:30.240                             : en:Chapter 02
    00:10:05.760                             : en:Chapter 03
    00:22:09.040                             : en:Chapter 04
    
    




    Geschützter Bereich - Bedanke dich beim Poster, um den Bereich sehen zu können
    Hier erfährst Du wie Du Dich bedanken kannst oder werde jetzt Premium Mitglied ab einer Spende von 5€ und erhalte sofortigen Zugriff auf den Downloadbereich!

    [Links sind nur für registrierte und aktivierte Nutzer sichtbar. Klicke hier um dich zu registrieren.]
    !!!Alle Anliegen bezüglich Uploads werden nur mit direktem Threadlink zum Angebot bearbeitet!!!

    Re-Uploadanfragen nur per PN - Ihr könnt mir auch Listen schicken

    Re-Uploads erfolgen meist innerhalb 24h, kann aber auch bis zu 7 Tage dauern

    [Links sind nur für registrierte und aktivierte Nutzer sichtbar. Klicke hier um dich zu registrieren.] | [Links sind nur für registrierte und aktivierte Nutzer sichtbar. Klicke hier um dich zu registrieren.] | >[Links sind nur für registrierte und aktivierte Nutzer sichtbar. Klicke hier um dich zu registrieren.]<
    [Links sind nur für registrierte und aktivierte Nutzer sichtbar. Klicke hier um dich zu registrieren.]

  2. 16 Benutzer sagen Danke:

    Aluaran (22. September 2016),chopper23 (28. September 2016),Conopas (24. September 2016),cooliero (28. September 2016),Cy_Baer (21. September 2016),Ghostraven (21. September 2016),haltdiefresse (21. September 2016),livia84 (16. October 2016),midnighter (1. October 2016),Miles360 (21. September 2016),NanaNo7 (3. October 2016),PaDDyHaase (21. September 2016),prinzvegeta (4. November 2016),tompace (29. September 2016),TorbenSonnenStern (18. October 2016),TrUnkO (3. October 2016)

Lesezeichen

Berechtigungen

  • Neue Themen erstellen: Nein
  • Themen beantworten: Nein
  • Anhänge hochladen: Nein
  • Beiträge bearbeiten: Nein
  •  

1 2 3 4 5 6 7 8 9 10 11 12 13 14 15 16 17 18 19 20 21 22 23 24 25 26 27 28 29 30 31 32 33 34 35 36 37 38 39 40 41 42 43 44 45 46 47 48 49 50 51 52 53 54 55 56 57 58 59 60 61 62 63 64 65 66 67 68 69 70 71 72 73 74 75 76 77 78 79 80 81 82 83 84 85 86 87 88 89 90 91 92 93 94 95 96 97 98 99 100 101 102 103 104 105 106 107 108 109 110 111 112 113 114 115 116 117 118 119 120 121 122 123 124 125 126 127 128 129 130 131 132 133 134 135 136 137 138 139 140 141 142 143 144 145 146 147 148 149 150 151 152 153 154 155 156 157 158