Ergebnis 1 bis 3 von 3

Thema: Chuunibyou demo Koi ga Shitai! + Special [Ger-Jap-Dub][Ger-Sub][AC3/DTS-HD][720p/1080p][BluRay] - AST4u

Dieser Thread wurde noch nicht bewertet. Bewerte ihn doch, wenn er dir gefällt!
  1. #1
    United we Stand Avatar von 00Ryuji00
    Registriert seit
    Oct 2012
    Beiträge
    3.902
    Punkte
    100.019
    Errungenschaften:
    TomodachisGang LeaderHikikomoriTagger Amateur50000 Erfahrungspunkte

    Chuunibyou demo Koi ga Shitai! + Special [Ger-Jap-Dub][Ger-Sub][AC3/DTS-HD][720p/1080p][BluRay] - AST4u


    Chuunibyou demo Koi ga Shitai!

    中二病でも恋がしたい!
    Love, Chunibyo & Other Delusions






    Kurzbeschreibung:
    Zitat Zitat von AniSearch.com
    Yuuta Togashi litt, während er in der Mittelstufe war, an Chuunibyou. Dieser Begriff ist auch unter der Bezeichnung Middleschool 2nd Year Syndrome bekannt und beschreibt ein 14‐jähriges Kind, das sich übertrieben wie ein Anime‐Held einer Fantasy‐Welt verhält.
    Nach seinem Abschluss ließ er dies hinter sich, erinnert sich nur peinlich an diese Vergangenheit.

    Auf der neuen Schule lief anfangs alles glatt — bis sich Trauriges ereignete. Es bringt Yuuta dazu, einen Vertrag mit Rikka Takanashi abzuschließen. Sein Leben wird fortan vollkommen auf den Kopf gestellt…


    Spieldauer: 24min
    Genre: Romantische Komödie
    Nebengenres: Komödie, Romanze
    Jahr: 2012
    Sprache: Deutsch, Japanisch
    Untertitel: Deutsch
    Größe pro Folge: ~476 MiB ~1.04 GiB ~1.60 GiB
    Episodenanzahl: 12/12 + 6/6
    Format: MKV
    Auflösung: 720p (16:9), 1080p (16:9)
    Videocodec: x264 (AVC)
    Audiocodec: AC-3, DTS
    Releasegruppe: AST4u
    Hoster: Share-Online, Uploaded


    MediaInfo
    720p
    Code:
    
    Format                                   : Matroska
    Format version                           : Version 4 / Version 2
    File size                                : 476 MiB
    Duration                                 : 23mn 35s
    Overall bit rate                         : 2 821 Kbps
    Encoded date                             : UTC 2015-10-09 18:40:13
    Writing application                      : mkvmerge v8.2.0 ('World of Adventure') 64bit
    Writing library                          : libebml v1.3.1 + libmatroska v1.4.2
    DURATION                                 : 00:23:32.828000000
    NUMBER_OF_FRAMES                         : 79
    NUMBER_OF_BYTES                          : 318959
    _STATISTICS_WRITING_APP                  : mkvmerge v8.2.0 ('World of Adventure') 64bit
    _STATISTICS_WRITING_DATE_UTC             : 2015-10-09 18:40:13
    _STATISTICS_TAGS                         : BPS DURATION NUMBER_OF_FRAMES NUMBER_OF_BYTES
    
    Video
    ID                                       : 1
    Format                                   : AVC
    Format/Info                              : Advanced Video Codec
    Format profile                           : [email protected]
    Format settings, CABAC                   : Yes
    Format settings, ReFrames                : 6 frames
    Codec ID                                 : V_MPEG4/ISO/AVC
    Duration                                 : 23mn 35s
    Bit rate                                 : 1 869 Kbps
    Width                                    : 1 280 pixels
    Height                                   : 720 pixels
    Display aspect ratio                     : 16:9
    Frame rate mode                          : Constant
    Frame rate                               : 23.976 fps
    Color space                              : YUV
    Chroma subsampling                       : 4:2:0
    Bit depth                                : 8 bits
    Scan type                                : Progressive
    Bits/(Pixel*Frame)                       : 0.085
    Stream size                              : 315 MiB (66%)
    Writing library                          : x264 core 146 r2538 121396c
    Encoding settings                        : cabac=1 / ref=6 / deblock=1:1:1 / analyse=0x3:0x113 / me=hex / subme=7 / psy=1 / psy_rd=0.40:0.00 / mixed_ref=1 / me_range=16 / chroma_me=1 / trellis=1 / 8x8dct=1 / cqm=0 / deadzone=21,11 / fast_pskip=1 / chroma_qp_offset=-2 / threads=6 / lookahead_threads=1 / sliced_threads=0 / nr=0 / decimate=1 / interlaced=0 / bluray_compat=0 / constrained_intra=0 / bframes=5 / b_pyramid=2 / b_adapt=1 / b_bias=0 / direct=1 / weightb=1 / open_gop=0 / weightp=2 / keyint=240 / keyint_min=23 / scenecut=40 / intra_refresh=0 / rc_lookahead=40 / rc=crf / mbtree=1 / crf=16.0 / qcomp=0.60 / qpmin=0 / qpmax=69 / qpstep=4 / vbv_maxrate=62500 / vbv_bufsize=78125 / crf_max=0.0 / nal_hrd=none / filler=0 / ip_ratio=1.40 / aq=1:0.60
    Default                                  : Yes
    Forced                                   : No
    
    Audio #1
    ID                                       : 2
    Format                                   : AC-3
    Format/Info                              : Audio Coding 3
    Mode extension                           : CM (complete main)
    Format settings, Endianness              : Big
    Codec ID                                 : A_AC3
    Duration                                 : 23mn 35s
    Bit rate mode                            : Constant
    Bit rate                                 : 448 Kbps
    Channel(s)                               : 2 channels
    Channel positions                        : Front: L R
    Sampling rate                            : 48.0 KHz
    Compression mode                         : Lossy
    Stream size                              : 75.6 MiB (16%)
    Language                                 : Japanese
    Default                                  : Yes
    Forced                                   : No
    
    Audio #2
    ID                                       : 3
    Format                                   : AC-3
    Format/Info                              : Audio Coding 3
    Mode extension                           : CM (complete main)
    Format settings, Endianness              : Big
    Codec ID                                 : A_AC3
    Duration                                 : 23mn 35s
    Bit rate mode                            : Constant
    Bit rate                                 : 448 Kbps
    Channel(s)                               : 2 channels
    Channel positions                        : Front: L R
    Sampling rate                            : 48.0 KHz
    Compression mode                         : Lossy
    Stream size                              : 75.6 MiB (16%)
    Language                                 : German
    Default                                  : No
    Forced                                   : No
    
    Text #1
    ID                                       : 4
    Format                                   : PGS
    Muxing mode                              : zlib
    Codec ID                                 : S_HDMV/PGS
    Codec ID/Info                            : Picture based subtitle format used on BDs/HD-DVDs
    Language                                 : German
    Default                                  : No
    Forced                                   : No
    
    Text #2
    ID                                       : 5
    Format                                   : PGS
    Muxing mode                              : zlib
    Codec ID                                 : S_HDMV/PGS
    Codec ID/Info                            : Picture based subtitle format used on BDs/HD-DVDs
    Language                                 : German
    Default                                  : No
    Forced                                   : No
    
    


    1080p AC3
    Code:
    
    Format                                   : Matroska
    Format version                           : Version 4 / Version 2
    File size                                : 1.04 GiB
    Duration                                 : 23mn 35s
    Overall bit rate                         : 6 295 Kbps
    Encoded date                             : UTC 2015-10-09 18:35:37
    Writing application                      : mkvmerge v8.2.0 ('World of Adventure') 64bit
    Writing library                          : libebml v1.3.1 + libmatroska v1.4.2
    DURATION                                 : 00:23:32.828000000
    NUMBER_OF_FRAMES                         : 79
    NUMBER_OF_BYTES                          : 318959
    _STATISTICS_WRITING_APP                  : mkvmerge v8.2.0 ('World of Adventure') 64bit
    _STATISTICS_WRITING_DATE_UTC             : 2015-10-09 18:35:37
    _STATISTICS_TAGS                         : BPS DURATION NUMBER_OF_FRAMES NUMBER_OF_BYTES
    
    Video
    ID                                       : 1
    Format                                   : AVC
    Format/Info                              : Advanced Video Codec
    Format profile                           : [email protected]
    Format settings, CABAC                   : Yes
    Format settings, ReFrames                : 4 frames
    Codec ID                                 : V_MPEG4/ISO/AVC
    Duration                                 : 23mn 35s
    Bit rate                                 : 5 274 Kbps
    Width                                    : 1 920 pixels
    Height                                   : 1 080 pixels
    Display aspect ratio                     : 16:9
    Frame rate mode                          : Constant
    Frame rate                               : 23.976 fps
    Color space                              : YUV
    Chroma subsampling                       : 4:2:0
    Bit depth                                : 8 bits
    Scan type                                : Progressive
    Bits/(Pixel*Frame)                       : 0.106
    Stream size                              : 890 MiB (84%)
    Writing library                          : x264 core 146 r2538 121396c
    Encoding settings                        : cabac=1 / ref=4 / deblock=1:1:1 / analyse=0x3:0x113 / me=hex / subme=7 / psy=1 / psy_rd=0.40:0.00 / mixed_ref=1 / me_range=16 / chroma_me=1 / trellis=1 / 8x8dct=1 / cqm=0 / deadzone=21,11 / fast_pskip=1 / chroma_qp_offset=-2 / threads=6 / lookahead_threads=1 / sliced_threads=0 / nr=0 / decimate=1 / interlaced=0 / bluray_compat=0 / constrained_intra=0 / bframes=5 / b_pyramid=2 / b_adapt=1 / b_bias=0 / direct=1 / weightb=1 / open_gop=0 / weightp=2 / keyint=240 / keyint_min=23 / scenecut=40 / intra_refresh=0 / rc_lookahead=40 / rc=crf / mbtree=1 / crf=16.0 / qcomp=0.60 / qpmin=0 / qpmax=69 / qpstep=4 / vbv_maxrate=62500 / vbv_bufsize=78125 / crf_max=0.0 / nal_hrd=none / filler=0 / ip_ratio=1.40 / aq=1:0.60
    Default                                  : Yes
    Forced                                   : No
    
    Audio #1
    ID                                       : 2
    Format                                   : AC-3
    Format/Info                              : Audio Coding 3
    Mode extension                           : CM (complete main)
    Format settings, Endianness              : Big
    Codec ID                                 : A_AC3
    Duration                                 : 23mn 35s
    Bit rate mode                            : Constant
    Bit rate                                 : 448 Kbps
    Channel(s)                               : 2 channels
    Channel positions                        : Front: L R
    Sampling rate                            : 48.0 KHz
    Compression mode                         : Lossy
    Stream size                              : 75.6 MiB (7%)
    Language                                 : Japanese
    Default                                  : Yes
    Forced                                   : No
    
    Audio #2
    ID                                       : 3
    Format                                   : AC-3
    Format/Info                              : Audio Coding 3
    Mode extension                           : CM (complete main)
    Format settings, Endianness              : Big
    Codec ID                                 : A_AC3
    Duration                                 : 23mn 35s
    Bit rate mode                            : Constant
    Bit rate                                 : 448 Kbps
    Channel(s)                               : 2 channels
    Channel positions                        : Front: L R
    Sampling rate                            : 48.0 KHz
    Compression mode                         : Lossy
    Stream size                              : 75.6 MiB (7%)
    Language                                 : German
    Default                                  : No
    Forced                                   : No
    
    Text #1
    ID                                       : 4
    Format                                   : PGS
    Muxing mode                              : zlib
    Codec ID                                 : S_HDMV/PGS
    Codec ID/Info                            : Picture based subtitle format used on BDs/HD-DVDs
    Language                                 : German
    Default                                  : No
    Forced                                   : No
    
    Text #2
    ID                                       : 5
    Format                                   : PGS
    Muxing mode                              : zlib
    Codec ID                                 : S_HDMV/PGS
    Codec ID/Info                            : Picture based subtitle format used on BDs/HD-DVDs
    Language                                 : German
    Default                                  : No
    Forced                                   : No
    
    


    1080p DTS-HD
    Code:
    
    Format                                   : Matroska
    Format version                           : Version 4 / Version 2
    File size                                : 1.60 GiB
    Duration                                 : 23mn 35s
    Overall bit rate mode                    : Variable
    Overall bit rate                         : 9 736 Kbps
    Encoded date                             : UTC 2015-10-09 17:15:09
    Writing application                      : mkvmerge v8.2.0 ('World of Adventure') 64bit
    Writing library                          : libebml v1.3.1 + libmatroska v1.4.2
    DURATION                                 : 00:23:32.828000000
    NUMBER_OF_FRAMES                         : 79
    NUMBER_OF_BYTES                          : 318959
    _STATISTICS_WRITING_APP                  : mkvmerge v8.2.0 ('World of Adventure') 64bit
    _STATISTICS_WRITING_DATE_UTC             : 2015-10-09 17:15:09
    _STATISTICS_TAGS                         : BPS DURATION NUMBER_OF_FRAMES NUMBER_OF_BYTES
    
    Video
    ID                                       : 1
    Format                                   : AVC
    Format/Info                              : Advanced Video Codec
    Format profile                           : [email protected]
    Format settings, CABAC                   : Yes
    Format settings, ReFrames                : 4 frames
    Codec ID                                 : V_MPEG4/ISO/AVC
    Duration                                 : 23mn 35s
    Width                                    : 1 920 pixels
    Height                                   : 1 080 pixels
    Display aspect ratio                     : 16:9
    Frame rate mode                          : Constant
    Frame rate                               : 23.976 fps
    Color space                              : YUV
    Chroma subsampling                       : 4:2:0
    Bit depth                                : 8 bits
    Scan type                                : Progressive
    Writing library                          : x264 core 146 r2538 121396c
    Encoding settings                        : cabac=1 / ref=4 / deblock=1:1:1 / analyse=0x3:0x113 / me=hex / subme=7 / psy=1 / psy_rd=0.40:0.00 / mixed_ref=1 / me_range=16 / chroma_me=1 / trellis=1 / 8x8dct=1 / cqm=0 / deadzone=21,11 / fast_pskip=1 / chroma_qp_offset=-2 / threads=6 / lookahead_threads=1 / sliced_threads=0 / nr=0 / decimate=1 / interlaced=0 / bluray_compat=0 / constrained_intra=0 / bframes=5 / b_pyramid=2 / b_adapt=1 / b_bias=0 / direct=1 / weightb=1 / open_gop=0 / weightp=2 / keyint=240 / keyint_min=23 / scenecut=40 / intra_refresh=0 / rc_lookahead=40 / rc=crf / mbtree=1 / crf=16.0 / qcomp=0.60 / qpmin=0 / qpmax=69 / qpstep=4 / vbv_maxrate=62500 / vbv_bufsize=78125 / crf_max=0.0 / nal_hrd=none / filler=0 / ip_ratio=1.40 / aq=1:0.60
    Default                                  : Yes
    Forced                                   : No
    
    Audio #1
    ID                                       : 2
    Format                                   : DTS
    Format/Info                              : Digital Theater Systems
    Format profile                           : MA / Core
    Mode                                     : 16
    Format settings, Endianness              : Big
    Codec ID                                 : A_DTS
    Duration                                 : 23mn 35s
    Bit rate mode                            : Variable
    Bit rate                                 : Unknown / 1 509 Kbps
    Channel(s)                               : 2 channels
    Channel positions                        : Front: L R
    Sampling rate                            : 48.0 KHz
    Bit depth                                : 24 bits
    Compression mode                         : Lossless / Lossy
    Language                                 : Japanese
    Default                                  : Yes
    Forced                                   : No
    
    Audio #2
    ID                                       : 3
    Format                                   : DTS
    Format/Info                              : Digital Theater Systems
    Format profile                           : MA / Core
    Mode                                     : 16
    Format settings, Endianness              : Big
    Codec ID                                 : A_DTS
    Duration                                 : 23mn 35s
    Bit rate mode                            : Variable
    Bit rate                                 : Unknown / 1 509 Kbps
    Channel(s)                               : 2 channels
    Channel positions                        : Front: L R
    Sampling rate                            : 48.0 KHz
    Bit depth                                : 24 bits
    Compression mode                         : Lossless / Lossy
    Language                                 : German
    Default                                  : No
    Forced                                   : No
    
    Text #1
    ID                                       : 4
    Format                                   : PGS
    Muxing mode                              : zlib
    Codec ID                                 : S_HDMV/PGS
    Codec ID/Info                            : Picture based subtitle format used on BDs/HD-DVDs
    Language                                 : German
    Default                                  : Yes
    Forced                                   : No
    
    Text #2
    ID                                       : 5
    Format                                   : PGS
    Muxing mode                              : zlib
    Codec ID                                 : S_HDMV/PGS
    Codec ID/Info                            : Picture based subtitle format used on BDs/HD-DVDs
    Language                                 : German
    Default                                  : No
    Forced                                   : No
    
    






    Geschützter Bereich - Bedanke dich beim Poster, um den Bereich sehen zu können
    Hier erfährst Du wie Du Dich bedanken kannst oder werde jetzt Premium Mitglied ab einer Spende von 5€ und erhalte sofortigen Zugriff auf den Downloadbereich!

    [Links sind nur für registrierte und aktivierte Nutzer sichtbar. Klicke hier um dich zu registrieren.]
    !!!Alle Anliegen bezüglich Uploads werden nur mit direktem Threadlink zum Angebot bearbeitet!!!

    Re-Uploadanfragen nur per PN - Ihr könnt mir auch Listen schicken

    Re-Uploads erfolgen meist innerhalb 24h, kann aber auch bis zu 7 Tage dauern

    [Links sind nur für registrierte und aktivierte Nutzer sichtbar. Klicke hier um dich zu registrieren.] | [Links sind nur für registrierte und aktivierte Nutzer sichtbar. Klicke hier um dich zu registrieren.] | >[Links sind nur für registrierte und aktivierte Nutzer sichtbar. Klicke hier um dich zu registrieren.]<
    [Links sind nur für registrierte und aktivierte Nutzer sichtbar. Klicke hier um dich zu registrieren.]

  2. 15 Benutzer sagen Danke:

    Anon (8. October 2016),Asukaa (12. November 2016),basdi (10. October 2016),BlackReaper (21. October 2016),chris1989 (13. October 2016),Gatti1983 (22. October 2016),Haburo (3. November 2016),Holzmodem (24. November 2016),ikkyyy (17. November 2016),Kartox (4. November 2016),Miriweth (8. November 2016),rGunti (12. November 2016),RyoDragon (23. November 2016),shorteh (6. December 2016),Silencio (14. November 2016)

  3. #2
    Uploader Avatar von Masaru
    Registriert seit
    Jan 2016
    Ort
    neumünster
    Beiträge
    453
    Punkte
    11.993
    Errungenschaften:
    10000 ErfahrungspunkteSenpai

    Chuunibyou demo Koi ga Shitai! + Special [Ger-Jap-Dub][Ger-Sub][404p/720p/1080p][BluRay] - AST4u


    Chuunibyou demo Koi ga Shitai!
    Love, Chunibyo & Other Delusions






    Kurzbeschreibung:
    Zitat Zitat von AniSearch.com
    Yuuta Togashi litt, während er in der Mittelstufe war, an Chuunibyou. Dieser Begriff ist auch unter der Bezeichnung Middleschool 2nd Year Syndrome bekannt und beschreibt ein 14‐jähriges Kind, das sich übertrieben wie ein Anime‐Held einer Fantasy‐Welt verhält.
    Nach seinem Abschluss ließ er dies hinter sich, erinnert sich nur peinlich an diese Vergangenheit.

    Auf der neuen Schule lief anfangs alles glatt — bis sich Trauriges ereignete. Es bringt Yuuta dazu, einen Vertrag mit Rikka Takanashi abzuschließen. Sein Leben wird fortan vollkommen auf den Kopf gestellt…


    Spieldauer: 24min
    Genre: Romantische Komödie
    Nebengenres: Komödie, Romanze
    Jahr: 2012
    Sprache: Deutsch, Japanisch
    Untertitel: Deutsch
    Größe pro Folge: 1,7 GB
    Episodenanzahl: 13 /13
    Format: MKV
    Auflösung: 1080p (16:9)
    Videocodec: x264 (AVC)
    Audiocodec: DTS
    Releasegruppe: AST4u
    Hoster: Uploaded, Share-Online

    MediaInfo
    Code:
    
    Container
    General
    Format: Matroska
    Format version: Version 4 / Version 2
    
    Video
    Format: AVC
    Format profile: High@ L4.1
    Format settings, CABAC: Yes
    Format settings, ReFrames: 4 frames
    
    Audio #1
    Format: DTS
    Format profile: MA / Core
    Format settings, Endianness: Big
    
    Audio #2
    Format: DTS
    Format profile: MA / Core
    Format settings, Endianness: Big
    
    Text #1
    Format: PGS
    
    Text #2
    Format: PGS
     Convert




    Geschützter Bereich - Bedanke dich beim Poster, um den Bereich sehen zu können
    Hier erfährst Du wie Du Dich bedanken kannst oder werde jetzt Premium Mitglied ab einer Spende von 5€ und erhalte sofortigen Zugriff auf den Downloadbereich!

    [Links sind nur für registrierte und aktivierte Nutzer sichtbar. Klicke hier um dich zu registrieren.]
    Geändert von Masaru (25. March 2016 um 14:56 Uhr)

  4. 88 Benutzer sagen Danke:

    Anzeigen

    -tomcat- (12. August 2016),Akio (16. May 2016),Aluaran (26. March 2016),Androkai (27. March 2016),andyb90 (31. January 2016),Asuka Langley (30. January 2016),Black Lotus (29. July 2016),BlackPhoenix (26. March 2016),BlackWidow (6. April 2016),Bloodyair (23. July 2016),Bombur (3. October 2016),brunsdumm (30. January 2016),Bunyos (30. January 2016),Chillasedi (25. March 2016),chopper23 (31. January 2016),Cloud9019 (30. March 2016),Coji (30. January 2016),Cy_Baer (30. January 2016),dacheff (30. January 2016),darkhammer (18. August 2016),DarthToast (30. January 2016),Dester007 (6. April 2016),DommiNanz (10. November 2016),donma (28. March 2016),Ecel (4. May 2016),Evilon (26. March 2016),Exede (27. March 2016),fullmetal1995 (29. March 2016),gdsatan (30. January 2016),Ghostraven (29. January 2016),Griever (29. January 2016),Gromm (31. January 2016),Guvi (31. January 2016),HannesLN (3. October 2016),heikobaer (30. January 2016),Kaan- (22. September 2016),Kaze (24. July 2016),kinghol (1. February 2016),knanime (20. August 2016),LordBacon1 (25. March 2016),lucky_mer (30. January 2016),manuel4193 (29. January 2016),MatrixEsl (12. June 2016),mauslea (25. March 2016),merb (30. January 2016),meyer (30. January 2016),michael187 (11. August 2016),Michih80 (26. March 2016),Miriweth (3. August 2016),MutationACE (30. August 2016),n0b0dy (11. September 2016),NanaNo7 (25. March 2016),Near (27. March 2016),noizmaker (1. October 2016),norby (30. January 2016),numbke (10. September 2016),NUVAKWAHU (26. July 2016),Nyan (28. March 2016),Pazu (31. July 2016),pressure (31. January 2016),RaienryuuRgr (13. September 2016),Razel86 (20. May 2016),Regi (15. February 2016),rGunti (12. November 2016),Ronae (25. March 2016),Roysento (24. August 2016),RyuLelouch (15. March 2016),Sandy7580 (25. March 2016),Scrappedmaster (14. August 2016),Se.phi.roth (5. June 2016),Seishin (26. March 2016),shawn10398 (31. July 2016),Shi No Ryu (27. May 2016),Skaze (17. September 2016),skylier (25. March 2016),SONNYxq (28. March 2016),staxru (30. July 2016),Tekk (30. January 2016),thanathan85 (30. January 2016),thomas (30. January 2016),undertaker0951 (17. August 2016),Windwusel (29. January 2016),xColdAsIcex (19. July 2016),Xisenable (20. August 2016),Zaiphel (7. July 2016),Zeichensalat (30. September 2016),zoe#449 (28. March 2016),Zumay (6. August 2016)

  5. #3
    Kleiner Experte
    Registriert seit
    Apr 2015
    Beiträge
    73
    Punkte
    2.198
    Errungenschaften:
    Senpai1000 ErfahrungspunkteTagger AmateurGalerie AusstellerErste Gruppe

    Chuunibyou demo Koi ga Shitai! [Ger-Jap-Dub][Ger-Sub][1080p][BluRay] - AST4u


    Chuunibyou demo Koi ga Shitai!
    中二病でも恋がしたい!
    Love, Chunibyo & Other Delusions






    Kurzbeschreibung:
    Zitat Zitat von AniSearch.com
    Yuuta Togashi litt, während er in der Mittelstufe war, an Chuunibyou. Dieser Begriff ist auch unter der Bezeichnung Middleschool 2nd Year Syndrome bekannt und beschreibt ein 14‐jähriges Kind, das sich übertrieben wie ein Anime‐Held einer Fantasy‐Welt verhält.
    Nach seinem Abschluss ließ er dies hinter sich, erinnert sich nur peinlich an diese Vergangenheit.

    Auf der neuen Schule lief anfangs alles glatt — bis sich Trauriges ereignete. Es bringt Yuuta dazu, einen Vertrag mit Rikka Takanashi abzuschließen. Sein Leben wird fortan vollkommen auf den Kopf gestellt…


    Spieldauer: 24min
    Genre: Romantische Komödie
    Nebengenres: Komödie, Romanze
    Jahr: 2012
    Sprache: Deutsch, Japanisch
    Untertitel: Deutsch
    Größe pro Folge: ~934 MiB
    Episodenanzahl: 12/12
    Format: MKV
    Auflösung: 1080p (16:9)
    Videocodec: x264 (AVC)
    Audiocodec: AC-3
    Releasegruppe: AST4u
    Hoster: Uploaded


    MediaInfo
    Code:
    
    Format                                   : Matroska
    Format version                           : Version 4 / Version 2
    File size                                : 934 MiB
    Duration                                 : 23mn 35s
    Overall bit rate                         : 5 534 Kbps
    Encoded date                             : UTC 2016-02-09 01:38:46
    Writing application                      : mkvmerge v8.2.0 ('World of Adventure') 64bit
    Writing library                          : libebml v1.3.1 + libmatroska v1.4.2
    Attachements                             : DejaVuSerifCondensed.ttf / fansubBlock.ttf / HammersmithOne.ttf / Happy Hell.ttf / Hui v2.ttf / MeriendaOne-Regular.ttf / One Off Cafe.ttf / PAPEJE_.TTF / Salsa.otf / tt0663m.ttf / Amaranth-Bold.otf / Amaranth-BoldItalic.otf / aquafont.ttf / BelugaLL.ttf / Chuu2-next.ttf
    DURATION                                 : 00:23:30.530000000
    NUMBER_OF_FRAMES                         : 1009
    NUMBER_OF_BYTES                          : 298301
    _STATISTICS_WRITING_APP                  : mkvmerge v8.2.0 ('World of Adventure') 64bit
    _STATISTICS_WRITING_DATE_UTC             : 2016-02-09 01:38:46
    _STATISTICS_TAGS                         : BPS DURATION NUMBER_OF_FRAMES NUMBER_OF_BYTES
    
    Video
    ID                                       : 1
    Format                                   : AVC
    Format/Info                              : Advanced Video Codec
    Format profile                           : [email protected]
    Format settings, CABAC                   : Yes
    Format settings, ReFrames                : 4 frames
    Codec ID                                 : V_MPEG4/ISO/AVC
    Duration                                 : 23mn 35s
    Bit rate                                 : 4 528 Kbps
    Width                                    : 1 920 pixels
    Height                                   : 1 080 pixels
    Display aspect ratio                     : 16:9
    Frame rate mode                          : Constant
    Frame rate                               : 23.976 fps
    Color space                              : YUV
    Chroma subsampling                       : 4:2:0
    Bit depth                                : 8 bits
    Scan type                                : Progressive
    Bits/(Pixel*Frame)                       : 0.091
    Stream size                              : 764 MiB (82%)
    Writing library                          : x264 core 146 r2538 121396c
    Encoding settings                        : cabac=1 / ref=4 / deblock=1:1:1 / analyse=0x1:0x111 / me=hex / subme=7 / psy=1 / psy_rd=0.40:0.00 / mixed_ref=1 / me_range=16 / chroma_me=1 / trellis=1 / 8x8dct=0 / cqm=0 / deadzone=21,11 / fast_pskip=1 / chroma_qp_offset=-2 / threads=6 / lookahead_threads=1 / sliced_threads=0 / nr=0 / decimate=1 / interlaced=0 / bluray_compat=0 / constrained_intra=0 / bframes=5 / b_pyramid=2 / b_adapt=1 / b_bias=0 / direct=1 / weightb=1 / open_gop=0 / weightp=2 / keyint=240 / keyint_min=23 / scenecut=40 / intra_refresh=0 / rc_lookahead=40 / rc=crf / mbtree=1 / crf=16.0 / qcomp=0.60 / qpmin=0 / qpmax=69 / qpstep=4 / vbv_maxrate=50000 / vbv_bufsize=62500 / crf_max=0.0 / nal_hrd=none / filler=0 / ip_ratio=1.40 / aq=1:0.60
    Default                                  : Yes
    Forced                                   : No
    
    Audio #1
    ID                                       : 2
    Format                                   : AC-3
    Format/Info                              : Audio Coding 3
    Mode extension                           : CM (complete main)
    Format settings, Endianness              : Big
    Codec ID                                 : A_AC3
    Duration                                 : 23mn 35s
    Bit rate mode                            : Constant
    Bit rate                                 : 448 Kbps
    Channel(s)                               : 2 channels
    Channel positions                        : Front: L R
    Sampling rate                            : 48.0 KHz
    Compression mode                         : Lossy
    Stream size                              : 75.6 MiB (8%)
    Title                                    : AC3 2.0
    Language                                 : German
    Default                                  : Yes
    Forced                                   : No
    
    Audio #2
    ID                                       : 3
    Format                                   : AC-3
    Format/Info                              : Audio Coding 3
    Mode extension                           : CM (complete main)
    Format settings, Endianness              : Big
    Codec ID                                 : A_AC3
    Duration                                 : 23mn 35s
    Bit rate mode                            : Constant
    Bit rate                                 : 448 Kbps
    Channel(s)                               : 2 channels
    Channel positions                        : Front: L R
    Sampling rate                            : 48.0 KHz
    Compression mode                         : Lossy
    Stream size                              : 75.6 MiB (8%)
    Title                                    : AC3 2.0
    Language                                 : Japanese
    Default                                  : No
    Forced                                   : No
    
    Text #1
    ID                                       : 4
    Format                                   : VobSub
    Muxing mode                              : zlib
    Codec ID                                 : S_VOBSUB
    Codec ID/Info                            : Picture based subtitle format used on DVDs
    Title                                    : FORCED VOBSUB
    Language                                 : German
    Default                                  : Yes
    Forced                                   : No
    
    Text #2
    ID                                       : 5
    Format                                   : VobSub
    Muxing mode                              : zlib
    Codec ID                                 : S_VOBSUB
    Codec ID/Info                            : Picture based subtitle format used on DVDs
    Title                                    : FULL VOBSUB
    Language                                 : German
    Default                                  : No
    Forced                                   : No
    
    Text #3
    ID                                       : 6
    Format                                   : PGS
    Muxing mode                              : zlib
    Codec ID                                 : S_HDMV/PGS
    Codec ID/Info                            : Picture based subtitle format used on BDs/HD-DVDs
    Title                                    : FORCED PGS
    Language                                 : German
    Default                                  : No
    Forced                                   : No
    
    Text #4
    ID                                       : 7
    Format                                   : PGS
    Muxing mode                              : zlib
    Codec ID                                 : S_HDMV/PGS
    Codec ID/Info                            : Picture based subtitle format used on BDs/HD-DVDs
    Title                                    : FULL PGS
    Language                                 : German
    Default                                  : No
    Forced                                   : No
    
    Text #5
    ID                                       : 8
    Format                                   : ASS
    Codec ID                                 : S_TEXT/ASS
    Codec ID/Info                            : Advanced Sub Station Alpha
    Compression mode                         : Lossless
    Title                                    : FULL ASS [Chinurarete]
    Language                                 : German
    Default                                  : No
    Forced                                   : No
    
    Menu
    00:00:00.000                             : :Intro
    00:01:23.000                             : :OP
    00:02:53.000                             : :Part A
    00:12:18.000                             : :Intermission
    00:12:26.000                             : :Part B
    00:22:05.000                             : :ED
    
    




    Geschützter Bereich - Bedanke dich beim Poster, um den Bereich sehen zu können
    Hier erfährst Du wie Du Dich bedanken kannst oder werde jetzt Premium Mitglied ab einer Spende von 5€ und erhalte sofortigen Zugriff auf den Downloadbereich!

    [Links sind nur für registrierte und aktivierte Nutzer sichtbar. Klicke hier um dich zu registrieren.]

  6. 19 Benutzer sagen Danke:

    -tomcat- (12. August 2016),Asuka Langley (28. May 2016),Bloodyair (23. July 2016),Bombur (3. October 2016),Buschkilla (8. August 2016),DommiNanz (10. November 2016),MutationACE (30. August 2016),noizmaker (1. October 2016),NUVAKWAHU (26. July 2016),Reaper1 (14. July 2016),rGunti (12. November 2016),Roysento (24. August 2016),Se.phi.roth (5. June 2016),Shi No Ryu (27. May 2016),staxru (30. July 2016),undertaker0951 (17. August 2016),xColdAsIcex (19. July 2016),Zaiphel (7. July 2016),Zumay (7. August 2016)

Lesezeichen

Berechtigungen

  • Neue Themen erstellen: Nein
  • Themen beantworten: Nein
  • Anhänge hochladen: Nein
  • Beiträge bearbeiten: Nein
  •  

1 2 3 4 5 6 7 8 9 10 11 12 13 14 15 16 17 18 19 20 21 22 23 24 25 26 27 28 29 30 31 32 33 34 35 36 37 38 39 40 41 42 43 44 45 46 47 48 49 50 51 52 53 54 55 56 57 58 59 60 61 62 63 64 65 66 67 68 69 70 71 72 73 74 75 76 77 78 79 80 81 82 83 84 85 86 87 88 89 90 91 92 93 94 95 96 97 98 99 100 101 102 103 104 105 106 107 108 109 110 111 112 113 114 115 116 117 118 119 120 121 122 123 124 125 126 127 128 129 130 131 132 133 134 135 136 137 138 139 140 141 142 143 144 145 146 147 148 149 150 151 152 153 154 155 156 157 158