Ergebnis 1 bis 2 von 2

Thema: City Hunter S01 German Dubbed DVDRiP XviD - iND

Dieser Thread wurde noch nicht bewertet. Bewerte ihn doch, wenn er dir gefällt!
  1. #1
    High Quality Anime Avatar von Uploading123
    Registriert seit
    Mar 2013
    Beiträge
    1.006
    Punkte
    44.015
    Errungenschaften:
    TomodachisTagger Amateur25000 ErfahrungspunkteHikikomoriKapitän

    City Hunter S01 German Dubbed DVDRiP XviD - iND


    City.Hunter.S01.German.Dubbed.ANiME.DVDRiP.XviD-iND



    .:Beschreibung:.
    Ryo Saeba ist Privatdetektiv und zwar ein sehr erfolgreicher. Sein Pech, dass sich der Erfolg nur auf seinen Beruf und nicht auf seine größtenteils hübschen, weiblichen Auftraggeberinnen beschränkt. Es ist überaus amüsant mit anzusehen, was Ryo so alles versucht, um bei den Frauen zu landen. Und wäre da nicht seine Partnerin Kaori Makimura, die ihm wirklich jedes Date vermasselt, hätte vielleicht die eine oder andere schon angebissen. Aber in seinem Beruf gelingt ihm einfach alles.

    .:Info:.
    Größe: 8909.39 MB
    Laufzeit: 1020 Min.
    Format: .avi
    Video Stream: DVD-RIP
    Video Codec: MPEG-4 DivX / Xvid
    Audio Stream: Stereo
    Sprache/n: GER
    Genre: Animation

    .:NFO:.
    Spoiler
    Code:
    Auflösung: 640x480 pixels
    Video Bitrate: 1057 Kbps
    Audio Deutsch: MP3 2.0 128 Kbps
    Format: XviD
    Quelle: DVD9
    Laufzeit: 51x20 Min
    Untertitel: Keine


    Mirrors kompatibel

    .:Uploaded.net:.
    Geschützter Bereich - Bedanke dich beim Poster, um den Bereich sehen zu können
    Hier erfährst Du wie Du Dich bedanken kannst oder werde jetzt Premium Mitglied ab einer Spende von 5€ und erhalte sofortigen Zugriff auf den Downloadbereich!

    .:Share-online.biz:.
    Geschützter Bereich - Bedanke dich beim Poster, um den Bereich sehen zu können
    Hier erfährst Du wie Du Dich bedanken kannst oder werde jetzt Premium Mitglied ab einer Spende von 5€ und erhalte sofortigen Zugriff auf den Downloadbereich!


  2. 26 Benutzer sagen Danke:

    Akio (6. December 2015),Antipott (8. September 2015),Bunchy (17. June 2015),Draagul (30. March 2015),Exalderan (14. May 2015),freakwatcher (7. April 2015),Hisamaki (24. May 2016),JackyMono (5. March 2016),LetsPhoenixPlay (6. July 2015),masta.ace (25. July 2015),Matzehansa (29. December 2015),Max13493 (15. September 2015),Plattenpapst (31. March 2015),Raychan (5. April 2015),rentaro (5. July 2015),Riyadoris (8. October 2015),Sasuke (6. July 2015),schaluppe (21. September 2015),Scorpionlord88 (4. January 2016),Shirou (20. August 2015),SilverSurferGT.de (5. May 2015),SnowCat (4. April 2015),Tenma90 (11. August 2016),THOR543 (Heute),TrUnkO (31. March 2015)

  3. #2
    United we Stand Avatar von 00Ryuji00
    Registriert seit
    Oct 2012
    Beiträge
    3.896
    Punkte
    99.519
    Errungenschaften:
    TomodachisGang LeaderHikikomoriTagger Amateur50000 Erfahrungspunkte

    AW: City Hunter [Ger-Dub][480p][DVDRip]

    City Hunter
    シティーハンター
    City Hunter: Ein Fall für Ryo Saeba
    city hunter 1



    Kurzbeschreibung:
    Ryo Saeba ist Privatdetektiv und zwar ein sehr erfolgreicher. Sein Pech, dass sich der Erfolg nur auf seinen Beruf und nicht auf seine größtenteils hübschen, weiblichen Auftraggeberinnen beschränkt. Es ist überaus amüsant mit anzusehen, was Ryo so alles versucht, um bei den Frauen zu landen. Und wäre da nicht seine Partnerin Kaori Makimura, die ihm wirklich jedes Date vermasselt, hätte vielleicht die eine oder andere schon angebissen. Aber in seinem Beruf gelingt ihm einfach alles.
    Sprache: Deutsch
    Untertitel: -
    Spieldauer: ~ 21min
    Größe: ~ 180MB, insgesamt 8,6GB
    Episodenanzahl: 51/51
    Format: .avi
    Auflösung: 480p (640x480, 4:3)
    Codec: XviD, MP3
    Gruppe: iND
    Hoster: Uploaded, Share-Online

    Datei-Info.:
    Spoiler
    Code:
    Format                                   : AVI
    Format/Info                              : Audio Video Interleave
    File size                                : 176 MiB
    Duration                                 : 20mn 33s
    Overall bit rate                         : 1 195 Kbps
    Writing application                      : VirtualDubMod 1.5.10.2 (build 2540/release)
    Writing library                          : VirtualDubMod build 2540/release
    
    Video
    ID                                       : 0
    Format                                   : MPEG-4 Visual
    Format profile                           : [email protected]
    Format settings, BVOP                    : 2
    Format settings, QPel                    : No
    Format settings, GMC                     : No warppoints
    Format settings, Matrix                  : Default (H.263)
    Muxing mode                              : Packed bitstream
    Codec ID                                 : XVID
    Codec ID/Hint                            : XviD
    Duration                                 : 20mn 33s
    Bit rate                                 : 1 057 Kbps
    Width                                    : 640 pixels
    Height                                   : 480 pixels
    Display aspect ratio                     : 4:3
    Frame rate                               : 25.000 fps
    Color space                              : YUV
    Chroma subsampling                       : 4:2:0
    Bit depth                                : 8 bits
    Scan type                                : Progressive
    Compression mode                         : Lossy
    Bits/(Pixel*Frame)                       : 0.138
    Stream size                              : 155 MiB (88%)
    Writing library                          : XviD 1.1.0 Beta2 (UTC 2005-04-04)
    
    Audio
    ID                                       : 1
    Format                                   : MPEG Audio
    Format version                           : Version 1
    Format profile                           : Layer 3
    Mode                                     : Joint stereo
    Mode extension                           : MS Stereo
    Codec ID                                 : 55
    Codec ID/Hint                            : MP3
    Duration                                 : 20mn 33s
    Bit rate mode                            : Constant
    Bit rate                                 : 128 Kbps
    Channel count                            : 2 channels
    Sampling rate                            : 44.1 KHz
    Compression mode                         : Lossy
    Stream size                              : 18.8 MiB (11%)
    Alignment                                : Split accross interleaves
    Interleave, duration                     : 40 ms (1.00 video frame)
    Interleave, preload duration             : 500 ms
    


    Geschützter Bereich - Bedanke dich beim Poster, um den Bereich sehen zu können
    Hier erfährst Du wie Du Dich bedanken kannst oder werde jetzt Premium Mitglied ab einer Spende von 5€ und erhalte sofortigen Zugriff auf den Downloadbereich!
    !!!Alle Anliegen bezüglich Uploads werden nur mit direktem Threadlink zum Angebot bearbeitet!!!

    Re-Uploadanfragen nur per PN - Ihr könnt mir auch Listen schicken

    Re-Uploads erfolgen meist innerhalb 24h, kann aber auch bis zu 7 Tage dauern

    [Links sind nur für registrierte und aktivierte Nutzer sichtbar. Klicke hier um dich zu registrieren.] | [Links sind nur für registrierte und aktivierte Nutzer sichtbar. Klicke hier um dich zu registrieren.] | >[Links sind nur für registrierte und aktivierte Nutzer sichtbar. Klicke hier um dich zu registrieren.]<
    [Links sind nur für registrierte und aktivierte Nutzer sichtbar. Klicke hier um dich zu registrieren.]

  4. 12 Benutzer sagen Danke:

    Akio (6. December 2015),AniStar (27. November 2015),Antipott (8. September 2015),dragonking87 (26. July 2015),Flyer (5. July 2015),haltdiefresse (4. July 2015),Jet_Black (2. July 2016),LetsPhoenixPlay (6. July 2015),Matzehansa (29. December 2015),MrScenic (25. July 2015),Scorpionlord88 (4. January 2016),Shirou (20. August 2015)

Lesezeichen

Berechtigungen

  • Neue Themen erstellen: Nein
  • Themen beantworten: Nein
  • Anhänge hochladen: Nein
  • Beiträge bearbeiten: Nein
  •  

1 2 3 4 5 6 7 8 9 10 11 12 13 14 15 16 17 18 19 20 21 22 23 24 25 26 27 28 29 30 31 32 33 34 35 36 37 38 39 40 41 42 43 44 45 46 47 48 49 50 51 52 53 54 55 56 57 58 59 60 61 62 63 64 65 66 67 68 69 70 71 72 73 74 75 76 77 78 79 80 81 82 83 84 85 86 87 88 89 90 91 92 93 94 95 96 97 98 99 100 101 102 103 104 105 106 107 108 109 110 111 112 113 114 115 116 117 118 119 120 121 122 123 124 125 126 127 128 129 130 131 132 133 134 135 136 137 138 139 140 141 142 143 144 145 146 147 148 149 150 151 152 153 154 155 156 157 158