Ergebnis 1 bis 3 von 3

Thema: Clannad After Story [Ger-Jap-Dub][Ger-Sub][720p/1080p][BluRay] - Riitz

Dieser Thread wurde noch nicht bewertet. Bewerte ihn doch, wenn er dir gefällt!
  1. #1
    Kami-sama Avatar von galudo
    Registriert seit
    Mar 2015
    Beiträge
    1.371
    Punkte
    26.024
    Errungenschaften:
    TomodachisTagger ProfiHyperaktivSenpaiGang Leader

    Clannad After Story [Ger-Jap-Dub][Ger-Sub][720p/1080p][BluRay] - Riitz

    Clannad After Story
    クラナド アフターストーリー
    Clannad 2nd Season
    Clannad Staffel 2



    Kurzbeschreibung
    Die Schulzeit von Tomoya, Nagisa und ihren Freunden neigt sich langsam aber sicher dem Ende zu. Die "After Story" setzt kurz nach dem Ende der ersten Clannadstaffel ein und verfolgt das weitere Leben der Charaktere auch bis in die nachschulische Zeit. Die Charaktere fragen sich, wie es nun nach der Schule weitergehen soll. Welche Antwort werden sie in ihrem neuen Lebensabschnitt auf die Frage finden?
    Episodenliste
    Code:
    1   Abschied am Sommerende
    2   Auf der Suche nach falschen Träumen
    3   Herzen, die einander nicht näherkommen
    4   Mit demselben Lächeln wie damals
    5   Die Zeit in der du bei mir warst
    6   Immer an deiner Seite
    7   Die Aufenthaltsorte des Mädchens
    8   Ein heldenhafter Kampf
    9   Auf der Hälfte der Strecke
    10  Zeit des Anfangs
    11  Das versprochene Gründerfestival
    12  Aus heiterem Himmel
    13  Abschluss
    14  Eine neue Familie
    15  Zeichen des Abschieds
    16  Verlorenes Licht
    17  Sommerzeit
    18  Die Enden der Welt
    19  Der Weg nach Hause
    20  Spaß in Shiokaze
    21  Das Ende der Welt
    22  Eine winzige Handfläche
    23  Der Vorfall vor einem Jahr
    24  Unter dem grünen Baum
    Format: MKV
    Sprache: Japanisch, Deutsch
    Untertitel: Deutsch
    Genre: Drama, Fantasy, Romance, Slice of Life, Supernatural
    Größe bei 720p: ~ 450 MB pro Folge | Gesamtgröße: 10,52 GB
    Größe bei 1080p: ~ 800 MB pro Folge | Gesamtgröße: 16,94 GB
    Dauer: ~ 23 Minuten
    Jahr: 2008
    Video: 720p & 1080p
    Source: BluRay
    Subgroup / Releasegroup: AST4u / Riitz

    Hoster: Share-Online | Uploaded
    Passwort: siehe unten


    Datei-Info
    MediaInfo
    720p
    Code:
    General
    Complete name                  : Clannad Afterstory - 01.mkv
    Format                         : Matroska
    Format version                 : Version 4 / Version 2
    File size                      : 490 MiB
    Duration                       : 24mn 10s
    Overall bit rate               : 2 831 Kbps
    Encoded date                   : UTC 2015-07-03 18:43:08
    Writing application            : mkvmerge v8.0.0 ('Til The Day That I Die') 64bit
    Writing library                : libebml v1.3.1 + libmatroska v1.4.2
    DURATION                       : 00:23:43.380000000
    NUMBER_OF_FRAMES               : 766
    NUMBER_OF_BYTES                : 2273021
    _STATISTICS_WRITING_APP        : mkvmerge v8.0.0 ('Til The Day That I Die') 64bit
    _STATISTICS_WRITING_DATE_UTC   : 2015-07-03 18:43:08
    _STATISTICS_TAGS               : BPS DURATION NUMBER_OF_FRAMES NUMBER_OF_BYTES
    
    Video
    ID                             : 1
    Format                         : AVC
    Format/Info                    : Advanced Video Codec
    Format profile                 : [email protected]
    Format settings, CABAC         : Yes
    Format settings, ReFrames      : 6 frames
    Codec ID                       : V_MPEG4/ISO/AVC
    Duration                       : 24mn 10s
    Bit rate                       : 1 878 Kbps
    Width                          : 1 280 pixels
    Height                         : 720 pixels
    Display aspect ratio           : 16:9
    Frame rate mode                : Constant
    Frame rate                     : 23.976 fps
    Color space                    : YUV
    Chroma subsampling             : 4:2:0
    Bit depth                      : 8 bits
    Scan type                      : Progressive
    Bits/(Pixel*Frame)             : 0.085
    Stream size                    : 325 MiB (66%)
    Writing library                : x264 core 146 r2538 121396c
    Encoding settings              : cabac=1 / ref=6 / deblock=1:1:1 / analyse=0x3:0x113 / me=hex / subme=7 / psy=1 / psy_rd=1.00:0.00 / mixed_ref=1 / me_range=16 / chroma_me=1 / trellis=1 / 8x8dct=1 / cqm=0 / deadzone=21,11 / fast_pskip=1 / chroma_qp_offset=-2 / threads=6 / lookahead_threads=1 / sliced_threads=0 / nr=0 / decimate=1 / interlaced=0 / bluray_compat=0 / constrained_intra=0 / bframes=5 / b_pyramid=2 / b_adapt=1 / b_bias=0 / direct=1 / weightb=1 / open_gop=0 / weightp=2 / keyint=240 / keyint_min=23 / scenecut=40 / intra_refresh=0 / rc_lookahead=40 / rc=crf / mbtree=1 / crf=16.0 / qcomp=0.60 / qpmin=0 / qpmax=69 / qpstep=4 / vbv_maxrate=62500 / vbv_bufsize=78125 / crf_max=0.0 / nal_hrd=none / filler=0 / ip_ratio=1.40 / aq=1:0.60
    Default                        : Yes
    Forced                         : No
    
    Audio #1
    ID                             : 2
    Format                         : AC-3
    Format/Info                    : Audio Coding 3
    Mode extension                 : CM (complete main)
    Format settings, Endianness    : Big
    Codec ID                       : A_AC3
    Duration                       : 24mn 10s
    Bit rate mode                  : Constant
    Bit rate                       : 448 Kbps
    Channel(s)                     : 6 channels
    Channel positions              : Front: L C R, Side: L R, LFE
    Sampling rate                  : 48.0 KHz
    Bit depth                      : 16 bits
    Compression mode               : Lossy
    Stream size                    : 77.5 MiB (16%)
    Title                          : AC3 5.1
    Language                       : German
    Default                        : Yes
    Forced                         : No
    
    Audio #2
    ID                             : 3
    Format                         : AC-3
    Format/Info                    : Audio Coding 3
    Mode extension                 : CM (complete main)
    Format settings, Endianness    : Big
    Codec ID                       : A_AC3
    Duration                       : 24mn 10s
    Bit rate mode                  : Constant
    Bit rate                       : 448 Kbps
    Channel(s)                     : 6 channels
    Channel positions              : Front: L C R, Side: L R, LFE
    Sampling rate                  : 48.0 KHz
    Bit depth                      : 16 bits
    Compression mode               : Lossy
    Stream size                    : 77.5 MiB (16%)
    Title                          : AC3 5.1
    Language                       : Japanese
    Default                        : No
    Forced                         : No
    
    Text #1
    ID                             : 4
    Format                         : VobSub
    Muxing mode                    : zlib
    Codec ID                       : S_VOBSUB
    Codec ID/Info                  : Picture based subtitle format used on DVDs
    Title                          : FULL VOBSUB
    Language                       : German
    Default                        : No
    Forced                         : No
    
    Text #2
    ID                             : 5
    Format                         : PGS
    Muxing mode                    : zlib
    Codec ID                       : S_HDMV/PGS
    Codec ID/Info                  : Picture based subtitle format used on BDs/HD-DVDs
    Title                          : FULL PGS
    Language                       : German
    Default                        : No
    Forced                         : No
    1080p
    Code:
    General
    Complete name                  : Clannad Afterstory - 01.mkv
    Format                         : Matroska
    Format version                 : Version 4 / Version 2
    File size                      : 790 MiB
    Duration                       : 24mn 10s
    Overall bit rate               : 4 569 Kbps
    Encoded date                   : UTC 2015-07-03 19:04:02
    Writing application            : mkvmerge v8.0.0 ('Til The Day That I Die') 64bit
    Writing library                : libebml v1.3.1 + libmatroska v1.4.2
    DURATION                       : 00:23:43.380000000
    NUMBER_OF_FRAMES               : 766
    NUMBER_OF_BYTES                : 2273021
    _STATISTICS_WRITING_APP        : mkvmerge v8.0.0 ('Til The Day That I Die') 64bit
    _STATISTICS_WRITING_DATE_UTC   : 2015-07-03 19:04:02
    _STATISTICS_TAGS               : BPS DURATION NUMBER_OF_FRAMES NUMBER_OF_BYTES
    
    Video
    ID                             : 1
    Format                         : AVC
    Format/Info                    : Advanced Video Codec
    Format profile                 : [email protected]
    Format settings, CABAC         : Yes
    Format settings, ReFrames      : 4 frames
    Codec ID                       : V_MPEG4/ISO/AVC
    Duration                       : 24mn 10s
    Bit rate                       : 3 582 Kbps
    Width                          : 1 920 pixels
    Height                         : 1 080 pixels
    Display aspect ratio           : 16:9
    Frame rate mode                : Constant
    Frame rate                     : 23.976 fps
    Color space                    : YUV
    Chroma subsampling             : 4:2:0
    Bit depth                      : 8 bits
    Scan type                      : Progressive
    Bits/(Pixel*Frame)             : 0.072
    Stream size                    : 619 MiB (78%)
    Writing library                : x264 core 146 r2538 121396c
    Encoding settings              : cabac=1 / ref=4 / deblock=1:1:1 / analyse=0x3:0x113 / me=hex / subme=7 / psy=1 / psy_rd=1.00:0.00 / mixed_ref=1 / me_range=16 / chroma_me=1 / trellis=1 / 8x8dct=1 / cqm=0 / deadzone=21,11 / fast_pskip=1 / chroma_qp_offset=-2 / threads=6 / lookahead_threads=1 / sliced_threads=0 / nr=0 / decimate=1 / interlaced=0 / bluray_compat=0 / constrained_intra=0 / bframes=5 / b_pyramid=2 / b_adapt=1 / b_bias=0 / direct=1 / weightb=1 / open_gop=0 / weightp=2 / keyint=240 / keyint_min=23 / scenecut=40 / intra_refresh=0 / rc_lookahead=40 / rc=crf / mbtree=1 / crf=16.0 / qcomp=0.60 / qpmin=0 / qpmax=69 / qpstep=4 / vbv_maxrate=62500 / vbv_bufsize=78125 / crf_max=0.0 / nal_hrd=none / filler=0 / ip_ratio=1.40 / aq=1:0.60
    Default                        : Yes
    Forced                         : No
    
    Audio #1
    ID                             : 2
    Format                         : AC-3
    Format/Info                    : Audio Coding 3
    Mode extension                 : CM (complete main)
    Format settings, Endianness    : Big
    Codec ID                       : A_AC3
    Duration                       : 24mn 10s
    Bit rate mode                  : Constant
    Bit rate                       : 448 Kbps
    Channel(s)                     : 6 channels
    Channel positions              : Front: L C R, Side: L R, LFE
    Sampling rate                  : 48.0 KHz
    Bit depth                      : 16 bits
    Compression mode               : Lossy
    Stream size                    : 77.5 MiB (10%)
    Title                          : AC3 5.1
    Language                       : German
    Default                        : Yes
    Forced                         : No
    
    Audio #2
    ID                             : 3
    Format                         : AC-3
    Format/Info                    : Audio Coding 3
    Mode extension                 : CM (complete main)
    Format settings, Endianness    : Big
    Codec ID                       : A_AC3
    Duration                       : 24mn 10s
    Bit rate mode                  : Constant
    Bit rate                       : 448 Kbps
    Channel(s)                     : 6 channels
    Channel positions              : Front: L C R, Side: L R, LFE
    Sampling rate                  : 48.0 KHz
    Bit depth                      : 16 bits
    Compression mode               : Lossy
    Stream size                    : 77.5 MiB (10%)
    Title                          : AC3 5.1
    Language                       : Japanese
    Default                        : No
    Forced                         : No
    
    Text #1
    ID                             : 4
    Format                         : VobSub
    Muxing mode                    : zlib
    Codec ID                       : S_VOBSUB
    Codec ID/Info                  : Picture based subtitle format used on DVDs
    Title                          : FULL VOBSUB
    Language                       : German
    Default                        : No
    Forced                         : No
    
    Text #2
    ID                             : 5
    Format                         : PGS
    Muxing mode                    : zlib
    Codec ID                       : S_HDMV/PGS
    Codec ID/Info                  : Picture based subtitle format used on BDs/HD-DVDs
    Title                          : FULL PGS
    Language                       : German
    Default                        : No
    Forced                         : No


    Folgen 24 / 24 online
    OVA 01/01 online
    Folgen einzeln ladbar


    || Download & Passwort ||


    Geschützter Bereich - Bedanke dich beim Poster, um den Bereich sehen zu können
    Hier erfährst Du wie Du Dich bedanken kannst oder werde jetzt Premium Mitglied ab einer Spende von 5€ und erhalte sofortigen Zugriff auf den Downloadbereich!
    Geändert von galudo (9. October 2016 um 01:12 Uhr) Grund: Reup
    SUPPORT UND REUP ANFRAGEN NUR >> [Links sind nur für registrierte und aktivierte Nutzer sichtbar. Klicke hier um dich zu registrieren.] <<
    Bitte IMMER den Thread-Link mitschicken.

  2. 136 Benutzer sagen Danke:

    Anzeigen

    1Ranger (10. November 2015),Akio (17. January 2016),Androkai (14. November 2015),andyb90 (18. January 2016),AniSmash (21. December 2015),ApCeLlonDinG (25. November 2015),arginator (2. January 2016),Asuka Langley (9. November 2015),Ayaka (15. January 2016),baldur1989 (9. January 2016),BlackIron (29. November 2015),BlackReaper (17. January 2016),BlackWidow (13. January 2016),bleach-master (12. November 2015),brunsdumm (15. January 2016),Bunyos (16. January 2016),Buschkilla (11. November 2015),chopper23 (8. November 2015),Cloud9019 (11. November 2015),Conmar (17. January 2016),Cy_Baer (8. November 2015),dacheff (9. November 2015),Dalurin (6. December 2015),Delatharos (13. November 2015),deofration (15. January 2016),DerP0LE (16. January 2016),diablofan2 (15. January 2016),DommiNanz (17. January 2016),Dreieckhard (15. January 2016),ElfenLied (16. November 2015),EpiX (9. August 2016),Etho89 (17. January 2016),Evilon (12. December 2015),fab1 (3. February 2016),FingerMove (8. November 2015),Flexx7000 (28. February 2016),FlutterRage (12. November 2015),Flyer (8. November 2015),foxtrot (17. January 2016),freakwatcher (8. November 2015),FrozZenOnE (7. December 2015),gdsatan (8. November 2015),Ghostraven (15. January 2016),Gorbatschow (8. December 2015),Griever (15. January 2016),Hanki (24. November 2015),heikobaer (15. January 2016),Holzmodem (9. October 2016),hunter4320 (9. November 2015),hyper (17. January 2016),Ibanezar (30. December 2015),ichyiy (5. April 2016),IshiFuroito (17. February 2016),jetjojo (8. November 2015),JoleenLovesMina (10. November 2015),kakashi656 (26. June 2016),katey01 (25. November 2015),khavatarie (21. December 2015),Kinasix (8. November 2015),KnutHunter (23. December 2015),Kokujou (15. January 2016),Kox598 (30. December 2015),KrachbumAlex (17. January 2016),kyoto (9. December 2015),LorenorZorro (15. January 2016),Loveli (9. November 2015),lucky_mer (8. November 2015),Lyres (17. December 2015),M0NTYPython (6. March 2016),MacRul3z (17. September 2016),Mallaye (23. November 2015),manuel4193 (15. January 2016),markusdamon5 (14. May 2016),MatrixEsl (27. February 2016),maze8888 (22. November 2015),megabumer (8. December 2015),Meistermagier (3. January 2016),merb (29. December 2015),Merkartor (2. October 2016),meyer (8. November 2015),mic.spirit (3. August 2016),Michih80 (10. November 2015),midnighter (17. November 2015),mikle20 (9. June 2016),moflippa (13. February 2016),Morslord (28. November 2015),Mr.Shit (15. January 2016),muffinhunter (29. November 2015),NanaNo7 (23. January 2016),noizmaker (16. November 2015),norby (8. November 2015),NUVAKWAHU (23. August 2016),old nick (14. December 2015),Paachan (18. March 2016),Paranoya (13. November 2015),piqchiq (8. July 2016),Poocky (15. January 2016),Radesys (19. December 2015),Raziel (16. January 2016),Reach (8. November 2015),Reaper1 (22. November 2015),riezik (8. November 2015),Ronae (8. November 2015),Roxas-chan (13. October 2016),RyuLelouch (15. December 2015),Sasuke (19. November 2015),sch (Gestern),scorpedanius (11. November 2015),Scruffy (22. May 2016),Shadow7525 (19. November 2015),shawn10398 (9. October 2016),Skeletti (4. February 2016),skylier (16. January 2016),songucku (1. January 2016),Starbrand (9. November 2015),swagrid (25. December 2015),Tai1988 (16. January 2016),Tarlysin (28. November 2015),Tekk (8. November 2015),Tevion32 (17. January 2016),thanathan85 (12. November 2015),The_Iron (11. November 2015),tobiaswarth (9. April 2016),tompace (16. January 2016),Truzter (6. December 2015),ventus1991 (3. March 2016),Vstrike (9. November 2015),WaRRioR (12. February 2016),Windwusel (15. January 2016),wire1257 (19. October 2016),xdricixd (14. November 2015),Xecty (4. June 2016),xeltzber (3. November 2016),Yeezy (20. November 2016),Zeichensalat (9. November 2015),Zumay (6. August 2016)

  3. #2
    Kami-sama Avatar von galudo
    Registriert seit
    Mar 2015
    Beiträge
    1.371
    Punkte
    26.024
    Errungenschaften:
    TomodachisTagger ProfiHyperaktivSenpaiGang Leader

    AW: Clannad After Story [Ger-Jap-Dub][Ger-Sub][720p/1080p][BluRay] - Riitz

    Episode 19-24 + OVA online (Vol. 4)
    Anime completed
    SUPPORT UND REUP ANFRAGEN NUR >> [Links sind nur für registrierte und aktivierte Nutzer sichtbar. Klicke hier um dich zu registrieren.] <<
    Bitte IMMER den Thread-Link mitschicken.

  4. 4 Benutzer sagen Danke:

    Androkai (15. January 2016),Asuka Langley (17. January 2016),gdsatan (15. January 2016),Lyres (18. January 2016)

  5. #3
    Kami-sama Avatar von galudo
    Registriert seit
    Mar 2015
    Beiträge
    1.371
    Punkte
    26.024
    Errungenschaften:
    TomodachisTagger ProfiHyperaktivSenpaiGang Leader

    AW: Clannad After Story [Ger-Jap-Dub][Ger-Sub][720p/1080p][BluRay] - Riitz

    Update: Dateien auf Wunsch wieder Online
    SUPPORT UND REUP ANFRAGEN NUR >> [Links sind nur für registrierte und aktivierte Nutzer sichtbar. Klicke hier um dich zu registrieren.] <<
    Bitte IMMER den Thread-Link mitschicken.

Stichworte

Lesezeichen

Berechtigungen

  • Neue Themen erstellen: Nein
  • Themen beantworten: Nein
  • Anhänge hochladen: Nein
  • Beiträge bearbeiten: Nein
  •  

1 2 3 4 5 6 7 8 9 10 11 12 13 14 15 16 17 18 19 20 21 22 23 24 25 26 27 28 29 30 31 32 33 34 35 36 37 38 39 40 41 42 43 44 45 46 47 48 49 50 51 52 53 54 55 56 57 58 59 60 61 62 63 64 65 66 67 68 69 70 71 72 73 74 75 76 77 78 79 80 81 82 83 84 85 86 87 88 89 90 91 92 93 94 95 96 97 98 99 100 101 102 103 104 105 106 107 108 109 110 111 112 113 114 115 116 117 118 119 120 121 122 123 124 125 126 127 128 129 130 131 132 133 134 135 136 137 138 139 140 141 142 143 144 145 146 147 148 149 150 151 152 153 154 155 156 157 158