Ergebnis 1 bis 1 von 1

Thema: Code Geass: Hangyaku no Lelouch [Ger-Eng-Jap-Dub][Ger-Eng-Sub][720p/1080p][BluRay] - Li0N

Dieser Thread wurde noch nicht bewertet. Bewerte ihn doch, wenn er dir gefällt!
  1. #1
    United we Stand Avatar von 00Ryuji00
    Registriert seit
    Oct 2012
    Beiträge
    3.896
    Punkte
    99.519
    Errungenschaften:
    TomodachisGang LeaderHikikomoriTagger Amateur50000 Erfahrungspunkte

    Code Geass: Hangyaku no Lelouch [Ger-Eng-Jap-Dub][Ger-Eng-Sub][720p/1080p][BluRay] - Li0N


    Code Geass: Hangyaku no Lelouch

    コードギアス 反逆のルルーシュ
    Code Geass: Lelouch of the Rebellion






    Kurzbeschreibung:
    Zitat Zitat von AniSearch.com
    Am 10. August 2010 fiel das Königreich Britannia in Japan ein. Ein furchtbarer Krieg begann, den Japan auf Grund der von Britannia entwickelten Mechas, den Knightmare Frames, verlor. Japan wurde Teil des Reiches Britannias und verlor seine Freiheit und Rechte und bekam einen neuen Namen, Area 11. Weil Lelouch, der Sohn des Königs Charles vi Britannia, mit ansehen musste, wie seine Mutter Marianne vi Britannia vor seinen Augen von Terroristen getötet wurde und sein Vater nichts dagegen unternahm, schwor er aus Rache das Königreich Britannia zu zerstören.

    7 Jahre nach dem Krieg lebt Lelouch Lamperouge in Area 11 und geht dort zur Schule. Eines Tages sieht er, wie ein von Knightmare Frames verfolgter Laster in eine Mauer kracht. Durch unglückliche Zwischenfälle fällt er in den Laster und als er sich in einem unterirdischen Gewölbe wiederfindet, entsteigt plötzlich ein Mädchen aus einem auf dem Laster befindlichen Behälter. Lelouch flieht mit dem Mädchen durch die Kanalisation, wird aber am Ausgang von den Truppen Britannias gefasst. Als man ihn wegen Terrorismus erschießen will, bietet das Mädchen ihm an, einen Vertrag mit ihr einzugehen, der ihm die Macht verleiht, lebend aus dieser Situation zu entkommen. Ohne zu zögern willigt Lelouch ein. Nun hat Lelouch alles, was er braucht, um Britannia zu zerstören und somit beginnt er seinen Feldzug zur Vernichtung des Königreiches Britannia.


    Spieldauer: 24min
    Genre: Actiondrama
    Nebengenres: Action, Drama, Mecha, Psychodrama, Scifi
    Jahr: 2006
    Sprache: Deutsch, Englisch, Japanisch
    Untertitel: Deutsch, Englisch
    Größe pro Folge: ~718 MiB ~1.24 GiB
    Episodenanzahl: 25/25
    Format: MKV
    Auflösung: 720p (16:9), 1080p (16:9)
    Videocodec: x264 (AVC)
    Audiocodec: AC-3
    Releasegruppe: Li0N
    Hoster: Share-Online, Uploaded

    Note: Hierbei handelt es sich um das qualitativ hochwertigste Release im WWW

    MediaInfo
    720p
    Code:
    
    Format                                   : Matroska
    Format version                           : Version 2
    File size                                : 718 MiB
    Duration                                 : 24mn 11s
    Overall bit rate                         : 4 154 Kbps
    Encoded date                             : UTC 2014-10-15 10:29:43
    Writing application                      : mkvmerge v5.6.0 ('Kenya Kane') built on May 27 2012 16:44:04
    Writing library                          : libebml v1.2.3 + libmatroska v1.3.0
    Attachements                             : ahronbd.ttf / FLAMENN.TTF / FLORA.TTF / FRML436N.TTF / Gabrielle.ttf / HUMANA_SANS_MD_ITC_TT_MEDIUM.TTF / ITCKabelStd-Medium_0.otf / LEVIBRUSH.TTF / LLCHARLO.TTF / OptimaLTStd.ttf / OptimaLTStd-Bold.ttf / OptimaLTStd-BoldItalic.ttf / OptimaLTStd-BoldM.ttf / OptimaLTStdM.ttf / PALETTEN.TTF / Prototype.ttf / Quirkus B.ttf / Quirkus BI.ttf / Quirkus I.ttf / Quirkus.ttf / Sadness.ttf / segoepr.ttf / segoeprb.ttf / simpbdo.ttf / simpo.ttf / STREET__.ttf / 12Candida--Roman05042.ttf / ahronbd.ttf / APANRG.TTF / AquaKanaRegular.otf / CerigoStd-Medium.otf
    
    Video
    ID                                       : 1
    Format                                   : AVC
    Format/Info                              : Advanced Video Codec
    Format profile                           : [email protected]
    Format settings, CABAC                   : Yes
    Format settings, ReFrames                : 8 frames
    Muxing mode                              : Header stripping
    Codec ID                                 : V_MPEG4/ISO/AVC
    Duration                                 : 24mn 11s
    Bit rate                                 : 2 087 Kbps
    Width                                    : 1 280 pixels
    Height                                   : 720 pixels
    Display aspect ratio                     : 16:9
    Frame rate mode                          : Constant
    Frame rate                               : 23.976 fps
    Color space                              : YUV
    Chroma subsampling                       : 4:2:0
    Bit depth                                : 8 bits
    Scan type                                : Progressive
    Bits/(Pixel*Frame)                       : 0.094
    Stream size                              : 361 MiB (50%)
    Writing library                          : x264 core 138 r2358 9e941d1
    Encoding settings                        : cabac=1 / ref=8 / deblock=1:1:1 / analyse=0x3:0x133 / me=umh / subme=10 / psy=1 / psy_rd=0.40:0.00 / mixed_ref=1 / me_range=24 / chroma_me=1 / trellis=2 / 8x8dct=1 / cqm=0 / deadzone=21,11 / fast_pskip=1 / chroma_qp_offset=-2 / threads=9 / lookahead_threads=1 / sliced_threads=0 / nr=0 / decimate=1 / interlaced=0 / bluray_compat=0 / constrained_intra=0 / bframes=9 / b_pyramid=2 / b_adapt=2 / b_bias=0 / direct=3 / weightb=1 / open_gop=0 / weightp=2 / keyint=240 / keyint_min=23 / scenecut=40 / intra_refresh=0 / rc_lookahead=60 / rc=crf / mbtree=1 / crf=16.0 / qcomp=0.60 / qpmin=0 / qpmax=69 / qpstep=4 / vbv_maxrate=62500 / vbv_bufsize=78125 / crf_max=0.0 / nal_hrd=none / ip_ratio=1.40 / aq=1:0.60
    Language                                 : English
    Default                                  : Yes
    Forced                                   : No
    
    Audio #1
    ID                                       : 2
    Format                                   : AC-3
    Format/Info                              : Audio Coding 3
    Mode extension                           : CM (complete main)
    Format settings, Endianness              : Big
    Muxing mode                              : Header stripping
    Codec ID                                 : A_AC3
    Duration                                 : 24mn 11s
    Bit rate mode                            : Constant
    Bit rate                                 : 448 Kbps
    Channel(s)                               : 2 channels
    Channel positions                        : Front: L R
    Sampling rate                            : 48.0 KHz
    Compression mode                         : Lossy
    Delay relative to video                  : 2s 100ms
    Stream size                              : 77.5 MiB (11%)
    Title                                    : Deutsch AC3 2.0 [BD]
    Language                                 : German
    Default                                  : Yes
    Forced                                   : No
    
    Audio #2
    ID                                       : 3
    Format                                   : AC-3
    Format/Info                              : Audio Coding 3
    Mode extension                           : CM (complete main)
    Format settings, Endianness              : Big
    Muxing mode                              : Header stripping
    Codec ID                                 : A_AC3
    Duration                                 : 24mn 11s
    Bit rate mode                            : Constant
    Bit rate                                 : 448 Kbps
    Channel(s)                               : 2 channels
    Channel positions                        : Front: L R
    Sampling rate                            : 48.0 KHz
    Compression mode                         : Lossy
    Delay relative to video                  : 2s 100ms
    Stream size                              : 77.5 MiB (11%)
    Title                                    : Englisch AC3 2.0 [BD]
    Language                                 : English
    Default                                  : No
    Forced                                   : No
    
    Audio #3
    ID                                       : 4
    Format                                   : AC-3
    Format/Info                              : Audio Coding 3
    Mode extension                           : CM (complete main)
    Format settings, Endianness              : Big
    Muxing mode                              : Header stripping
    Codec ID                                 : A_AC3
    Duration                                 : 24mn 11s
    Bit rate mode                            : Constant
    Bit rate                                 : 448 Kbps
    Channel(s)                               : 2 channels
    Channel positions                        : Front: L R
    Sampling rate                            : 48.0 KHz
    Compression mode                         : Lossy
    Delay relative to video                  : 2s 100ms
    Stream size                              : 77.5 MiB (11%)
    Title                                    : Japanisch AC3 2.0 [BD]
    Language                                 : Japanese
    Default                                  : No
    Forced                                   : No
    
    Audio #4
    ID                                       : 5
    Format                                   : AC-3
    Format/Info                              : Audio Coding 3
    Mode extension                           : CM (complete main)
    Format settings, Endianness              : Big
    Muxing mode                              : Header stripping
    Codec ID                                 : A_AC3
    Duration                                 : 24mn 11s
    Bit rate mode                            : Constant
    Bit rate                                 : 640 Kbps
    Channel(s)                               : 6 channels
    Channel positions                        : Front: L C R, Side: L R, LFE
    Sampling rate                            : 48.0 KHz
    Compression mode                         : Lossy
    Stream size                              : 111 MiB (15%)
    Title                                    : Japanisch AC3 5.1 [BD][NEU]
    Language                                 : Japanese
    Default                                  : No
    Forced                                   : No
    
    Text #1
    ID                                       : 6
    Format                                   : ASS
    Codec ID                                 : S_TEXT/ASS
    Codec ID/Info                            : Advanced Sub Station Alpha
    Compression mode                         : Lossless
    Title                                    : Deutsch Forced [ASS][Li0N]
    Language                                 : German
    Default                                  : Yes
    Forced                                   : No
    
    Text #2
    ID                                       : 7
    Format                                   : ASS
    Codec ID                                 : S_TEXT/ASS
    Codec ID/Info                            : Advanced Sub Station Alpha
    Compression mode                         : Lossless
    Title                                    : Deutsch Full [ASS][Li0N]
    Language                                 : German
    Default                                  : No
    Forced                                   : No
    
    Text #3
    ID                                       : 8
    Format                                   : ASS
    Codec ID                                 : S_TEXT/ASS
    Codec ID/Info                            : Advanced Sub Station Alpha
    Compression mode                         : Lossless
    Title                                    : Englisch Forced [ASS][gg]
    Language                                 : English
    Default                                  : No
    Forced                                   : No
    
    Text #4
    ID                                       : 9
    Format                                   : ASS
    Codec ID                                 : S_TEXT/ASS
    Codec ID/Info                            : Advanced Sub Station Alpha
    Compression mode                         : Lossless
    Title                                    : Englisch Full [ASS][gg]
    Language                                 : English
    Default                                  : No
    Forced                                   : No
    
    Text #5
    ID                                       : 10
    Format                                   : ASS
    Codec ID                                 : S_TEXT/ASS
    Codec ID/Info                            : Advanced Sub Station Alpha
    Compression mode                         : Lossless
    Title                                    : Englisch Forced [ASS][OZC]
    Language                                 : English
    Default                                  : No
    Forced                                   : No
    
    Text #6
    ID                                       : 11
    Format                                   : ASS
    Codec ID                                 : S_TEXT/ASS
    Codec ID/Info                            : Advanced Sub Station Alpha
    Compression mode                         : Lossless
    Title                                    : Englisch Full [ASS][OZC]
    Language                                 : English
    Default                                  : No
    Forced                                   : No
    
    Text #7
    ID                                       : 12
    Format                                   : UTF-8
    Codec ID                                 : S_TEXT/UTF8
    Codec ID/Info                            : UTF-8 Plain Text
    Title                                    : Deutsch Forced [SRT]
    Language                                 : German
    Default                                  : No
    Forced                                   : No
    
    Text #8
    ID                                       : 13
    Format                                   : UTF-8
    Codec ID                                 : S_TEXT/UTF8
    Codec ID/Info                            : UTF-8 Plain Text
    Title                                    : Deutsch Full [SRT]
    Language                                 : German
    Default                                  : No
    Forced                                   : No
    
    Text #9
    ID                                       : 14
    Format                                   : VobSub
    Muxing mode                              : zlib
    Codec ID                                 : S_VOBSUB
    Codec ID/Info                            : Picture based subtitle format used on DVDs
    Title                                    : Deutsch Forced [VOB][HighRes]
    Language                                 : German
    Default                                  : No
    Forced                                   : No
    
    Text #10
    ID                                       : 15
    Format                                   : VobSub
    Muxing mode                              : zlib
    Codec ID                                 : S_VOBSUB
    Codec ID/Info                            : Picture based subtitle format used on DVDs
    Title                                    : Deutsch Full [VOB][HighRes]
    Language                                 : German
    Default                                  : No
    Forced                                   : No
    
    Text #11
    ID                                       : 16
    Format                                   : VobSub
    Muxing mode                              : zlib
    Codec ID                                 : S_VOBSUB
    Codec ID/Info                            : Picture based subtitle format used on DVDs
    Title                                    : Deutsch Forced [VOB][DVD]
    Language                                 : German
    Default                                  : No
    Forced                                   : No
    
    Text #12
    ID                                       : 17
    Format                                   : VobSub
    Muxing mode                              : zlib
    Codec ID                                 : S_VOBSUB
    Codec ID/Info                            : Picture based subtitle format used on DVDs
    Title                                    : Deutsch Full [VOB][DVD]
    Language                                 : German
    Default                                  : No
    Forced                                   : No
    
    Text #13
    ID                                       : 18
    Format                                   : PGS
    Muxing mode                              : zlib
    Codec ID                                 : S_HDMV/PGS
    Codec ID/Info                            : Picture based subtitle format used on BDs/HD-DVDs
    Title                                    : Deutsch Forced [PGS]
    Language                                 : German
    Default                                  : No
    Forced                                   : No
    
    Text #14
    ID                                       : 19
    Format                                   : PGS
    Muxing mode                              : zlib
    Codec ID                                 : S_HDMV/PGS
    Codec ID/Info                            : Picture based subtitle format used on BDs/HD-DVDs
    Title                                    : Deutsch Full [PGS]
    Language                                 : German
    Default                                  : No
    Forced                                   : No
    
    Text #15
    ID                                       : 20
    Format                                   : PGS
    Muxing mode                              : zlib
    Codec ID                                 : S_HDMV/PGS
    Codec ID/Info                            : Picture based subtitle format used on BDs/HD-DVDs
    Title                                    : Englisch Forced [PGS]
    Language                                 : English
    Default                                  : No
    Forced                                   : No
    
    Text #16
    ID                                       : 21
    Format                                   : PGS
    Muxing mode                              : zlib
    Codec ID                                 : S_HDMV/PGS
    Codec ID/Info                            : Picture based subtitle format used on BDs/HD-DVDs
    Title                                    : Englisch Full [PGS]
    Language                                 : English
    Default                                  : No
    Forced                                   : No
    
    


    1080p
    Code:
    
    Format                                   : Matroska
    Format version                           : Version 2
    File size                                : 1.24 GiB
    Duration                                 : 24mn 11s
    Overall bit rate                         : 7 368 Kbps
    Encoded date                             : UTC 2014-10-03 18:11:32
    Writing application                      : mkvmerge v5.6.0 ('Kenya Kane') built on May 27 2012 16:44:04
    Writing library                          : libebml v1.2.3 + libmatroska v1.3.0
    Attachements                             : ahronbd.ttf / FLAMENN.TTF / FLORA.TTF / FRML436N.TTF / Gabrielle.ttf / HUMANA_SANS_MD_ITC_TT_MEDIUM.TTF / ITCKabelStd-Medium_0.otf / LEVIBRUSH.TTF / LLCHARLO.TTF / OptimaLTStd.ttf / OptimaLTStd-Bold.ttf / OptimaLTStd-BoldItalic.ttf / OptimaLTStd-BoldM.ttf / OptimaLTStdM.ttf / PALETTEN.TTF / Prototype.ttf / Quirkus B.ttf / Quirkus BI.ttf / Quirkus I.ttf / Quirkus.ttf / Sadness.ttf / segoepr.ttf / segoeprb.ttf / simpbdo.ttf / simpo.ttf / STREET__.ttf / 12Candida--Roman05042.ttf / ahronbd.ttf / APANRG.TTF / AquaKanaRegular.otf / CerigoStd-Medium.otf
    
    Video
    ID                                       : 1
    Format                                   : AVC
    Format/Info                              : Advanced Video Codec
    Format profile                           : [email protected]
    Format settings, CABAC                   : Yes
    Format settings, ReFrames                : 4 frames
    Muxing mode                              : Header stripping
    Codec ID                                 : V_MPEG4/ISO/AVC
    Duration                                 : 24mn 11s
    Bit rate                                 : 5 238 Kbps
    Width                                    : 1 920 pixels
    Height                                   : 1 080 pixels
    Display aspect ratio                     : 16:9
    Frame rate mode                          : Constant
    Frame rate                               : 23.976 fps
    Color space                              : YUV
    Chroma subsampling                       : 4:2:0
    Bit depth                                : 8 bits
    Scan type                                : Progressive
    Bits/(Pixel*Frame)                       : 0.105
    Stream size                              : 906 MiB (71%)
    Writing library                          : x264 core 138 r2358 9e941d1
    Encoding settings                        : cabac=1 / ref=4 / deblock=1:-1:-1 / analyse=0x3:0x133 / me=umh / subme=10 / psy=1 / psy_rd=1.00:0.15 / mixed_ref=1 / me_range=24 / chroma_me=1 / trellis=2 / 8x8dct=1 / cqm=0 / deadzone=21,11 / fast_pskip=1 / chroma_qp_offset=-3 / threads=9 / lookahead_threads=1 / sliced_threads=0 / nr=0 / decimate=1 / interlaced=0 / bluray_compat=0 / constrained_intra=0 / bframes=9 / b_pyramid=2 / b_adapt=2 / b_bias=0 / direct=3 / weightb=1 / open_gop=0 / weightp=2 / keyint=240 / keyint_min=23 / scenecut=40 / intra_refresh=0 / rc_lookahead=60 / rc=crf / mbtree=1 / crf=16.0 / qcomp=0.60 / qpmin=0 / qpmax=69 / qpstep=4 / vbv_maxrate=62500 / vbv_bufsize=78125 / crf_max=0.0 / nal_hrd=none / ip_ratio=1.40 / aq=1:1.00
    Language                                 : English
    Default                                  : Yes
    Forced                                   : No
    
    Audio #1
    ID                                       : 2
    Format                                   : AC-3
    Format/Info                              : Audio Coding 3
    Mode extension                           : CM (complete main)
    Format settings, Endianness              : Big
    Muxing mode                              : Header stripping
    Codec ID                                 : A_AC3
    Duration                                 : 24mn 11s
    Bit rate mode                            : Constant
    Bit rate                                 : 448 Kbps
    Channel(s)                               : 2 channels
    Channel positions                        : Front: L R
    Sampling rate                            : 48.0 KHz
    Compression mode                         : Lossy
    Delay relative to video                  : 2s 100ms
    Stream size                              : 77.5 MiB (6%)
    Title                                    : Deutsch AC3 2.0 [BD]
    Language                                 : German
    Default                                  : Yes
    Forced                                   : No
    
    Audio #2
    ID                                       : 3
    Format                                   : AC-3
    Format/Info                              : Audio Coding 3
    Mode extension                           : CM (complete main)
    Format settings, Endianness              : Big
    Muxing mode                              : Header stripping
    Codec ID                                 : A_AC3
    Duration                                 : 24mn 11s
    Bit rate mode                            : Constant
    Bit rate                                 : 448 Kbps
    Channel(s)                               : 2 channels
    Channel positions                        : Front: L R
    Sampling rate                            : 48.0 KHz
    Compression mode                         : Lossy
    Delay relative to video                  : 2s 100ms
    Stream size                              : 77.5 MiB (6%)
    Title                                    : Englisch AC3 2.0 [BD]
    Language                                 : English
    Default                                  : No
    Forced                                   : No
    
    Audio #3
    ID                                       : 4
    Format                                   : AC-3
    Format/Info                              : Audio Coding 3
    Mode extension                           : CM (complete main)
    Format settings, Endianness              : Big
    Muxing mode                              : Header stripping
    Codec ID                                 : A_AC3
    Duration                                 : 24mn 11s
    Bit rate mode                            : Constant
    Bit rate                                 : 448 Kbps
    Channel(s)                               : 2 channels
    Channel positions                        : Front: L R
    Sampling rate                            : 48.0 KHz
    Compression mode                         : Lossy
    Delay relative to video                  : 2s 100ms
    Stream size                              : 77.5 MiB (6%)
    Title                                    : Japanisch AC3 2.0 [BD]
    Language                                 : Japanese
    Default                                  : No
    Forced                                   : No
    
    Audio #4
    ID                                       : 5
    Format                                   : AC-3
    Format/Info                              : Audio Coding 3
    Mode extension                           : CM (complete main)
    Format settings, Endianness              : Big
    Muxing mode                              : Header stripping
    Codec ID                                 : A_AC3
    Duration                                 : 24mn 11s
    Bit rate mode                            : Constant
    Bit rate                                 : 640 Kbps
    Channel(s)                               : 6 channels
    Channel positions                        : Front: L C R, Side: L R, LFE
    Sampling rate                            : 48.0 KHz
    Compression mode                         : Lossy
    Stream size                              : 111 MiB (9%)
    Title                                    : Japanisch AC3 5.1 [BD][NEU]
    Language                                 : Japanese
    Default                                  : No
    Forced                                   : No
    
    Text #1
    ID                                       : 6
    Format                                   : ASS
    Codec ID                                 : S_TEXT/ASS
    Codec ID/Info                            : Advanced Sub Station Alpha
    Compression mode                         : Lossless
    Title                                    : Deutsch Forced [ASS][Li0N]
    Language                                 : German
    Default                                  : Yes
    Forced                                   : No
    
    Text #2
    ID                                       : 7
    Format                                   : ASS
    Codec ID                                 : S_TEXT/ASS
    Codec ID/Info                            : Advanced Sub Station Alpha
    Compression mode                         : Lossless
    Title                                    : Deutsch Full [ASS][Li0N]
    Language                                 : German
    Default                                  : No
    Forced                                   : No
    
    Text #3
    ID                                       : 8
    Format                                   : ASS
    Codec ID                                 : S_TEXT/ASS
    Codec ID/Info                            : Advanced Sub Station Alpha
    Compression mode                         : Lossless
    Title                                    : Englisch Forced [ASS][gg]
    Language                                 : English
    Default                                  : No
    Forced                                   : No
    
    Text #4
    ID                                       : 9
    Format                                   : ASS
    Codec ID                                 : S_TEXT/ASS
    Codec ID/Info                            : Advanced Sub Station Alpha
    Compression mode                         : Lossless
    Title                                    : Englisch Full [ASS][gg]
    Language                                 : English
    Default                                  : No
    Forced                                   : No
    
    Text #5
    ID                                       : 10
    Format                                   : ASS
    Codec ID                                 : S_TEXT/ASS
    Codec ID/Info                            : Advanced Sub Station Alpha
    Compression mode                         : Lossless
    Title                                    : Englisch Forced [ASS][OZC]
    Language                                 : English
    Default                                  : No
    Forced                                   : No
    
    Text #6
    ID                                       : 11
    Format                                   : ASS
    Codec ID                                 : S_TEXT/ASS
    Codec ID/Info                            : Advanced Sub Station Alpha
    Compression mode                         : Lossless
    Title                                    : Englisch Full [ASS][OZC]
    Language                                 : English
    Default                                  : No
    Forced                                   : No
    
    Text #7
    ID                                       : 12
    Format                                   : UTF-8
    Codec ID                                 : S_TEXT/UTF8
    Codec ID/Info                            : UTF-8 Plain Text
    Title                                    : Deutsch Forced [SRT]
    Language                                 : German
    Default                                  : No
    Forced                                   : No
    
    Text #8
    ID                                       : 13
    Format                                   : UTF-8
    Codec ID                                 : S_TEXT/UTF8
    Codec ID/Info                            : UTF-8 Plain Text
    Title                                    : Deutsch Full [SRT]
    Language                                 : German
    Default                                  : No
    Forced                                   : No
    
    Text #9
    ID                                       : 14
    Format                                   : VobSub
    Muxing mode                              : zlib
    Codec ID                                 : S_VOBSUB
    Codec ID/Info                            : Picture based subtitle format used on DVDs
    Title                                    : Deutsch Forced [VOB][HighRes]
    Language                                 : German
    Default                                  : No
    Forced                                   : No
    
    Text #10
    ID                                       : 15
    Format                                   : VobSub
    Muxing mode                              : zlib
    Codec ID                                 : S_VOBSUB
    Codec ID/Info                            : Picture based subtitle format used on DVDs
    Title                                    : Deutsch Full [VOB][HighRes]
    Language                                 : German
    Default                                  : No
    Forced                                   : No
    
    Text #11
    ID                                       : 16
    Format                                   : VobSub
    Muxing mode                              : zlib
    Codec ID                                 : S_VOBSUB
    Codec ID/Info                            : Picture based subtitle format used on DVDs
    Title                                    : Deutsch Forced [VOB][DVD]
    Language                                 : German
    Default                                  : No
    Forced                                   : No
    
    Text #12
    ID                                       : 17
    Format                                   : VobSub
    Muxing mode                              : zlib
    Codec ID                                 : S_VOBSUB
    Codec ID/Info                            : Picture based subtitle format used on DVDs
    Title                                    : Deutsch Full [VOB][DVD]
    Language                                 : German
    Default                                  : No
    Forced                                   : No
    
    Text #13
    ID                                       : 18
    Format                                   : PGS
    Muxing mode                              : zlib
    Codec ID                                 : S_HDMV/PGS
    Codec ID/Info                            : Picture based subtitle format used on BDs/HD-DVDs
    Title                                    : Deutsch Forced [PGS]
    Language                                 : German
    Default                                  : No
    Forced                                   : No
    
    Text #14
    ID                                       : 19
    Format                                   : PGS
    Muxing mode                              : zlib
    Codec ID                                 : S_HDMV/PGS
    Codec ID/Info                            : Picture based subtitle format used on BDs/HD-DVDs
    Title                                    : Deutsch Full [PGS]
    Language                                 : German
    Default                                  : No
    Forced                                   : No
    
    Text #15
    ID                                       : 20
    Format                                   : PGS
    Muxing mode                              : zlib
    Codec ID                                 : S_HDMV/PGS
    Codec ID/Info                            : Picture based subtitle format used on BDs/HD-DVDs
    Title                                    : Englisch Forced [PGS]
    Language                                 : English
    Default                                  : No
    Forced                                   : No
    
    Text #16
    ID                                       : 21
    Format                                   : PGS
    Muxing mode                              : zlib
    Codec ID                                 : S_HDMV/PGS
    Codec ID/Info                            : Picture based subtitle format used on BDs/HD-DVDs
    Title                                    : Englisch Full [PGS]
    Language                                 : English
    Default                                  : No
    Forced                                   : No
    
    






    Geschützter Bereich - Bedanke dich beim Poster, um den Bereich sehen zu können
    Hier erfährst Du wie Du Dich bedanken kannst oder werde jetzt Premium Mitglied ab einer Spende von 5€ und erhalte sofortigen Zugriff auf den Downloadbereich!

    [Links sind nur für registrierte und aktivierte Nutzer sichtbar. Klicke hier um dich zu registrieren.]
    !!!Alle Anliegen bezüglich Uploads werden nur mit direktem Threadlink zum Angebot bearbeitet!!!

    Re-Uploadanfragen nur per PN - Ihr könnt mir auch Listen schicken

    Re-Uploads erfolgen meist innerhalb 24h, kann aber auch bis zu 7 Tage dauern

    [Links sind nur für registrierte und aktivierte Nutzer sichtbar. Klicke hier um dich zu registrieren.] | [Links sind nur für registrierte und aktivierte Nutzer sichtbar. Klicke hier um dich zu registrieren.] | >[Links sind nur für registrierte und aktivierte Nutzer sichtbar. Klicke hier um dich zu registrieren.]<
    [Links sind nur für registrierte und aktivierte Nutzer sichtbar. Klicke hier um dich zu registrieren.]

  2. 17 Benutzer sagen Danke:

    Asturaetus (2. October 2016),BlackPhoenix (2. October 2016),crispy (24. October 2016),deofration (3. October 2016),Djukdjuk (22. November 2016),freakwatcher (3. October 2016),Hououin Kyouma (2. October 2016),janik2009 (2. October 2016),Kalchi (2. October 2016),Kirdock (2. October 2016),midnighter (6. October 2016),Nu-chan (7. November 2016),Obiwan Shinobi (29. October 2016),Rawrlex (27. November 2016),Timberwolf (21. November 2016),TorbenSonnenStern (18. October 2016),T§sseract (2. October 2016)

Lesezeichen

Berechtigungen

  • Neue Themen erstellen: Nein
  • Themen beantworten: Nein
  • Anhänge hochladen: Nein
  • Beiträge bearbeiten: Nein
  •  

1 2 3 4 5 6 7 8 9 10 11 12 13 14 15 16 17 18 19 20 21 22 23 24 25 26 27 28 29 30 31 32 33 34 35 36 37 38 39 40 41 42 43 44 45 46 47 48 49 50 51 52 53 54 55 56 57 58 59 60 61 62 63 64 65 66 67 68 69 70 71 72 73 74 75 76 77 78 79 80 81 82 83 84 85 86 87 88 89 90 91 92 93 94 95 96 97 98 99 100 101 102 103 104 105 106 107 108 109 110 111 112 113 114 115 116 117 118 119 120 121 122 123 124 125 126 127 128 129 130 131 132 133 134 135 136 137 138 139 140 141 142 143 144 145 146 147 148 149 150 151 152 153 154 155 156 157 158