Ergebnis 1 bis 2 von 2

Thema: Code Geass: Hangyaku no Lelouch S01+S02 [Ger-Jap-Fra-Dub][Ger-Fra-NL-Sub][AC3/PCM][720p/1080p][BluRay] - AST4u

Dieser Thread wurde noch nicht bewertet. Bewerte ihn doch, wenn er dir gefällt!
  1. #1
    United we Stand Avatar von 00Ryuji00
    Registriert seit
    Oct 2012
    Beiträge
    3.902
    Punkte
    100.019
    Errungenschaften:
    TomodachisGang LeaderHikikomoriTagger Amateur50000 Erfahrungspunkte

    Code Geass: Hangyaku no Lelouch S01+S02 [Ger-Jap-Fra-Dub][Ger-Fra-NL-Sub][AC3/PCM][720p/1080p][BluRay] - AST4u


    Code Geass: Hangyaku no Lelouch

    コードギアス 反逆のルルーシュ
    Code Geass: Lelouch of the Rebellion
    Code Geass 1st Season
    +
    Code Geass: Hangyaku no Lelouch R2 コードギアス 反逆のルルーシュ 続編
    Code Geass: Lelouch of the Rebellion R2
    Code Geass 2nd Season, Code Geass: Lelouch of the Rebellion II



    Kurzbeschreibung:
    Zitat Zitat von AniSearch.com
    Am 10. August 2010 fiel das Königreich Britannia in Japan ein. Ein furchtbarer Krieg begann, den Japan auf Grund der von Britannia entwickelten Mechas, den Knightmare Frames, verlor. Japan wurde Teil des Reiches Britannias und verlor seine Freiheit und Rechte und bekam einen neuen Namen, Area 11. Weil Lelouch, der Sohn des Königs Charles vi Britannia, mit ansehen musste, wie seine Mutter Marianne vi Britannia vor seinen Augen von Terroristen getötet wurde und sein Vater nichts dagegen unternahm, schwor er aus Rache das Königreich Britannia zu zerstören.

    7 Jahre nach dem Krieg lebt Lelouch Lamperouge in Area 11 und geht dort zur Schule. Eines Tages sieht er, wie ein von Knightmare Frames verfolgter Laster in eine Mauer kracht. Durch unglückliche Zwischenfälle fällt er in den Laster und als er sich in einem unterirdischen Gewölbe wiederfindet, entsteigt plötzlich ein Mädchen aus einem auf dem Laster befindlichen Behälter. Lelouch flieht mit dem Mädchen durch die Kanalisation, wird aber am Ausgang von den Truppen Britannias gefasst. Als man ihn wegen Terrorismus erschießen will, bietet das Mädchen ihm an, einen Vertrag mit ihr einzugehen, der ihm die Macht verleiht, lebend aus dieser Situation zu entkommen. Ohne zu zögern willigt Lelouch ein. Nun hat Lelouch alles, was er braucht, um Britannia zu zerstören und somit beginnt er seinen Feldzug zur Vernichtung des Königreiches Britannia.
    Spieldauer: 24min
    Genre: Actiondrama
    Nebengenres: Action, Drama, Mecha, Männlich, Psychodrama, Sci-Fi
    Jahr: 2006
    Sprache: Deutsch, Japanisch, Französisch
    Untertitel: Deutsch, Französisch, Niederländisch
    Größe pro Folge: ~ 700MB/1,0GB/1,6GB
    Episodenanzahl: 25/25 + 25/25
    Format: MKV
    Auflösung: 720p (16:9), 1080p (16:9)
    Videocodec: x264 (AVC)
    Audiocodec: AC-3, PCM
    Releasegruppe: AST4u
    Hoster: Uploaded, Share-Online

    MediaInfo
    720p AC-3
    Code:
    
    Format                                   : Matroska
    Format version                           : Version 4 / Version 2
    File size                                : 680 MiB
    Duration                                 : 24mn 8s
    Overall bit rate                         : 3 937 Kbps
    Encoded date                             : UTC 2015-08-22 16:32:39
    Writing application                      : mkvmerge v8.2.0 ('World of Adventure') 64bit
    Writing library                          : libebml v1.3.1 + libmatroska v1.4.2
    DURATION                                 : 00:24:04.735000000
    NUMBER_OF_FRAMES                         : 986
    NUMBER_OF_BYTES                          : 2735258
    _STATISTICS_WRITING_APP                  : mkvmerge v8.2.0 ('World of Adventure') 64bit
    _STATISTICS_WRITING_DATE_UTC             : 2015-08-22 16:32:39
    _STATISTICS_TAGS                         : BPS DURATION NUMBER_OF_FRAMES NUMBER_OF_BYTES
    
    Video
    ID                                       : 1
    Format                                   : AVC
    Format/Info                              : Advanced Video Codec
    Format profile                           : [email protected]
    Format settings, CABAC                   : Yes
    Format settings, ReFrames                : 6 frames
    Codec ID                                 : V_MPEG4/ISO/AVC
    Duration                                 : 24mn 8s
    Bit rate                                 : 2 195 Kbps
    Width                                    : 1 280 pixels
    Height                                   : 720 pixels
    Display aspect ratio                     : 16:9
    Frame rate mode                          : Constant
    Frame rate                               : 23.976 fps
    Color space                              : YUV
    Chroma subsampling                       : 4:2:0
    Bit depth                                : 8 bits
    Scan type                                : Progressive
    Bits/(Pixel*Frame)                       : 0.099
    Stream size                              : 379 MiB (56%)
    Writing library                          : x264 core 146 r2538 121396c
    Encoding settings                        : cabac=1 / ref=6 / deblock=1:1:1 / analyse=0x3:0x113 / me=hex / subme=7 / psy=1 / psy_rd=0.40:0.00 / mixed_ref=1 / me_range=16 / chroma_me=1 / trellis=1 / 8x8dct=1 / cqm=0 / deadzone=21,11 / fast_pskip=1 / chroma_qp_offset=-2 / threads=6 / lookahead_threads=1 / sliced_threads=0 / nr=0 / decimate=1 / interlaced=0 / bluray_compat=0 / constrained_intra=0 / bframes=5 / b_pyramid=2 / b_adapt=1 / b_bias=0 / direct=1 / weightb=1 / open_gop=0 / weightp=2 / keyint=240 / keyint_min=23 / scenecut=40 / intra_refresh=0 / rc_lookahead=40 / rc=crf / mbtree=1 / crf=16.0 / qcomp=0.60 / qpmin=0 / qpmax=69 / qpstep=4 / vbv_maxrate=62500 / vbv_bufsize=78125 / crf_max=0.0 / nal_hrd=none / filler=0 / ip_ratio=1.40 / aq=1:0.60
    Default                                  : Yes
    Forced                                   : No
    
    Audio #1
    ID                                       : 2
    Format                                   : AC-3
    Format/Info                              : Audio Coding 3
    Mode extension                           : CM (complete main)
    Format settings, Endianness              : Big
    Codec ID                                 : A_AC3
    Duration                                 : 24mn 8s
    Bit rate mode                            : Constant
    Bit rate                                 : 448 Kbps
    Channel count                            : 2 channels
    Channel positions                        : Front: L R
    Sampling rate                            : 48.0 KHz
    Bit depth                                : 16 bits
    Compression mode                         : Lossy
    Stream size                              : 77.4 MiB (11%)
    Language                                 : Japanese
    Default                                  : Yes
    Forced                                   : No
    
    Audio #2
    ID                                       : 3
    Format                                   : AC-3
    Format/Info                              : Audio Coding 3
    Mode extension                           : CM (complete main)
    Format settings, Endianness              : Big
    Codec ID                                 : A_AC3
    Duration                                 : 24mn 8s
    Bit rate mode                            : Constant
    Bit rate                                 : 448 Kbps
    Channel count                            : 2 channels
    Channel positions                        : Front: L R
    Sampling rate                            : 48.0 KHz
    Bit depth                                : 16 bits
    Compression mode                         : Lossy
    Stream size                              : 77.4 MiB (11%)
    Language                                 : French
    Default                                  : No
    Forced                                   : No
    
    Audio #3
    ID                                       : 4
    Format                                   : AC-3
    Format/Info                              : Audio Coding 3
    Mode extension                           : CM (complete main)
    Format settings, Endianness              : Big
    Codec ID                                 : A_AC3
    Duration                                 : 24mn 8s
    Bit rate mode                            : Constant
    Bit rate                                 : 448 Kbps
    Channel count                            : 2 channels
    Channel positions                        : Front: L R
    Sampling rate                            : 48.0 KHz
    Bit depth                                : 16 bits
    Compression mode                         : Lossy
    Stream size                              : 77.4 MiB (11%)
    Language                                 : German
    Default                                  : No
    Forced                                   : No
    
    Audio #4
    ID                                       : 5
    Format                                   : AC-3
    Format/Info                              : Audio Coding 3
    Format profile                           : Dolby Digital
    Mode extension                           : CM (complete main)
    Format settings, Endianness              : Big
    Codec ID                                 : A_AC3
    Duration                                 : 24mn 8s
    Bit rate mode                            : Constant
    Bit rate                                 : 320 Kbps
    Channel count                            : 2 channels
    Channel positions                        : Front: L R
    Sampling rate                            : 48.0 KHz
    Bit depth                                : 16 bits
    Compression mode                         : Lossy
    Stream size                              : 55.3 MiB (8%)
    Language                                 : Japanese
    Default                                  : No
    Forced                                   : No
    
    Text #1
    ID                                       : 6
    Format                                   : PGS
    Muxing mode                              : zlib
    Codec ID                                 : S_HDMV/PGS
    Codec ID/Info                            : The same subtitle format used on BDs/HD-DVDs
    Language                                 : French
    Default                                  : No
    Forced                                   : No
    
    Text #2
    ID                                       : 7
    Format                                   : PGS
    Muxing mode                              : zlib
    Codec ID                                 : S_HDMV/PGS
    Codec ID/Info                            : The same subtitle format used on BDs/HD-DVDs
    Language                                 : French
    Default                                  : No
    Forced                                   : No
    
    Text #3
    ID                                       : 8
    Format                                   : PGS
    Muxing mode                              : zlib
    Codec ID                                 : S_HDMV/PGS
    Codec ID/Info                            : The same subtitle format used on BDs/HD-DVDs
    Language                                 : German
    Default                                  : No
    Forced                                   : No
    
    Text #4
    ID                                       : 9
    Format                                   : PGS
    Muxing mode                              : zlib
    Codec ID                                 : S_HDMV/PGS
    Codec ID/Info                            : The same subtitle format used on BDs/HD-DVDs
    Language                                 : German
    Default                                  : No
    Forced                                   : No
    
    Text #5
    ID                                       : 10
    Format                                   : PGS
    Muxing mode                              : zlib
    Codec ID                                 : S_HDMV/PGS
    Codec ID/Info                            : The same subtitle format used on BDs/HD-DVDs
    Language                                 : Dutch
    Default                                  : No
    Forced                                   : No
    
    Text #6
    ID                                       : 11
    Format                                   : PGS
    Muxing mode                              : zlib
    Codec ID                                 : S_HDMV/PGS
    Codec ID/Info                            : The same subtitle format used on BDs/HD-DVDs
    Language                                 : French
    Default                                  : No
    Forced                                   : No
    
    Text #7
    ID                                       : 12
    Format                                   : PGS
    Muxing mode                              : zlib
    Codec ID                                 : S_HDMV/PGS
    Codec ID/Info                            : The same subtitle format used on BDs/HD-DVDs
    Language                                 : German
    Default                                  : No
    Forced                                   : No
    1080p AC-3
    Code:
    
    Format                                   : Matroska
    Format version                           : Version 4 / Version 2
    File size                                : 1.08 GiB
    Duration                                 : 24mn 8s
    Overall bit rate                         : 6 379 Kbps
    Encoded date                             : UTC 2015-08-22 17:21:00
    Writing application                      : mkvmerge v8.2.0 ('World of Adventure') 64bit
    Writing library                          : libebml v1.3.1 + libmatroska v1.4.2
    DURATION                                 : 00:24:04.735000000
    NUMBER_OF_FRAMES                         : 986
    NUMBER_OF_BYTES                          : 2735258
    _STATISTICS_WRITING_APP                  : mkvmerge v8.2.0 ('World of Adventure') 64bit
    _STATISTICS_WRITING_DATE_UTC             : 2015-08-22 17:21:00
    _STATISTICS_TAGS                         : BPS DURATION NUMBER_OF_FRAMES NUMBER_OF_BYTES
    
    Video
    ID                                       : 1
    Format                                   : AVC
    Format/Info                              : Advanced Video Codec
    Format profile                           : [email protected]
    Format settings, CABAC                   : Yes
    Format settings, ReFrames                : 4 frames
    Codec ID                                 : V_MPEG4/ISO/AVC
    Duration                                 : 24mn 8s
    Bit rate                                 : 4 589 Kbps
    Width                                    : 1 920 pixels
    Height                                   : 1 080 pixels
    Display aspect ratio                     : 16:9
    Frame rate mode                          : Constant
    Frame rate                               : 23.976 fps
    Color space                              : YUV
    Chroma subsampling                       : 4:2:0
    Bit depth                                : 8 bits
    Scan type                                : Progressive
    Bits/(Pixel*Frame)                       : 0.092
    Stream size                              : 792 MiB (72%)
    Writing library                          : x264 core 146 r2538 121396c
    Encoding settings                        : cabac=1 / ref=4 / deblock=1:1:1 / analyse=0x3:0x113 / me=hex / subme=7 / psy=1 / psy_rd=0.40:0.00 / mixed_ref=1 / me_range=16 / chroma_me=1 / trellis=1 / 8x8dct=1 / cqm=0 / deadzone=21,11 / fast_pskip=1 / chroma_qp_offset=-2 / threads=6 / lookahead_threads=1 / sliced_threads=0 / nr=0 / decimate=1 / interlaced=0 / bluray_compat=0 / constrained_intra=0 / bframes=5 / b_pyramid=2 / b_adapt=1 / b_bias=0 / direct=1 / weightb=1 / open_gop=0 / weightp=2 / keyint=240 / keyint_min=23 / scenecut=40 / intra_refresh=0 / rc_lookahead=40 / rc=crf / mbtree=1 / crf=16.0 / qcomp=0.60 / qpmin=0 / qpmax=69 / qpstep=4 / vbv_maxrate=62500 / vbv_bufsize=78125 / crf_max=0.0 / nal_hrd=none / filler=0 / ip_ratio=1.40 / aq=1:0.60
    Default                                  : Yes
    Forced                                   : No
    
    Audio #1
    ID                                       : 2
    Format                                   : AC-3
    Format/Info                              : Audio Coding 3
    Mode extension                           : CM (complete main)
    Format settings, Endianness              : Big
    Codec ID                                 : A_AC3
    Duration                                 : 24mn 8s
    Bit rate mode                            : Constant
    Bit rate                                 : 448 Kbps
    Channel count                            : 2 channels
    Channel positions                        : Front: L R
    Sampling rate                            : 48.0 KHz
    Bit depth                                : 16 bits
    Compression mode                         : Lossy
    Stream size                              : 77.4 MiB (7%)
    Language                                 : Japanese
    Default                                  : Yes
    Forced                                   : No
    
    Audio #2
    ID                                       : 3
    Format                                   : AC-3
    Format/Info                              : Audio Coding 3
    Mode extension                           : CM (complete main)
    Format settings, Endianness              : Big
    Codec ID                                 : A_AC3
    Duration                                 : 24mn 8s
    Bit rate mode                            : Constant
    Bit rate                                 : 448 Kbps
    Channel count                            : 2 channels
    Channel positions                        : Front: L R
    Sampling rate                            : 48.0 KHz
    Bit depth                                : 16 bits
    Compression mode                         : Lossy
    Stream size                              : 77.4 MiB (7%)
    Language                                 : French
    Default                                  : No
    Forced                                   : No
    
    Audio #3
    ID                                       : 4
    Format                                   : AC-3
    Format/Info                              : Audio Coding 3
    Mode extension                           : CM (complete main)
    Format settings, Endianness              : Big
    Codec ID                                 : A_AC3
    Duration                                 : 24mn 8s
    Bit rate mode                            : Constant
    Bit rate                                 : 448 Kbps
    Channel count                            : 2 channels
    Channel positions                        : Front: L R
    Sampling rate                            : 48.0 KHz
    Bit depth                                : 16 bits
    Compression mode                         : Lossy
    Stream size                              : 77.4 MiB (7%)
    Language                                 : German
    Default                                  : No
    Forced                                   : No
    
    Audio #4
    ID                                       : 5
    Format                                   : AC-3
    Format/Info                              : Audio Coding 3
    Format profile                           : Dolby Digital
    Mode extension                           : CM (complete main)
    Format settings, Endianness              : Big
    Codec ID                                 : A_AC3
    Duration                                 : 24mn 8s
    Bit rate mode                            : Constant
    Bit rate                                 : 320 Kbps
    Channel count                            : 2 channels
    Channel positions                        : Front: L R
    Sampling rate                            : 48.0 KHz
    Bit depth                                : 16 bits
    Compression mode                         : Lossy
    Stream size                              : 55.3 MiB (5%)
    Language                                 : Japanese
    Default                                  : No
    Forced                                   : No
    
    Text #1
    ID                                       : 6
    Format                                   : PGS
    Muxing mode                              : zlib
    Codec ID                                 : S_HDMV/PGS
    Codec ID/Info                            : The same subtitle format used on BDs/HD-DVDs
    Language                                 : French
    Default                                  : No
    Forced                                   : No
    
    Text #2
    ID                                       : 7
    Format                                   : PGS
    Muxing mode                              : zlib
    Codec ID                                 : S_HDMV/PGS
    Codec ID/Info                            : The same subtitle format used on BDs/HD-DVDs
    Language                                 : French
    Default                                  : No
    Forced                                   : No
    
    Text #3
    ID                                       : 8
    Format                                   : PGS
    Muxing mode                              : zlib
    Codec ID                                 : S_HDMV/PGS
    Codec ID/Info                            : The same subtitle format used on BDs/HD-DVDs
    Language                                 : German
    Default                                  : No
    Forced                                   : No
    
    Text #4
    ID                                       : 9
    Format                                   : PGS
    Muxing mode                              : zlib
    Codec ID                                 : S_HDMV/PGS
    Codec ID/Info                            : The same subtitle format used on BDs/HD-DVDs
    Language                                 : German
    Default                                  : No
    Forced                                   : No
    
    Text #5
    ID                                       : 10
    Format                                   : PGS
    Muxing mode                              : zlib
    Codec ID                                 : S_HDMV/PGS
    Codec ID/Info                            : The same subtitle format used on BDs/HD-DVDs
    Language                                 : Dutch
    Default                                  : No
    Forced                                   : No
    
    Text #6
    ID                                       : 11
    Format                                   : PGS
    Muxing mode                              : zlib
    Codec ID                                 : S_HDMV/PGS
    Codec ID/Info                            : The same subtitle format used on BDs/HD-DVDs
    Language                                 : French
    Default                                  : No
    Forced                                   : No
    
    Text #7
    ID                                       : 12
    Format                                   : PGS
    Muxing mode                              : zlib
    Codec ID                                 : S_HDMV/PGS
    Codec ID/Info                            : The same subtitle format used on BDs/HD-DVDs
    Language                                 : German
    Default                                  : No
    Forced                                   : No
    1080p PCM
    Code:
    
    Format                                   : Matroska
    Format version                           : Version 4 / Version 2
    File size                                : 1.63 GiB
    Duration                                 : 24mn 8s
    Overall bit rate                         : 9 648 Kbps
    Encoded date                             : UTC 2015-08-24 20:49:54
    Writing application                      : mkvmerge v8.2.0 ('World of Adventure') 64bit
    Writing library                          : libebml v1.3.1 + libmatroska v1.4.2
    DURATION                                 : 00:24:04.735000000
    NUMBER_OF_FRAMES                         : 986
    NUMBER_OF_BYTES                          : 2735258
    _STATISTICS_WRITING_APP                  : mkvmerge v8.2.0 ('World of Adventure') 64bit
    _STATISTICS_WRITING_DATE_UTC             : 2015-08-24 20:49:54
    _STATISTICS_TAGS                         : BPS DURATION NUMBER_OF_FRAMES NUMBER_OF_BYTES
    
    Video
    ID                                       : 1
    Format                                   : AVC
    Format/Info                              : Advanced Video Codec
    Format profile                           : [email protected]
    Format settings, CABAC                   : Yes
    Format settings, ReFrames                : 4 frames
    Codec ID                                 : V_MPEG4/ISO/AVC
    Duration                                 : 24mn 8s
    Width                                    : 1 920 pixels
    Height                                   : 1 080 pixels
    Display aspect ratio                     : 16:9
    Frame rate mode                          : Constant
    Frame rate                               : 23.976 fps
    Color space                              : YUV
    Chroma subsampling                       : 4:2:0
    Bit depth                                : 8 bits
    Scan type                                : Progressive
    Writing library                          : x264 core 146 r2538 121396c
    Encoding settings                        : cabac=1 / ref=4 / deblock=1:1:1 / analyse=0x3:0x113 / me=hex / subme=7 / psy=1 / psy_rd=0.40:0.00 / mixed_ref=1 / me_range=16 / chroma_me=1 / trellis=1 / 8x8dct=1 / cqm=0 / deadzone=21,11 / fast_pskip=1 / chroma_qp_offset=-2 / threads=6 / lookahead_threads=1 / sliced_threads=0 / nr=0 / decimate=1 / interlaced=0 / bluray_compat=0 / constrained_intra=0 / bframes=5 / b_pyramid=2 / b_adapt=1 / b_bias=0 / direct=1 / weightb=1 / open_gop=0 / weightp=2 / keyint=240 / keyint_min=23 / scenecut=40 / intra_refresh=0 / rc_lookahead=40 / rc=crf / mbtree=1 / crf=16.0 / qcomp=0.60 / qpmin=0 / qpmax=69 / qpstep=4 / vbv_maxrate=62500 / vbv_bufsize=78125 / crf_max=0.0 / nal_hrd=none / filler=0 / ip_ratio=1.40 / aq=1:0.60
    Default                                  : Yes
    Forced                                   : No
    
    Audio #1
    ID                                       : 2
    Format                                   : PCM
    Format settings, Endianness              : Big
    Codec ID                                 : A_PCM/INT/BIG
    Duration                                 : 24mn 8s
    Bit rate mode                            : Constant
    Channel count                            : 2 channels
    Sampling rate                            : 48.0 KHz
    Bit depth                                : 16 bits
    Language                                 : Japanese
    Default                                  : Yes
    Forced                                   : No
    
    Audio #2
    ID                                       : 3
    Format                                   : PCM
    Format settings, Endianness              : Big
    Codec ID                                 : A_PCM/INT/BIG
    Duration                                 : 24mn 8s
    Bit rate mode                            : Constant
    Channel count                            : 2 channels
    Sampling rate                            : 48.0 KHz
    Bit depth                                : 16 bits
    Language                                 : French
    Default                                  : No
    Forced                                   : No
    
    Audio #3
    ID                                       : 4
    Format                                   : PCM
    Format settings, Endianness              : Big
    Codec ID                                 : A_PCM/INT/BIG
    Duration                                 : 24mn 8s
    Bit rate mode                            : Constant
    Channel count                            : 2 channels
    Sampling rate                            : 48.0 KHz
    Bit depth                                : 16 bits
    Language                                 : German
    Default                                  : No
    Forced                                   : No
    
    Audio #4
    ID                                       : 5
    Format                                   : AC-3
    Format/Info                              : Audio Coding 3
    Format profile                           : Dolby Digital
    Mode extension                           : CM (complete main)
    Format settings, Endianness              : Big
    Codec ID                                 : A_AC3
    Duration                                 : 24mn 8s
    Bit rate mode                            : Constant
    Bit rate                                 : 320 Kbps
    Channel count                            : 2 channels
    Channel positions                        : Front: L R
    Sampling rate                            : 48.0 KHz
    Bit depth                                : 16 bits
    Compression mode                         : Lossy
    Stream size                              : 55.3 MiB (3%)
    Language                                 : Japanese
    Default                                  : No
    Forced                                   : No
    
    Text #1
    ID                                       : 6
    Format                                   : PGS
    Muxing mode                              : zlib
    Codec ID                                 : S_HDMV/PGS
    Codec ID/Info                            : The same subtitle format used on BDs/HD-DVDs
    Language                                 : French
    Default                                  : Yes
    Forced                                   : No
    
    Text #2
    ID                                       : 7
    Format                                   : PGS
    Muxing mode                              : zlib
    Codec ID                                 : S_HDMV/PGS
    Codec ID/Info                            : The same subtitle format used on BDs/HD-DVDs
    Language                                 : French
    Default                                  : No
    Forced                                   : No
    
    Text #3
    ID                                       : 8
    Format                                   : PGS
    Muxing mode                              : zlib
    Codec ID                                 : S_HDMV/PGS
    Codec ID/Info                            : The same subtitle format used on BDs/HD-DVDs
    Language                                 : German
    Default                                  : No
    Forced                                   : No
    
    Text #4
    ID                                       : 9
    Format                                   : PGS
    Muxing mode                              : zlib
    Codec ID                                 : S_HDMV/PGS
    Codec ID/Info                            : The same subtitle format used on BDs/HD-DVDs
    Language                                 : German
    Default                                  : No
    Forced                                   : No
    
    Text #5
    ID                                       : 10
    Format                                   : PGS
    Muxing mode                              : zlib
    Codec ID                                 : S_HDMV/PGS
    Codec ID/Info                            : The same subtitle format used on BDs/HD-DVDs
    Language                                 : Dutch
    Default                                  : No
    Forced                                   : No
    
    Text #6
    ID                                       : 11
    Format                                   : PGS
    Muxing mode                              : zlib
    Codec ID                                 : S_HDMV/PGS
    Codec ID/Info                            : The same subtitle format used on BDs/HD-DVDs
    Language                                 : French
    Default                                  : No
    Forced                                   : No
    
    Text #7
    ID                                       : 12
    Format                                   : PGS
    Muxing mode                              : zlib
    Codec ID                                 : S_HDMV/PGS
    Codec ID/Info                            : The same subtitle format used on BDs/HD-DVDs
    Language                                 : German
    Default                                  : No
    Forced                                   : No




    Geschützter Bereich - Bedanke dich beim Poster, um den Bereich sehen zu können
    Hier erfährst Du wie Du Dich bedanken kannst oder werde jetzt Premium Mitglied ab einer Spende von 5€ und erhalte sofortigen Zugriff auf den Downloadbereich!


    [Links sind nur für registrierte und aktivierte Nutzer sichtbar. Klicke hier um dich zu registrieren.]
    !!!Alle Anliegen bezüglich Uploads werden nur mit direktem Threadlink zum Angebot bearbeitet!!!

    Re-Uploadanfragen nur per PN - Ihr könnt mir auch Listen schicken

    Re-Uploads erfolgen meist innerhalb 24h, kann aber auch bis zu 7 Tage dauern

    [Links sind nur für registrierte und aktivierte Nutzer sichtbar. Klicke hier um dich zu registrieren.] | [Links sind nur für registrierte und aktivierte Nutzer sichtbar. Klicke hier um dich zu registrieren.] | >[Links sind nur für registrierte und aktivierte Nutzer sichtbar. Klicke hier um dich zu registrieren.]<
    [Links sind nur für registrierte und aktivierte Nutzer sichtbar. Klicke hier um dich zu registrieren.]

  2. 220 Benutzer sagen Danke:

    Anzeigen

    -tomcat- (11. August 2016),afro (7. July 2016),Agros (28. December 2015),Akio (15. January 2016),alecander (8. February 2016),anderl13 (6. September 2015),andyb90 (2. September 2015),ani212 (20. June 2016),ani777 (13. November 2016),archonize (20. December 2015),Asuka Langley (1. September 2015),Asukaa (23. August 2016),Axel87 (11. January 2016),B3nnoX (9. December 2015),Baschti1989 (3. October 2016),basdi (28. October 2016),Beater-Kirito-kun (6. August 2016),beckmannbass (4. October 2015),Behind you! (5. January 2016),BehindYA (1. June 2016),BK-201 (30. August 2015),Blackdragon1702 (28. September 2015),BlackPhoenix (30. August 2015),Black_ Reaper (16. March 2016),brunsdumm (28. September 2015),Bunchy (2. September 2015),Buttercups (2. December 2015),cenobia (4. December 2015),chainsaw3 (1. August 2016),Chaosity (16. October 2015),CherryLarry (27. November 2015),Chiffon (1. December 2015),chopper23 (4. December 2015),claro.claire1996 (9. July 2016),Conopas (3. May 2016),coolZER0 (2. December 2015),CoRTeS (25. December 2015),Countermonk (9. September 2015),Cy_Baer (29. August 2015),D15c05 (7. February 2016),dacheff (29. August 2015),dadoc91 (10. August 2016),daikami (5. September 2015),DarkTerminator (7. November 2015),DarthToast (30. August 2015),Deadknight2 (11. May 2016),Denetonne (20. February 2016),DetektivConanDE (9. September 2015),Direnbander (11. September 2015),Dragon29 (6. September 2015),Dreieckhard (25. June 2016),E08k (4. September 2015),egon1212 (30. April 2016),Eight (21. November 2015),ElfenLied (30. August 2015),enfii (29. August 2015),error157 (6. March 2016),Evilon (12. December 2015),Extraneis (14. December 2015),Eyes of the Insane (29. November 2015),Fatestaynight (1. December 2016),Fishbowl (28. November 2015),Freakin_Blunt (21. October 2015),Freiwilly (24. May 2016),galudo (12. August 2016),Ghostraven (14. October 2015),Goki.Grokus (16. December 2015),Gott Enel (2. October 2016),graythunder (29. March 2016),Griever (12. August 2016),haltdiefresse (22. October 2015),Hanfos (7. July 2016),HappyTree (4. September 2016),helloplaya (16. August 2016),Hisaki (19. November 2015),hnnnn (21. October 2015),Hobbitgraf (26. December 2015),Holzmodem (10. September 2016),hunter4320 (1. September 2015),InSaNe.CodeZ (12. August 2016),inst4gib (30. June 2016),ioki (22. October 2015),Jack (25. January 2016),jacksparrow12 (29. June 2016),Jesche (25. September 2015),jetjojo (24. October 2015),Jubba (5. September 2015),juckenkratzen (6. March 2016),Juckz (22. November 2015),JustFabi (31. August 2016),KakashiKudo (10. September 2016),Kalchi (12. August 2016),Kartox (11. September 2015),Kazuma (21. November 2015),kei (11. July 2016),Keiler (9. June 2016),Keldaan (10. September 2015),Kevin386 (27. April 2016),kevmusic91 (11. September 2015),killer7977 (25. September 2015),kinghol (17. October 2015),Knuddelbearli (1. March 2016),Kougami (15. May 2016),krasserGaul (25. December 2015),LEITZ (3. December 2016),LomeaDae (13. September 2015),LuckStrike (4. May 2016),Lugiano (9. October 2016),Manuk (25. December 2015),ManunaM (10. September 2015),marco.xf (29. August 2015),marcoj90 (3. September 2015),Max13493 (29. August 2015),McLinux (20. December 2015),Megamani (20. November 2016),Mekky123 (11. October 2016),mib00 (1. September 2015),midnighter (30. September 2015),mik_y (1. February 2016),Miriweth (23. January 2016),Monkey (25. December 2015),Mr.Shit (3. January 2016),Murtagks (31. August 2016),Nandemonai (13. October 2015),Newz2014 (10. May 2016),niccoboss (21. March 2016),noizmaker (12. August 2016),Numani (10. January 2016),Nyan (29. August 2015),Okarin (6. September 2015),old nick 666 (5. December 2016),orp123 (7. June 2016),Paachan (5. April 2016),PaDDyHaase (12. August 2016),piggsylol (9. January 2016),PreciseBlade (16. January 2016),Pure (9. November 2016),pyronik (14. August 2016),Raphael96 (4. April 2016),Rawrlex (27. November 2016),Regi (9. March 2016),Rekke (30. August 2015),Revk (27. November 2016),Rikune (29. November 2015),Rin58 (26. September 2015),Riyadoris (21. October 2015),rkrause (12. April 2016),Ryota (18. September 2015),S4nCh3z (22. May 2016),Saiga (6. October 2015),Sakamoto (26. April 2016),samuuil (1. May 2016),san1n (22. November 2015),Sandy7580 (28. March 2016),Sapper (26. October 2015),Schumi2405 (15. January 2016),Schun (21. February 2016),SciTeC (26. October 2015),Scorpionlord88 (21. August 2016),Scrappedmaster (14. August 2016),sebmori (3. January 2016),Seis (12. August 2016),Seki (26. December 2015),Sekki (5. September 2016),SewoV4 (21. October 2015),ShAd_1337 (27. July 2016),sharline (23. February 2016),shawn10398 (1. September 2015),Shinigami1337 (9. October 2015),Shinon.Kagura (20. August 2016),Shinu Luna (13. February 2016),Shir0ku (27. September 2015),Shirobaka (17. September 2015),sid6581 (22. September 2015),Silencio (30. November 2016),Sirius (3. September 2015),sn4tch (9. September 2016),Soiche (24. November 2015),Sora (9. June 2016),starforce (15. February 2016),stellar (1. October 2015),Stones (24. September 2016),Superzorro (29. August 2015),swagrid (6. March 2016),Sylux (7. September 2015),Tabacko (29. August 2015),Taiho (15. December 2015),Tana-kun (2. December 2015),Tarlysin (6. October 2015),TechaNexus (13. September 2015),TechnoMorcel (21. April 2016),TeNkS (5. September 2015),Terraner (22. July 2016),ter_Kapitalist (21. August 2016),Tet2 (31. October 2015),therealbarra (4. October 2015),thomas (27. December 2015),tommey (25. October 2015),TorbenSonnenStern (18. October 2016),Tschu23 (26. August 2016),Twofunny (26. September 2015),Ultraregister (28. October 2015),Vaana- (6. December 2015),Vagabond0606 (26. October 2016),vaniramai (25. November 2015),VatosLocos (5. September 2015),Vergil (21. December 2015),Vivere (29. November 2015),Windwusel (4. January 2016),WolfsBlade (5. September 2015),xColdAsIcex (25. February 2016),XenoX (3. April 2016),Xers (13. August 2016),xN1V3K (29. August 2015),XRA9 (31. August 2015),Yenniii (1. December 2015),Zarroc1 (28. June 2016),zoe#449 (26. February 2016),zorro177 (3. April 2016),Zuckerpuppe (6. September 2015)

  3. #2
    United we Stand Avatar von 00Ryuji00
    Registriert seit
    Oct 2012
    Beiträge
    3.902
    Punkte
    100.019
    Errungenschaften:
    TomodachisGang LeaderHikikomoriTagger Amateur50000 Erfahrungspunkte

    AW: Code Geass: Hangyaku no Lelouch S01+S02 [Ger-Jap-Fra-Dub][Ger-Fra-NL-Sub][AC3/PCM][720p/1080p][BluRay] - AST4u

    Update: Dateien auf Wunsch wieder online.
    !!!Alle Anliegen bezüglich Uploads werden nur mit direktem Threadlink zum Angebot bearbeitet!!!

    Re-Uploadanfragen nur per PN - Ihr könnt mir auch Listen schicken

    Re-Uploads erfolgen meist innerhalb 24h, kann aber auch bis zu 7 Tage dauern

    [Links sind nur für registrierte und aktivierte Nutzer sichtbar. Klicke hier um dich zu registrieren.] | [Links sind nur für registrierte und aktivierte Nutzer sichtbar. Klicke hier um dich zu registrieren.] | >[Links sind nur für registrierte und aktivierte Nutzer sichtbar. Klicke hier um dich zu registrieren.]<
    [Links sind nur für registrierte und aktivierte Nutzer sichtbar. Klicke hier um dich zu registrieren.]

  4. 2 Benutzer sagen Danke:

    Scorpionlord88 (21. August 2016),Vagabond0606 (26. October 2016)

Lesezeichen

Berechtigungen

  • Neue Themen erstellen: Nein
  • Themen beantworten: Nein
  • Anhänge hochladen: Nein
  • Beiträge bearbeiten: Nein
  •  

1 2 3 4 5 6 7 8 9 10 11 12 13 14 15 16 17 18 19 20 21 22 23 24 25 26 27 28 29 30 31 32 33 34 35 36 37 38 39 40 41 42 43 44 45 46 47 48 49 50 51 52 53 54 55 56 57 58 59 60 61 62 63 64 65 66 67 68 69 70 71 72 73 74 75 76 77 78 79 80 81 82 83 84 85 86 87 88 89 90 91 92 93 94 95 96 97 98 99 100 101 102 103 104 105 106 107 108 109 110 111 112 113 114 115 116 117 118 119 120 121 122 123 124 125 126 127 128 129 130 131 132 133 134 135 136 137 138 139 140 141 142 143 144 145 146 147 148 149 150 151 152 153 154 155 156 157 158