Ergebnis 1 bis 4 von 4

Thema: Death Note S01 + Extras [Laufend][Ger-Jap-Eng-Dub][FLAC/DTS-HD MA][Ger-Eng-Sub][1080p][BluRay][Remux]-SantaKlaus

Dieser Thread wurde durchschnittlich mit 5 Sternen bewertet, wobei 1 Stern die schlechteste und 5 Sterne die beste Bewertung ist. Es haben insgesamt 2 Mitglieder eine Bewertung abgegeben.

  1. #1
    Kleiner Experte Avatar von SantaKlaus
    Registriert seit
    Feb 2014
    Beiträge
    103
    Punkte
    5.867
    Errungenschaften:
    Hikikomori5000 Erfahrungspunkte

    Death Note S01 + Extras [Laufend][Ger-Jap-Eng-Dub][FLAC/DTS-HD MA][Ger-Eng-Sub][1080p][BluRay][Remux]-SantaKlaus

    Death Note
    デスノート






    Kurzbeschreibung:
    Light Yagami geht in die Highschool und steht kurz vor den schwierigen Aufnahmeprüfungen für Japans Elite-Universitäten. Doch das ist für Light keine große Herausforderung. Schließlich ist er mit so überdurchschnittlicher Intelligenz gesegnet, dass er alle Prüfungen stets mit Bravour besteht, zudem ist er fleißig und gewissenhaft. Doch eines Tages findet er auf dem Schulhof ein rätselhaftes Notizbuch. Es handelt sich um ein sogenanntes Death Note. In diesem steht, dass ein Mensch, dessen Namen man in das Notizbuch schreibt, daraufhin stirbt. Nach anfänglicher Skepsis findet Light heraus, dass das Notizbuch tatsächlich funktioniert, indem er es an Kriminellen testet. Er findet nicht nur genaueres über die exakte Wirkungsweise heraus, sondern trifft auch bald auf den ursprünglichen Besitzer des Buches: Einen Todesgott.

    Die Versuchung, das Buch zu benutzen, ist zu groß für Light: Er sieht das Death Note als eine Chance, um die Welt vom Bösen und Verbrechern zu befreien. Bald darauf erregt die unglaubliche Anzahl der unerklärlichen Tode von Kriminellen die Aufmerksamkeit der Polizei. An der Spitze der dafür eigens gegründeten, internationalen Sonderkommission stehen der Polizeichef von Tokio und ein Sonderermittler, von dem weder Gesicht noch Name bekannt sind. Er wird nur mit L angesprochen. Die Jagd beginnt …


    Format: 16:9
    Auflösung: 1920 x 1080
    Episoden: 18/37
    Source: US Blu-ray (Omega Edition) & DE Panini DVD
    Codec: AVC (US BD)
    Hoster: Share-Online
    Ton:
    Deutsch FLAC 5.1 (DE Panini DVD: AC3 -> FLAC -> Schnitte)
    Japanisch DTS-HD MA 2.0 (US BD)
    Englisch DTS-HD MA 2.0 (US BD)

    Spoiler
    Code:
    General
    Unique ID                   : 252251331665517781296786108563125079664 (0xBDC5D6DD742FF1EFB978A48002B68E70)
    Complete name               : Death Note - S01E01 - Wiedergeburt.mkv
    Format                      : Matroska
    Format version              : Version 4 / Version 2
    File size                   : 3.92 GiB
    Duration                    : 23mn 1s
    Overall bit rate mode       : Variable
    Overall bit rate            : 24.4 Mbps
    Movie name                  : Death Note 01 - 08
    Encoded date                : UTC 2016-04-06 23:38:31
    Writing application         : mkvmerge v9.0.1 ('Obstacles') 64bit
    Writing library             : libebml v1.3.3 + libmatroska v1.4.4
    
    Video
    ID                          : 1
    Format                      : AVC
    Format/Info                 : Advanced Video Codec
    Format profile              : [email protected]
    Format settings, CABAC      : Yes
    Format settings, ReFrames   : 4 frames
    Codec ID                    : V_MPEG4/ISO/AVC
    Duration                    : 22mn 57s
    Bit rate mode               : Variable
    Bit rate                    : 16.1 Mbps
    Maximum bit rate            : 35.0 Mbps
    Width                       : 1 920 pixels
    Height                      : 1 080 pixels
    Display aspect ratio        : 16:9
    Frame rate mode             : Constant
    Frame rate                  : 23.976 (24000/1001) fps
    Standard                    : NTSC
    Color space                 : YUV
    Chroma subsampling          : 4:2:0
    Bit depth                   : 8 bits
    Scan type                   : Progressive
    Bits/(Pixel*Frame)          : 0.325
    Stream size                 : 2.59 GiB (66%)
    Language                    : Japanese
    Default                     : Yes
    Forced                      : No
    Color range                 : Limited
    Color primaries             : BT.709
    Transfer characteristics    : BT.709
    Matrix coefficients         : BT.709
    
    Audio #1
    ID                          : 2
    Format                      : FLAC
    Format/Info                 : Free Lossless Audio Codec
    Codec ID                    : A_FLAC
    Duration                    : 23mn 1s
    Bit rate mode               : Variable
    Bit rate                    : 3 443 Kbps
    Channel(s)                  : 6 channels
    Channel positions           : Front: L C R, Side: L R, LFE
    Sampling rate               : 48.0 KHz
    Frame rate                  : 41.667 fps (1152 spf)
    Bit depth                   : 24 bits
    Stream size                 : 567 MiB (14%)
    Writing library             : libFLAC 1.0.25 (UTC 2007-09-17)
    Language                    : German
    Default                     : Yes
    Forced                      : No
    
    Audio #2
    ID                          : 3
    Format                      : DTS
    Format/Info                 : Digital Theater Systems
    Format profile              : MA / Core
    Mode                        : 16
    Format settings, Endianness : Big
    Codec ID                    : A_DTS
    Duration                    : 22mn 57s
    Bit rate mode               : Variable / Constant
    Bit rate                    : 1 667 Kbps / 1 509 Kbps
    Channel(s)                  : 2 channels
    Channel positions           : Front: L R
    Sampling rate               : 48.0 KHz
    Frame rate                  : 93.750 fps (512 spf)
    Bit depth                   : 16 bits
    Compression mode            : Lossless / Lossy
    Stream size                 : 274 MiB (7%)
    Language                    : Japanese
    Default                     : No
    Forced                      : No
    
    Audio #3
    ID                          : 4
    Format                      : DTS
    Format/Info                 : Digital Theater Systems
    Format profile              : MA / Core
    Mode                        : 16
    Format settings, Endianness : Big
    Codec ID                    : A_DTS
    Duration                    : 22mn 57s
    Bit rate mode               : Variable / Constant
    Bit rate                    : 1 576 Kbps / 1 509 Kbps
    Channel(s)                  : 2 channels
    Channel positions           : Front: L R
    Sampling rate               : 48.0 KHz
    Frame rate                  : 93.750 fps (512 spf)
    Bit depth                   : 16 bits
    Compression mode            : Lossless / Lossy
    Stream size                 : 259 MiB (6%)
    Language                    : English
    Default                     : No
    Forced                      : No
    
    Audio #4
    ID                          : 5
    Format                      : DTS
    Format/Info                 : Digital Theater Systems
    Format profile              : MA / Core
    Mode                        : 16
    Format settings, Endianness : Big
    Codec ID                    : A_DTS
    Duration                    : 22mn 57s
    Bit rate mode               : Variable / Constant
    Bit rate                    : 1 573 Kbps / 1 509 Kbps
    Channel(s)                  : 2 channels
    Channel positions           : Front: L R
    Sampling rate               : 48.0 KHz
    Frame rate                  : 93.750 fps (512 spf)
    Bit depth                   : 16 bits
    Compression mode            : Lossless / Lossy
    Stream size                 : 258 MiB (6%)
    Title                       : Director's Commentary
    Language                    : English
    Default                     : No
    Forced                      : No
    
    Text #1
    ID                          : 6
    Format                      : UTF-8
    Codec ID                    : S_TEXT/UTF8
    Codec ID/Info               : UTF-8 Plain Text
    Duration                    : 20mn 40s
    Bit rate                    : 69 bps
    Count of elements           : 217
    Stream size                 : 10.6 KiB (0%)
    Language                    : German
    Default                     : No
    Forced                      : No
    
    Text #2
    ID                          : 7
    Format                      : PGS
    Muxing mode                 : zlib
    Codec ID                    : S_HDMV/PGS
    Codec ID/Info               : Picture based subtitle format used on BDs/HD-DVDs
    Duration                    : 22mn 47s
    Bit rate                    : 11.0 Kbps
    Count of elements           : 692
    Stream size                 : 1.79 MiB (0%)
    Language                    : English
    Default                     : No
    Forced                      : No
    
    Menu
    00:00:00.000                : en:Chapter 01
    00:01:25.960                : en:Chapter 02
    00:10:46.062                : en:Chapter 03
    00:21:26.118                : en:Chapter 04
    00:22:36.104                : en:Chapter 05




    Geschützter Bereich - Bedanke dich beim Poster, um den Bereich sehen zu können
    Hier erfährst Du wie Du Dich bedanken kannst oder werde jetzt Premium Mitglied ab einer Spende von 5€ und erhalte sofortigen Zugriff auf den Downloadbereich!
    Geändert von SantaKlaus (18. April 2016 um 19:57 Uhr)

  2. 90 Benutzer sagen Danke:

    Anzeigen

    123nitro123 (9. April 2016),AnimeGuy69 (9. April 2016),Animewolf (26. April 2016),Baschti1989 (30. April 2016),BeatZeps (10. April 2016),BK-201 (16. April 2016),Bloody Shion (14. April 2016),Bullet91 (2. June 2016),Chilko (8. April 2016),chopper23 (8. April 2016),cloud-strife20 (4. July 2016),Conopas (6. May 2016),Cy_Baer (10. April 2016),dadoc91 (1. May 2016),DarkTerminator (16. April 2016),diablofan2 (8. April 2016),DieEnte5000 (20. April 2016),dosde (19. July 2016),falkenauge11 (16. April 2016),FIRST--LAW--FANTASY (8. August 2016),fullmetal1995 (8. April 2016),galudo (8. April 2016),Gold_93 (8. April 2016),HannesLN (1. May 2016),Haxz0r (10. April 2016),Hi im Shini (11. April 2016),Hobbitgraf (9. April 2016),Holzmodem (1. June 2016),HorstEvers (25. April 2016),icloudmax (9. August 2016),InSaNe.CodeZ (9. April 2016),intelatominside (8. April 2016),inzsome (10. May 2016),JackyMono (12. May 2016),Jambalaya (21. April 2016),kaiste (8. April 2016),Kartox (14. April 2016),KeeseToast (19. April 2016),KiritoDerSchwertKämpfer (15. June 2016),Knuddelbearli (16. October 2016),Kortest (8. April 2016),Kydro (20. April 2016),lucky_mer (9. April 2016),Lugiano (5. May 2016),Lusionem2939 (30. July 2016),Lytrox (26. April 2016),manninator (16. April 2016),markusdamon5 (9. April 2016),maximus (15. May 2016),meyer (21. April 2016),midnighter (6. September 2016),moflippa (8. April 2016),Mr.Shit (8. April 2016),mrsh4rky (8. April 2016),NeefBenriya (18. June 2016),neocx (8. April 2016),noizmaker (12. April 2016),Nokaru (8. April 2016),Paulus (18. May 2016),Pazu (16. April 2016),Praxas (8. April 2016),Predatorr5412 (17. May 2016),re.tischi (9. April 2016),Regi (8. April 2016),Rin58 (1. May 2016),Riven (17. April 2016),rmax67 (6. May 2016),RuFFy19 (5. October 2016),Runata (9. April 2016),S4nCh3z (27. April 2016),Scorpionlord88 (15. April 2016),setugen no ao (16. April 2016),SiiiNaN (31. May 2016),Sildurias (3. May 2016),Skian (11. April 2016),SONNYxq (13. May 2016),Speznat (21. April 2016),Statler (20. April 2016),Tana-kun (11. April 2016),Tarlysin (10. April 2016),thanathan85 (11. April 2016),thomas (14. May 2016),tigerhai (15. August 2016),TM95 (13. April 2016),TUROcKK (31. May 2016),Usagi91 (12. July 2016),Voodoolol (16. April 2016),Windwusel (27. April 2016),yarouze (24. May 2016),zoe#449 (19. April 2016)

  3. #2
    Kleiner Experte Avatar von SantaKlaus
    Registriert seit
    Feb 2014
    Beiträge
    103
    Punkte
    5.867
    Errungenschaften:
    Hikikomori5000 Erfahrungspunkte

    AW: Death Note S01 + Extras [Ger-Jap-Eng-Dub][FLAC][DTS-HD MA][Ger-Eng-Sub][1080p][Blu-ray][Remux]-SantaKlaus

    E06-E11 hinzugefügt

  4. #3
    Kleiner Experte Avatar von SantaKlaus
    Registriert seit
    Feb 2014
    Beiträge
    103
    Punkte
    5.867
    Errungenschaften:
    Hikikomori5000 Erfahrungspunkte

    AW: Death Note S01 + Extras [Ger-Jap-Eng-Dub][FLAC][DTS-HD MA][Ger-Eng-Sub][1080p][Blu-ray][Remux]-SantaKlaus

    bis E14 hinzugefügt

  5. #4
    Kleiner Experte Avatar von SantaKlaus
    Registriert seit
    Feb 2014
    Beiträge
    103
    Punkte
    5.867
    Errungenschaften:
    Hikikomori5000 Erfahrungspunkte

    AW: Death Note S01 + Extras [Laufend][Ger-Jap-Eng-Dub][FLAC/DTS-HD MA][Ger-Eng-Sub][1080p][BluRay][Remux]-SantaKlaus

    E15-E18 hinzugefügt

Lesezeichen

Berechtigungen

  • Neue Themen erstellen: Nein
  • Themen beantworten: Nein
  • Anhänge hochladen: Nein
  • Beiträge bearbeiten: Nein
  •  

1 2 3 4 5 6 7 8 9 10 11 12 13 14 15 16 17 18 19 20 21 22 23 24 25 26 27 28 29 30 31 32 33 34 35 36 37 38 39 40 41 42 43 44 45 46 47 48 49 50 51 52 53 54 55 56 57 58 59 60 61 62 63 64 65 66 67 68 69 70 71 72 73 74 75 76 77 78 79 80 81 82 83 84 85 86 87 88 89 90 91 92 93 94 95 96 97 98 99 100 101 102 103 104 105 106 107 108 109 110 111 112 113 114 115 116 117 118 119 120 121 122 123 124 125 126 127 128 129 130 131 132 133 134 135 136 137 138 139 140 141 142 143 144 145 146 147 148 149 150 151 152 153 154 155 156 157 158