Ergebnis 1 bis 1 von 1

Thema: Die Kickers S01 360p GerDub DVDRiP XviD x264- CiA

Dieser Thread wurde noch nicht bewertet. Bewerte ihn doch, wenn er dir gefällt!
  1. #1
    Erfahrener Otaku Avatar von DjRayleigh
    Registriert seit
    Jul 2015
    Beiträge
    195
    Punkte
    2.962
    Errungenschaften:
    1000 ErfahrungspunkteHyperaktivErste GruppeTomodachisSenpai

    Die Kickers S01 360p GerDub DVDRiP XviD x264- CiA


    Die Kickers
    Ganbare! Kickers
    がんばれ!キッカーズ
    Kickers
    Supergol






    Kurzbeschreibung:
    Zitat Zitat von AniSearch.com
    Es geht um Gregor, ein sehr talentierter Junge, der nur Fußball im Kopf hat. Nachdem er seine Heimat gewechselt hat, sucht er den Verein der neuen Stadt auf. Er trifft auf den Verein: "Die Kickers". Oder wie sie in der Umgebung hießen: "Die nie gewinner Kickers" und will bei ihnen eintreten, um mit ihnen Fußball zu spielen. Doch bei den Kickers ist der Glaube an erfolgreichem Fußball schon lang verflogen, denn sie verlieren jedes Spiel und bekommen nicht mal mehr Gegner. Doch Gregor ist da anderer Meinung und organisiert schon ein Treffen mit der besten Mannschaft im Umkreis, indem es um eine Wette ging. Wenn er nur ein mal vom Elfmeterpunkt treffe und das gegen den besten Torwart in der Region, der gleichzeitig Kapitän der Mannschaft ist, dann würden die Kickers ein Spiel gegen sie haben.

    So kommt es, wie es kommen muss, er trifft einen und es gibt das Spiel und seitdem haben sie auch wieder Spiele und Erfolg sowie auf jeden Fall Spaß am Fußball spielen. Sie trainieren hart an sich und werden mit ihrem wilden Spieler Gregor erfolgreich.


    Spieldauer: 23min
    Genre: Ganbatte
    Nebengenres: Ganbatte, Kinder, Komödie, Männlich, Sport
    Jahr: 1986
    Sprache: Deutsch
    Untertitel: Deutsch
    Größe pro Folge: ~231 MiB
    Episodenanzahl: 26/26
    Format: AVI
    Auflösung: 360p (4:3)
    Videocodec: XviD (MPEG-4 Visual)
    Audiocodec: MPEG Audio
    Releasegruppe: CiA von DJ
    Hoster: Share-Online, Uploaded


    MediaInfo
    Code:
    
    Format                                   : AVI
    Format/Info                              : Audio Video Interleave
    File size                                : 231 MiB
    Duration                                 : 23mn 55s
    Overall bit rate mode                    : Variable
    Overall bit rate                         : 1 351 Kbps
    Writing application                      : VirtualDubMod 1.5.10.2 (build 2540/release)
    Writing library                          : VirtualDubMod build 2540/release
    
    Video
    ID                                       : 0
    Format                                   : MPEG-4 Visual
    Format profile                           : Advanced [email protected]
    Format settings, BVOP                    : 2
    Format settings, QPel                    : No
    Format settings, GMC                     : No warppoints
    Format settings, Matrix                  : Default (MPEG)
    Codec ID                                 : XVID
    Codec ID/Hint                            : XviD
    Duration                                 : 23mn 55s
    Bit rate                                 : 1 197 Kbps
    Width                                    : 512 pixels
    Height                                   : 360 pixels
    Display aspect ratio                     : 4:3
    Frame rate                               : 25.000 fps
    Color space                              : YUV
    Chroma subsampling                       : 4:2:0
    Bit depth                                : 8 bits
    Scan type                                : Progressive
    Compression mode                         : Lossy
    Bits/(Pixel*Frame)                       : 0.244
    Stream size                              : 205 MiB (89%)
    Writing library                          : XviD 1.1.2 (UTC 2006-11-01)
    
    Audio
    ID                                       : 1
    Format                                   : MPEG Audio
    Format version                           : Version 1
    Format profile                           : Layer 3
    Mode                                     : Joint stereo
    Mode extension                           : MS Stereo
    Codec ID                                 : 55
    Codec ID/Hint                            : MP3
    Duration                                 : 23mn 55s
    Bit rate mode                            : Variable
    Bit rate                                 : 144 Kbps
    Channel(s)                               : 2 channels
    Sampling rate                            : 48.0 KHz
    Compression mode                         : Lossy
    Stream size                              : 24.0 MiB (10%)
    Alignment                                : Aligned on interleaves
    Interleave, duration                     : 24 ms (0.60 video frame)
    Interleave, preload duration             : 505 ms
    Writing library                          : LAME3.97b
    Encoding settings                        : -m j -V 4 -q 3 -lowpass 17.5 --abr 144
    
    




    Geschützter Bereich - Bedanke dich beim Poster, um den Bereich sehen zu können
    Hier erfährst Du wie Du Dich bedanken kannst oder werde jetzt Premium Mitglied ab einer Spende von 5€ und erhalte sofortigen Zugriff auf den Downloadbereich!

    [Links sind nur für registrierte und aktivierte Nutzer sichtbar. Klicke hier um dich zu registrieren.]
    Geändert von DjRayleigh (5. December 2015 um 01:54 Uhr)

    [Links sind nur für registrierte und aktivierte Nutzer sichtbar. Klicke hier um dich zu registrieren.]
    Support über PN
    =
    AKTIV

  2. 19 Benutzer sagen Danke:

    Akio (6. December 2015),ApCeLlonDinG (26. December 2015),BK-201 (10. June 2016),cloud-strife20 (7. November 2016),Filbo11 (29. May 2016),isaac007 (19. May 2016),james89 (9. January 2016),livia84 (12. October 2016),midnighter (29. December 2015),MX-sk (17. June 2016),n3xus386 (5. December 2015),re.tischi (24. January 2016),restlezz (25. February 2016),Sid3521 (11. December 2015),skypia999 (7. December 2015),TrUnkO (7. December 2015),xgokux (14. July 2016),Zapzerap (16. April 2016),Zejn (15. December 2015)

Lesezeichen

Berechtigungen

  • Neue Themen erstellen: Nein
  • Themen beantworten: Nein
  • Anhänge hochladen: Nein
  • Beiträge bearbeiten: Nein
  •  

1 2 3 4 5 6 7 8 9 10 11 12 13 14 15 16 17 18 19 20 21 22 23 24 25 26 27 28 29 30 31 32 33 34 35 36 37 38 39 40 41 42 43 44 45 46 47 48 49 50 51 52 53 54 55 56 57 58 59 60 61 62 63 64 65 66 67 68 69 70 71 72 73 74 75 76 77 78 79 80 81 82 83 84 85 86 87 88 89 90 91 92 93 94 95 96 97 98 99 100 101 102 103 104 105 106 107 108 109 110 111 112 113 114 115 116 117 118 119 120 121 122 123 124 125 126 127 128 129 130 131 132 133 134 135 136 137 138 139 140 141 142 143 144 145 146 147 148 149 150 151 152 153 154 155 156 157 158