Ergebnis 1 bis 3 von 3

Thema: Dragonball Z [Ger-Eng-Jap-Dub][Eng-Sub][720p/1080p][BluRay] - Mutaito

Dieser Thread wurde noch nicht bewertet. Bewerte ihn doch, wenn er dir gefällt!
  1. #1
    United we Stand Avatar von 00Ryuji00
    Registriert seit
    Oct 2012
    Beiträge
    3.902
    Punkte
    100.092
    Errungenschaften:
    TomodachisGang LeaderHikikomoriTagger Amateur50000 Erfahrungspunkte

    Dragonball Z [Ger-Eng-Jap-Dub][Eng-Sub][720p/1080p][BluRay] - Mutaito


    Dragon Ball Z
    ドラゴンボールZ
    Dragonball Z






    Kurzbeschreibung:
    Zitat Zitat von AniSearch.com
    Es ist nun vier Jahre her, seitdem Son-Goku den grünen Oberteufel Piccolo besiegt hat. Seitdem ist viel passiert und Son-Goku hat seine eigene kleine Familie mit Frau Chichi und Sohnemann Son-Gohan. Das idyllische Familienglück wird abrupt gestört, als auf der Erde plötzlich Außerirdische landen. Radditz, einer der Außerirdischen, erklärt Son-Goku, dass er sein Bruder sei und mit ihm zusammen weitere Welten erobern soll. Von Radditz erfährt Son-Goku auch, dass er ein Saiyajin ist und von einer weit entfernten Welt stammt. Als sich Son-Goku weigert zusammen mit Radditz andere Welten zu überfallen, entführt Radditz kurzerhand den jungen Son-Gohan, um Son-Goku zu einer Zusammenarbeit zu zwingen. Son-Goku macht sich nun auf, seinen Sohn zu befreien...


    Spieldauer: 25min
    Genre: Fighting-Shounen
    Nebengenres: Abenteuer, Action, Fantasy, Fighting-Shounen, Komödie, Scifi
    Jahr: 1989
    Sprache: Deutsch, Englisch, Japanisch
    Untertitel: Deutsch (Forced), Englisch
    Größe pro Folge: ~516 MiB ~893 MiB
    Episodenanzahl: 291/291
    Format: MKV
    Auflösung: 720p (16:9), 1080p (16:9)
    Videocodec: x264 (AVC)
    Audiocodec: AC-3
    Releasegruppe: Mutaito
    Hoster: Share-Online, Uploaded


    MediaInfo
    720p
    Code:
    
    Format                                   : Matroska
    Format version                           : Version 2
    File size                                : 516 MiB
    Duration                                 : 24mn 16s
    Overall bit rate                         : 2 972 Kbps
    Movie name                               : Dragonball Z 001
    Encoded date                             : UTC 2015-09-24 17:18:04
    Writing application                      : mkvmerge v5.6.0 ('Kenya Kane') built on May 27 2012 16:44:04
    Writing library                          : libebml v1.2.3 + libmatroska v1.3.0
    
    Video
    ID                                       : 1
    Format                                   : AVC
    Format/Info                              : Advanced Video Codec
    Format profile                           : High [email protected]
    Format settings, CABAC                   : Yes
    Format settings, ReFrames                : 9 frames
    Muxing mode                              : Header stripping
    Codec ID                                 : V_MPEG4/ISO/AVC
    Duration                                 : 24mn 16s
    Bit rate                                 : 2 305 Kbps
    Width                                    : 1 280 pixels
    Height                                   : 720 pixels
    Display aspect ratio                     : 16:9
    Frame rate mode                          : Constant
    Frame rate                               : 23.976 fps
    Color space                              : YUV
    Chroma subsampling                       : 4:2:0
    Bit depth                                : 10 bits
    Scan type                                : Progressive
    Bits/(Pixel*Frame)                       : 0.104
    Stream size                              : 389 MiB (75%)
    Title                                    : [DHD][MeisterMutaito]
    Writing library                          : x264 core 146 r2538 121396c
    Encoding settings                        : cabac=1 / ref=9 / deblock=1:1:1 / analyse=0x3:0x133 / me=umh / subme=10 / psy=1 / psy_rd=0.40:0.00 / mixed_ref=1 / me_range=24 / chroma_me=1 / trellis=2 / 8x8dct=1 / cqm=0 / deadzone=21,11 / fast_pskip=1 / chroma_qp_offset=-2 / threads=9 / lookahead_threads=2 / sliced_threads=0 / nr=0 / decimate=1 / interlaced=0 / bluray_compat=0 / constrained_intra=0 / bframes=10 / b_pyramid=2 / b_adapt=2 / b_bias=0 / direct=3 / weightb=1 / open_gop=0 / weightp=2 / keyint=240 / keyint_min=23 / scenecut=40 / intra_refresh=0 / rc_lookahead=60 / rc=2pass / mbtree=1 / bitrate=2305 / ratetol=1.0 / qcomp=0.60 / qpmin=0 / qpmax=81 / qpstep=4 / cplxblur=20.0 / qblur=0.5 / vbv_maxrate=62500 / vbv_bufsize=78125 / nal_hrd=none / filler=0 / ip_ratio=1.40 / aq=1:0.60
    Language                                 : German
    Default                                  : Yes
    Forced                                   : No
    
    Audio #1
    ID                                       : 2
    Format                                   : AC-3
    Format/Info                              : Audio Coding 3
    Mode extension                           : CM (complete main)
    Format settings, Endianness              : Big
    Muxing mode                              : Header stripping
    Codec ID                                 : A_AC3
    Duration                                 : 24mn 16s
    Bit rate mode                            : Constant
    Bit rate                                 : 256 Kbps
    Channel(s)                               : 2 channels
    Channel positions                        : Front: L R
    Sampling rate                            : 48.0 KHz
    Compression mode                         : Lossy
    Stream size                              : 44.4 MiB (9%)
    Title                                    : AC3
    Language                                 : German
    Default                                  : Yes
    Forced                                   : No
    
    Audio #2
    ID                                       : 3
    Format                                   : AC-3
    Format/Info                              : Audio Coding 3
    Mode extension                           : CM (complete main)
    Format settings, Endianness              : Big
    Muxing mode                              : Header stripping
    Codec ID                                 : A_AC3
    Duration                                 : 24mn 16s
    Bit rate mode                            : Constant
    Bit rate                                 : 96.0 Kbps
    Channel(s)                               : 1 channel
    Channel positions                        : Front: C
    Sampling rate                            : 48.0 KHz
    Compression mode                         : Lossy
    Stream size                              : 16.7 MiB (3%)
    Title                                    : AC3
    Language                                 : Japanese
    Default                                  : No
    Forced                                   : No
    
    Audio #3
    ID                                       : 4
    Format                                   : AC-3
    Format/Info                              : Audio Coding 3
    Mode extension                           : CM (complete main)
    Format settings, Endianness              : Big
    Muxing mode                              : Header stripping
    Codec ID                                 : A_AC3
    Duration                                 : 24mn 16s
    Bit rate mode                            : Constant
    Bit rate                                 : 320 Kbps
    Channel(s)                               : 6 channels
    Channel positions                        : Front: L C R, Side: L R, LFE
    Sampling rate                            : 48.0 KHz
    Compression mode                         : Lossy
    Stream size                              : 55.5 MiB (11%)
    Title                                    : AC3
    Language                                 : English
    Default                                  : No
    Forced                                   : No
    
    Text #1
    ID                                       : 5
    Format                                   : ASS
    Codec ID                                 : S_TEXT/ASS
    Codec ID/Info                            : Advanced Sub Station Alpha
    Compression mode                         : Lossless
    Title                                    : Forced
    Language                                 : German
    Default                                  : Yes
    Forced                                   : No
    
    Text #2
    ID                                       : 6
    Format                                   : UTF-8
    Codec ID                                 : S_TEXT/UTF8
    Codec ID/Info                            : UTF-8 Plain Text
    Title                                    : Full
    Language                                 : English
    Default                                  : No
    Forced                                   : No
    
    


    1080p
    Code:
    
    Format                                   : Matroska
    Format version                           : Version 2
    File size                                : 893 MiB
    Duration                                 : 24mn 16s
    Overall bit rate                         : 5 145 Kbps
    Movie name                               : Dragonball Z 001
    Encoded date                             : UTC 2015-09-24 17:19:13
    Writing application                      : mkvmerge v5.6.0 ('Kenya Kane') built on May 27 2012 16:44:04
    Writing library                          : libebml v1.2.3 + libmatroska v1.3.0
    
    Video
    ID                                       : 1
    Format                                   : AVC
    Format/Info                              : Advanced Video Codec
    Format profile                           : [email protected]
    Format settings, CABAC                   : Yes
    Format settings, ReFrames                : 5 frames
    Muxing mode                              : Header stripping
    Codec ID                                 : V_MPEG4/ISO/AVC
    Duration                                 : 24mn 16s
    Bit rate                                 : 4 500 Kbps
    Width                                    : 1 920 pixels
    Height                                   : 1 080 pixels
    Display aspect ratio                     : 16:9
    Frame rate mode                          : Constant
    Frame rate                               : 23.976 fps
    Color space                              : YUV
    Chroma subsampling                       : 4:2:0
    Bit depth                                : 8 bits
    Scan type                                : Progressive
    Bits/(Pixel*Frame)                       : 0.091
    Stream size                              : 759 MiB (85%)
    Title                                    : [DHD][MeisterMutaito]
    Writing library                          : x264 core 133 r2334 a3ac64b
    Encoding settings                        : cabac=1 / ref=5 / deblock=1:0:0 / analyse=0x3:0x133 / me=umh / subme=7 / psy=1 / psy_rd=1.00:0.00 / mixed_ref=1 / me_range=18 / chroma_me=1 / trellis=1 / 8x8dct=1 / cqm=0 / deadzone=21,11 / fast_pskip=0 / chroma_qp_offset=-2 / threads=6 / lookahead_threads=1 / sliced_threads=0 / slices=4 / nr=0 / decimate=1 / interlaced=0 / bluray_compat=0 / constrained_intra=0 / bframes=3 / b_pyramid=2 / b_adapt=1 / b_bias=0 / direct=1 / weightb=1 / open_gop=0 / weightp=2 / keyint=240 / keyint_min=23 / scenecut=40 / intra_refresh=0 / rc_lookahead=50 / rc=abr / mbtree=1 / bitrate=4500 / ratetol=1.0 / qcomp=0.60 / qpmin=0 / qpmax=69 / qpstep=4 / ip_ratio=1.40 / aq=1:1.00
    Language                                 : German
    Default                                  : Yes
    Forced                                   : No
    
    Audio #1
    ID                                       : 2
    Format                                   : AC-3
    Format/Info                              : Audio Coding 3
    Mode extension                           : CM (complete main)
    Format settings, Endianness              : Big
    Muxing mode                              : Header stripping
    Codec ID                                 : A_AC3
    Duration                                 : 24mn 16s
    Bit rate mode                            : Constant
    Bit rate                                 : 256 Kbps
    Channel(s)                               : 2 channels
    Channel positions                        : Front: L R
    Sampling rate                            : 48.0 KHz
    Compression mode                         : Lossy
    Stream size                              : 44.4 MiB (5%)
    Title                                    : AC3
    Language                                 : German
    Default                                  : Yes
    Forced                                   : No
    
    Audio #2
    ID                                       : 3
    Format                                   : AC-3
    Format/Info                              : Audio Coding 3
    Mode extension                           : CM (complete main)
    Format settings, Endianness              : Big
    Muxing mode                              : Header stripping
    Codec ID                                 : A_AC3
    Duration                                 : 24mn 16s
    Bit rate mode                            : Constant
    Bit rate                                 : 96.0 Kbps
    Channel(s)                               : 1 channel
    Channel positions                        : Front: C
    Sampling rate                            : 48.0 KHz
    Compression mode                         : Lossy
    Stream size                              : 16.7 MiB (2%)
    Title                                    : AC3
    Language                                 : Japanese
    Default                                  : No
    Forced                                   : No
    
    Audio #3
    ID                                       : 4
    Format                                   : AC-3
    Format/Info                              : Audio Coding 3
    Mode extension                           : CM (complete main)
    Format settings, Endianness              : Big
    Muxing mode                              : Header stripping
    Codec ID                                 : A_AC3
    Duration                                 : 24mn 16s
    Bit rate mode                            : Constant
    Bit rate                                 : 320 Kbps
    Channel(s)                               : 6 channels
    Channel positions                        : Front: L C R, Side: L R, LFE
    Sampling rate                            : 48.0 KHz
    Compression mode                         : Lossy
    Stream size                              : 55.5 MiB (6%)
    Title                                    : AC3
    Language                                 : English
    Default                                  : No
    Forced                                   : No
    
    Text #1
    ID                                       : 5
    Format                                   : ASS
    Codec ID                                 : S_TEXT/ASS
    Codec ID/Info                            : Advanced Sub Station Alpha
    Compression mode                         : Lossless
    Title                                    : Forced
    Language                                 : German
    Default                                  : Yes
    Forced                                   : No
    
    Text #2
    ID                                       : 6
    Format                                   : UTF-8
    Codec ID                                 : S_TEXT/UTF8
    Codec ID/Info                            : UTF-8 Plain Text
    Title                                    : Full
    Language                                 : English
    Default                                  : No
    Forced                                   : No
    
    






    Geschützter Bereich - Bedanke dich beim Poster, um den Bereich sehen zu können
    Hier erfährst Du wie Du Dich bedanken kannst oder werde jetzt Premium Mitglied ab einer Spende von 5€ und erhalte sofortigen Zugriff auf den Downloadbereich!

    [Links sind nur für registrierte und aktivierte Nutzer sichtbar. Klicke hier um dich zu registrieren.]
    !!!Alle Anliegen bezüglich Uploads werden nur mit direktem Threadlink zum Angebot bearbeitet!!!

    Re-Uploadanfragen nur per PN - Ihr könnt mir auch Listen schicken

    Re-Uploads folgen nach Anfrage meist am Wochenende

    [Links sind nur für registrierte und aktivierte Nutzer sichtbar. Klicke hier um dich zu registrieren.] | [Links sind nur für registrierte und aktivierte Nutzer sichtbar. Klicke hier um dich zu registrieren.] | >[Links sind nur für registrierte und aktivierte Nutzer sichtbar. Klicke hier um dich zu registrieren.]<
    [Links sind nur für registrierte und aktivierte Nutzer sichtbar. Klicke hier um dich zu registrieren.]

  2. 39 Benutzer sagen Danke:

    ani212 (9. October 2016),BlackWidow (26. July 2016),chris1989 (13. October 2016),Conopas (23. July 2016),CrmnlBT (28. July 2016),CROYAL (19. October 2016),damn10 (31. August 2016),Deadman_01 (2. October 2016),DeathBeast88 (22. July 2016),galudo (19. July 2016),Gold_93 (21. September 2016),Griever (9. September 2016),Haftiabi Tefflondon (14. August 2016),Hiruja (6. September 2016),Holzmodem (28. September 2016),Kaan- (28. September 2016),KawaiiCookie (1. August 2016),kiks (10. September 2016),Kyuubi90 (23. October 2016),midnighter (23. August 2016),Mr.Shit (4. September 2016),Nyan (21. July 2016),Pappkamerad (19. October 2016),reysig (19. July 2016),Rhonos (10. November 2016),sanjiblubb (16. September 2016),Shadowa (8. November 2016),Shinon.Kagura (14. August 2016),Smitecrawler (12. August 2016),SnowboardRED (27. November 2016),sparx44 (6. October 2016),Supersick (10. September 2016),swagrid (24. October 2016),Taktix (10. September 2016),TheDarkJesus (13. November 2016),toxicrain (19. August 2016),warhammerx (29. September 2016),Xenom (21. August 2016),Zyltastic (8. October 2016)

  3. #2
    Freigeschalteter Otaku Avatar von MutationACE
    Registriert seit
    Nov 2015
    Ort
    Regensburg
    Beiträge
    39
    Punkte
    1.436
    Errungenschaften:
    Senpai1000 Erfahrungspunkte

    Dragonball Z [Ger-Eng-Jap-Dub][Eng-Sub][720p/1080p][BluRay][x264] -Mutaito



    Es ist nun vier Jahre her, seitdem Son-Goku den grünen Oberteufel Piccolo besiegt hat. Seitdem ist viel passiert und Son-Goku hat seine eigene kleine Familie mit Frau Chichi und Sohnemann Son-Gohan. Das idyllische Familienglück wird abrupt gestört, als auf der Erde plötzlich Außerirdische landen. Radditz, einer der Außerirdischen, erklärt Son-Goku, dass er sein Bruder sei und mit ihm zusammen weitere Welten erobern soll. Von Radditz erfährt Son-Goku auch, dass er ein Saiyajin ist und von einer weit entfernten Welt stammt. Als sich Son-Goku weigert zusammen mit Radditz andere Welten zu überfallen, entführt Radditz kurzerhand den jungen Son-Gohan, um Son-Goku zu einer Zusammenarbeit zu zwingen. Son-Goku macht sich nun auf, seinen Sohn zu befreien…
    Video Details:
    Sprache: Deutsch, Englisch, Japanisch (bei Deutsch: an geschnittenen Stellen Japanisch)
    Untertitel: Deutsch (Forced), Englisch
    Spieldauer: ca. 25 Minuten
    Gesamtgrösse: 1080p: 255 GB 720p: 147 GB
    Episodenanzahl: 291/291
    Gruppe: Mutaito
    Format: .mkv
    Hoster: Uploaded, Share-Online

    Geschützter Bereich - Bedanke dich beim Poster, um den Bereich sehen zu können
    Hier erfährst Du wie Du Dich bedanken kannst oder werde jetzt Premium Mitglied ab einer Spende von 5€ und erhalte sofortigen Zugriff auf den Downloadbereich!
    Geändert von MutationACE (22. June 2016 um 18:41 Uhr)
    [Links sind nur für registrierte und aktivierte Nutzer sichtbar. Klicke hier um dich zu registrieren.]

  4. 33 Benutzer sagen Danke:

    Aikanary (18. July 2016),BlackWidow (26. July 2016),CengiAz (14. July 2016),chr1570ph3r (1. September 2016),chris1989 (13. October 2016),Cloud9019 (27. June 2016),curse2302 (23. June 2016),damn10 (31. August 2016),Deadman_01 (2. October 2016),downloader_1987 (23. June 2016),falkenauge11 (5. July 2016),fullmetal1995 (24. June 2016),Gold_93 (16. October 2016),Griever (22. June 2016),Hanfos (17. July 2016),Hidikus (17. July 2016),Kaito_O (29. July 2016),kei (10. July 2016),kiks (10. September 2016),manuel4193 (22. June 2016),McZeRo (8. July 2016),MegaMacX (31. July 2016),mischacraft (16. July 2016),Mr.Shit (4. September 2016),msemi99 (8. July 2016),reysig (18. July 2016),ruffy1989 (14. July 2016),SilverSurferGT.de (11. July 2016),toxicrain (19. August 2016),warsnail (31. July 2016),WayneBrady (4. September 2016),xgokux (7. July 2016),Yatsu (4. July 2016)

  5. #3
    Kami-sama Avatar von galudo
    Registriert seit
    Mar 2015
    Beiträge
    1.371
    Punkte
    26.062
    Errungenschaften:
    TomodachisTagger ProfiHyperaktivSenpaiGang Leader

    Dragonball Z [Ger-Eng-Jap-Dub][Eng-Sub][720p/1080p][BluRay] - Mutaito

    Dragon Ball Z
    ドラゴンボールZ
    Dragonball Z




    Kurzbeschreibung:
    Zitat Zitat von AniSearch.com
    Es ist nun vier Jahre her, seitdem Son-Goku den grünen Oberteufel Piccolo besiegt hat. Seitdem ist viel passiert und Son-Goku hat seine eigene kleine Familie mit Frau Chichi und Sohnemann Son-Gohan. Das idyllische Familienglück wird abrupt gestört, als auf der Erde plötzlich Außerirdische landen. Radditz, einer der Außerirdischen, erklärt Son-Goku, dass er sein Bruder sei und mit ihm zusammen weitere Welten erobern soll. Von Radditz erfährt Son-Goku auch, dass er ein Saiyajin ist und von einer weit entfernten Welt stammt. Als sich Son-Goku weigert zusammen mit Radditz andere Welten zu überfallen, entführt Radditz kurzerhand den jungen Son-Gohan, um Son-Goku zu einer Zusammenarbeit zu zwingen. Son-Goku macht sich nun auf, seinen Sohn zu befreien...
    Spieldauer: 25min
    Genre: Fighting-Shounen
    Nebengenres: Abenteuer, Action, Fantasy, Fighting-Shounen, Komödie, Scifi
    Jahr: 1989
    Sprache: Deutsch, Englisch, Japanisch
    Untertitel: Deutsch(ForcedSubs), Englisch(FullSubs)
    Größe pro Folge: ~516 MiB ~893 MiB
    Source: BluRay
    Format: MKV
    Auflösung: 720p (16:9), 1080p (16:9)
    Videocodec: x264 (AVC)
    Audiocodec: AC-3
    Subgruppe / Releasegruppe: Mutaito

    Hoster: Share-Online | Uploaded
    Passwort: siehe unten

    Hinweis:
    Funimation hat Ende 2013 damit begonnen Dragonball Z auf BluRay zu veröffentlichen. Dabei wurde das Bildmaterial aufwändig aufbereitet.
    Dragonball Z erstrahlt in einer noch nie dagewesenen Qualität.

    MediaInfo
    720p
    Code:
    
    Format                                   : Matroska
    Format version                           : Version 2
    File size                                : 516 MiB
    Duration                                 : 24mn 16s
    Overall bit rate                         : 2 972 Kbps
    Movie name                               : Dragonball Z 001
    Encoded date                             : UTC 2015-09-24 17:18:04
    Writing application                      : mkvmerge v5.6.0 ('Kenya Kane') built on May 27 2012 16:44:04
    Writing library                          : libebml v1.2.3 + libmatroska v1.3.0
    
    Video
    ID                                       : 1
    Format                                   : AVC
    Format/Info                              : Advanced Video Codec
    Format profile                           : High [email protected]
    Format settings, CABAC                   : Yes
    Format settings, ReFrames                : 9 frames
    Muxing mode                              : Header stripping
    Codec ID                                 : V_MPEG4/ISO/AVC
    Duration                                 : 24mn 16s
    Bit rate                                 : 2 305 Kbps
    Width                                    : 1 280 pixels
    Height                                   : 720 pixels
    Display aspect ratio                     : 16:9
    Frame rate mode                          : Constant
    Frame rate                               : 23.976 fps
    Color space                              : YUV
    Chroma subsampling                       : 4:2:0
    Bit depth                                : 10 bits
    Scan type                                : Progressive
    Bits/(Pixel*Frame)                       : 0.104
    Stream size                              : 389 MiB (75%)
    Title                                    : [DHD][MeisterMutaito]
    Writing library                          : x264 core 146 r2538 121396c
    Encoding settings                        : cabac=1 / ref=9 / deblock=1:1:1 / analyse=0x3:0x133 / me=umh / subme=10 / psy=1 / psy_rd=0.40:0.00 / mixed_ref=1 / me_range=24 / chroma_me=1 / trellis=2 / 8x8dct=1 / cqm=0 / deadzone=21,11 / fast_pskip=1 / chroma_qp_offset=-2 / threads=9 / lookahead_threads=2 / sliced_threads=0 / nr=0 / decimate=1 / interlaced=0 / bluray_compat=0 / constrained_intra=0 / bframes=10 / b_pyramid=2 / b_adapt=2 / b_bias=0 / direct=3 / weightb=1 / open_gop=0 / weightp=2 / keyint=240 / keyint_min=23 / scenecut=40 / intra_refresh=0 / rc_lookahead=60 / rc=2pass / mbtree=1 / bitrate=2305 / ratetol=1.0 / qcomp=0.60 / qpmin=0 / qpmax=81 / qpstep=4 / cplxblur=20.0 / qblur=0.5 / vbv_maxrate=62500 / vbv_bufsize=78125 / nal_hrd=none / filler=0 / ip_ratio=1.40 / aq=1:0.60
    Language                                 : German
    Default                                  : Yes
    Forced                                   : No
    
    Audio #1
    ID                                       : 2
    Format                                   : AC-3
    Format/Info                              : Audio Coding 3
    Mode extension                           : CM (complete main)
    Format settings, Endianness              : Big
    Muxing mode                              : Header stripping
    Codec ID                                 : A_AC3
    Duration                                 : 24mn 16s
    Bit rate mode                            : Constant
    Bit rate                                 : 256 Kbps
    Channel(s)                               : 2 channels
    Channel positions                        : Front: L R
    Sampling rate                            : 48.0 KHz
    Compression mode                         : Lossy
    Stream size                              : 44.4 MiB (9%)
    Title                                    : AC3
    Language                                 : German
    Default                                  : Yes
    Forced                                   : No
    
    Audio #2
    ID                                       : 3
    Format                                   : AC-3
    Format/Info                              : Audio Coding 3
    Mode extension                           : CM (complete main)
    Format settings, Endianness              : Big
    Muxing mode                              : Header stripping
    Codec ID                                 : A_AC3
    Duration                                 : 24mn 16s
    Bit rate mode                            : Constant
    Bit rate                                 : 96.0 Kbps
    Channel(s)                               : 1 channel
    Channel positions                        : Front: C
    Sampling rate                            : 48.0 KHz
    Compression mode                         : Lossy
    Stream size                              : 16.7 MiB (3%)
    Title                                    : AC3
    Language                                 : Japanese
    Default                                  : No
    Forced                                   : No
    
    Audio #3
    ID                                       : 4
    Format                                   : AC-3
    Format/Info                              : Audio Coding 3
    Mode extension                           : CM (complete main)
    Format settings, Endianness              : Big
    Muxing mode                              : Header stripping
    Codec ID                                 : A_AC3
    Duration                                 : 24mn 16s
    Bit rate mode                            : Constant
    Bit rate                                 : 320 Kbps
    Channel(s)                               : 6 channels
    Channel positions                        : Front: L C R, Side: L R, LFE
    Sampling rate                            : 48.0 KHz
    Compression mode                         : Lossy
    Stream size                              : 55.5 MiB (11%)
    Title                                    : AC3
    Language                                 : English
    Default                                  : No
    Forced                                   : No
    
    Text #1
    ID                                       : 5
    Format                                   : ASS
    Codec ID                                 : S_TEXT/ASS
    Codec ID/Info                            : Advanced Sub Station Alpha
    Compression mode                         : Lossless
    Title                                    : Forced
    Language                                 : German
    Default                                  : Yes
    Forced                                   : No
    
    Text #2
    ID                                       : 6
    Format                                   : UTF-8
    Codec ID                                 : S_TEXT/UTF8
    Codec ID/Info                            : UTF-8 Plain Text
    Title                                    : Full
    Language                                 : English
    Default                                  : No
    Forced                                   : No
    
    


    1080p
    Code:
    
    Format                                   : Matroska
    Format version                           : Version 2
    File size                                : 893 MiB
    Duration                                 : 24mn 16s
    Overall bit rate                         : 5 145 Kbps
    Movie name                               : Dragonball Z 001
    Encoded date                             : UTC 2015-09-24 17:19:13
    Writing application                      : mkvmerge v5.6.0 ('Kenya Kane') built on May 27 2012 16:44:04
    Writing library                          : libebml v1.2.3 + libmatroska v1.3.0
    
    Video
    ID                                       : 1
    Format                                   : AVC
    Format/Info                              : Advanced Video Codec
    Format profile                           : [email protected]
    Format settings, CABAC                   : Yes
    Format settings, ReFrames                : 5 frames
    Muxing mode                              : Header stripping
    Codec ID                                 : V_MPEG4/ISO/AVC
    Duration                                 : 24mn 16s
    Bit rate                                 : 4 500 Kbps
    Width                                    : 1 920 pixels
    Height                                   : 1 080 pixels
    Display aspect ratio                     : 16:9
    Frame rate mode                          : Constant
    Frame rate                               : 23.976 fps
    Color space                              : YUV
    Chroma subsampling                       : 4:2:0
    Bit depth                                : 8 bits
    Scan type                                : Progressive
    Bits/(Pixel*Frame)                       : 0.091
    Stream size                              : 759 MiB (85%)
    Title                                    : [DHD][MeisterMutaito]
    Writing library                          : x264 core 133 r2334 a3ac64b
    Encoding settings                        : cabac=1 / ref=5 / deblock=1:0:0 / analyse=0x3:0x133 / me=umh / subme=7 / psy=1 / psy_rd=1.00:0.00 / mixed_ref=1 / me_range=18 / chroma_me=1 / trellis=1 / 8x8dct=1 / cqm=0 / deadzone=21,11 / fast_pskip=0 / chroma_qp_offset=-2 / threads=6 / lookahead_threads=1 / sliced_threads=0 / slices=4 / nr=0 / decimate=1 / interlaced=0 / bluray_compat=0 / constrained_intra=0 / bframes=3 / b_pyramid=2 / b_adapt=1 / b_bias=0 / direct=1 / weightb=1 / open_gop=0 / weightp=2 / keyint=240 / keyint_min=23 / scenecut=40 / intra_refresh=0 / rc_lookahead=50 / rc=abr / mbtree=1 / bitrate=4500 / ratetol=1.0 / qcomp=0.60 / qpmin=0 / qpmax=69 / qpstep=4 / ip_ratio=1.40 / aq=1:1.00
    Language                                 : German
    Default                                  : Yes
    Forced                                   : No
    
    Audio #1
    ID                                       : 2
    Format                                   : AC-3
    Format/Info                              : Audio Coding 3
    Mode extension                           : CM (complete main)
    Format settings, Endianness              : Big
    Muxing mode                              : Header stripping
    Codec ID                                 : A_AC3
    Duration                                 : 24mn 16s
    Bit rate mode                            : Constant
    Bit rate                                 : 256 Kbps
    Channel(s)                               : 2 channels
    Channel positions                        : Front: L R
    Sampling rate                            : 48.0 KHz
    Compression mode                         : Lossy
    Stream size                              : 44.4 MiB (5%)
    Title                                    : AC3
    Language                                 : German
    Default                                  : Yes
    Forced                                   : No
    
    Audio #2
    ID                                       : 3
    Format                                   : AC-3
    Format/Info                              : Audio Coding 3
    Mode extension                           : CM (complete main)
    Format settings, Endianness              : Big
    Muxing mode                              : Header stripping
    Codec ID                                 : A_AC3
    Duration                                 : 24mn 16s
    Bit rate mode                            : Constant
    Bit rate                                 : 96.0 Kbps
    Channel(s)                               : 1 channel
    Channel positions                        : Front: C
    Sampling rate                            : 48.0 KHz
    Compression mode                         : Lossy
    Stream size                              : 16.7 MiB (2%)
    Title                                    : AC3
    Language                                 : Japanese
    Default                                  : No
    Forced                                   : No
    
    Audio #3
    ID                                       : 4
    Format                                   : AC-3
    Format/Info                              : Audio Coding 3
    Mode extension                           : CM (complete main)
    Format settings, Endianness              : Big
    Muxing mode                              : Header stripping
    Codec ID                                 : A_AC3
    Duration                                 : 24mn 16s
    Bit rate mode                            : Constant
    Bit rate                                 : 320 Kbps
    Channel(s)                               : 6 channels
    Channel positions                        : Front: L C R, Side: L R, LFE
    Sampling rate                            : 48.0 KHz
    Compression mode                         : Lossy
    Stream size                              : 55.5 MiB (6%)
    Title                                    : AC3
    Language                                 : English
    Default                                  : No
    Forced                                   : No
    
    Text #1
    ID                                       : 5
    Format                                   : ASS
    Codec ID                                 : S_TEXT/ASS
    Codec ID/Info                            : Advanced Sub Station Alpha
    Compression mode                         : Lossless
    Title                                    : Forced
    Language                                 : German
    Default                                  : Yes
    Forced                                   : No
    
    Text #2
    ID                                       : 6
    Format                                   : UTF-8
    Codec ID                                 : S_TEXT/UTF8
    Codec ID/Info                            : UTF-8 Plain Text
    Title                                    : Full
    Language                                 : English
    Default                                  : No
    Forced                                   : No
    
    




    Folgen 291/291 online
    194 Parts bei 720p
    291 Parts bei 1080p



    || Download & Passwort ||


    Geschützter Bereich - Bedanke dich beim Poster, um den Bereich sehen zu können
    Hier erfährst Du wie Du Dich bedanken kannst oder werde jetzt Premium Mitglied ab einer Spende von 5€ und erhalte sofortigen Zugriff auf den Downloadbereich!

    Weiteres von Dragon Ball:
    [Links sind nur für registrierte und aktivierte Nutzer sichtbar. Klicke hier um dich zu registrieren.]
    [Links sind nur für registrierte und aktivierte Nutzer sichtbar. Klicke hier um dich zu registrieren.]
    [Links sind nur für registrierte und aktivierte Nutzer sichtbar. Klicke hier um dich zu registrieren.]
    [Links sind nur für registrierte und aktivierte Nutzer sichtbar. Klicke hier um dich zu registrieren.]
    [Links sind nur für registrierte und aktivierte Nutzer sichtbar. Klicke hier um dich zu registrieren.]
    [Links sind nur für registrierte und aktivierte Nutzer sichtbar. Klicke hier um dich zu registrieren.]
    [Links sind nur für registrierte und aktivierte Nutzer sichtbar. Klicke hier um dich zu registrieren.]
    [Links sind nur für registrierte und aktivierte Nutzer sichtbar. Klicke hier um dich zu registrieren.]

    SUPPORT UND REUP ANFRAGEN NUR >> [Links sind nur für registrierte und aktivierte Nutzer sichtbar. Klicke hier um dich zu registrieren.] <<
    Bitte IMMER den Thread-Link mitschicken.

  6. 5 Benutzer sagen Danke:

    damn10 (17. October 2016),Das-Ying (26. November 2016),Deadman_01 (2. October 2016),Gold_93 (16. October 2016),maevin (3. December 2016)

Lesezeichen

Berechtigungen

  • Neue Themen erstellen: Nein
  • Themen beantworten: Nein
  • Anhänge hochladen: Nein
  • Beiträge bearbeiten: Nein
  •  

1 2 3 4 5 6 7 8 9 10 11 12 13 14 15 16 17 18 19 20 21 22 23 24 25 26 27 28 29 30 31 32 33 34 35 36 37 38 39 40 41 42 43 44 45 46 47 48 49 50 51 52 53 54 55 56 57 58 59 60 61 62 63 64 65 66 67 68 69 70 71 72 73 74 75 76 77 78 79 80 81 82 83 84 85 86 87 88 89 90 91 92 93 94 95 96 97 98 99 100 101 102 103 104 105 106 107 108 109 110 111 112 113 114 115 116 117 118 119 120 121 122 123 124 125 126 127 128 129 130 131 132 133 134 135 136 137 138 139 140 141 142 143 144 145 146 147 148 149 150 151 152 153 154 155 156 157 158