Ergebnis 1 bis 2 von 2

Thema: Dragonball / Z / GT / KAI [Ger/Eng/Jap-Dub][Ger/Eng-Sub][DVDRIP]

Dieser Thread wurde durchschnittlich mit 5 Sternen bewertet, wobei 1 Stern die schlechteste und 5 Sterne die beste Bewertung ist. Es haben insgesamt 4 Mitglieder eine Bewertung abgegeben.

  1. #1
    Neuling auf Bewährung
    Registriert seit
    Aug 2014
    Beiträge
    9
    Punkte
    2.975
    Errungenschaften:
    1000 ErfahrungspunkteHikikomori

    Dragonball / Z / GT / KAI [Ger/Eng/Jap-Dub][Ger/Eng-Sub][DVDRIP]

    Dragonball / Z / GT / KAI in SD! mit Dual Audio

    Dragonball 1-153 Uncut



    Laufzeit: ca. 20 Minuten pro Folge
    Sprache/n: Deutsch , Japanisch
    Untertitel: Englisch
    Video: 640x480 / H264 / mkv
    Audio: MP3 / 48.0KHz / 2ch


    Beschreibung:
    Die phantastische Geschichte von Dragon Ball beginnt vor langer Zeit. Tausende Kilometer von der Hauptstadt eines kleinen asiatischen
    Reiches entfernt, tief in den Bergen. Dort lebt Son-Goku, ein kleiner, aber sehr kräftiger Kerl mit einem praktischen Affenschwänzchen.
    Seit dem Tod seinen Großvaters, Son-Gohan, verbringt er seine einsamen Tage mit unkonventionellem Kampfsporttraining und nicht
    minder seltsamen Arten der Nahrungsbeschaffung. Son-Goku vermisst nichts und niemanden – bis plötzlich Bulma auftaucht. Sie stammt
    aus einer für Son-Goku fremden Welt voll von anderen Menschen und unfassbaren Wundergeräten und sie ist – Wahnsinn! – ein Mädchen.
    Für Son-Goku, der noch nie ein Mädchen gesehen hat, also quasi ein Wesen von einem anderen Stern. Nach dem ersten kurzen und
    dramatischen Zusammentreffen der beiden, erfährt Son-Goku, was Bulma in diese abgelegene Gegend geführt hat: Sie ist auf der Suche
    nach den sieben Dragon Balls, den wunderbaren Drachenkugeln...

    nfo:

    Spoiler
    Code:
     General
    Format                         : Matroska
    Format version                 : Version 1
    File size                      : 170 MiB
    Duration                       : 19mn 52s
    Overall bit rate               : 1 196 Kbps
    Movie name                     : DB Uncut (Released by Phantom1)
    Encoded date                   : UTC 2008-01-04 15:45:57
    Writing application            : mkvmerge v1.6.5 ('Watcher Of The Skies') built on Mar 17 2006 17:24:57
    Writing library                : libebml v0.7.6 + libmatroska v0.8.0
    
    Video
    ID                             : 1
    Format                         : AVC
    Format/Info                    : Advanced Video Codec
    Format profile                 : [email protected]
    Format settings, CABAC         : Yes
    Format settings, ReFrames      : 8 frames
    Codec ID                       : V_MPEG4/ISO/AVC
    Duration                       : 19mn 52s
    Bit rate                       : 1 000 Kbps
    Width                          : 640 pixels
    Height                         : 480 pixels
    Display aspect ratio           : 4:3
    Frame rate mode                : Constant
    Frame rate                     : 25.000 fps
    Color space                    : YUV
    Chroma subsampling             : 4:2:0
    Bit depth                      : 8 bits
    Scan type                      : Progressive
    Bits/(Pixel*Frame)             : 0.130
    Stream size                    : 139 MiB (82%)
    Writing library                : x264 core 56 svn-667
    Encoding settings              : cabac=1 / ref=5 / deblock=1:1:1 / analyse=0x3:0x133 / me=umh / subme=6 / brdo=1 / mixed_ref=1 / me_range=16 / chroma_me=1 / trellis=1 / 8x8dct=1 / cqm=0 / deadzone=21,11 / chroma_qp_offset=0 / threads=3 / nr=0 / decimate=0 / mbaff=0 / bframes=2 / b_pyramid=1 / b_adapt=1 / b_bias=0 / direct=1 / wpredb=1 / bime=1 / keyint=250 / keyint_min=25 / scenecut=40(pre) / rc=2pass / bitrate=1000 / ratetol=1,0 / rceq='blurCplx^(1-qComp)' / qcomp=0,60 / qpmin=10 / qpmax=51 / qpstep=4 / cplxblur=20,0 / qblur=0,5 / ip_ratio=1,40 / pb_ratio=1,30
    Language                       : Japanese
    Default                        : Yes
    Forced                         : No
    
    Audio #1
    ID                             : 2
    Format                         : MPEG Audio
    Format version                 : Version 1
    Format profile                 : Layer 3
    Codec ID                       : A_MPEG/L3
    Codec ID/Hint                  : MP3
    Duration                       : 19mn 52s
    Bit rate mode                  : Constant
    Bit rate                       : 96.0 Kbps
    Channel count                  : 1 channel
    Sampling rate                  : 48.0 KHz
    Compression mode               : Lossy
    Stream size                    : 13.6 MiB (8%)
    Writing library                : LAME3.97 
    Encoding settings              : -m m -V 4 -q 2 -lowpass 20.5 -b 96
    Language                       : German
    Default                        : Yes
    Forced                         : No
    
    Audio #2
    ID                             : 3
    Format                         : MPEG Audio
    Format version                 : Version 1
    Format profile                 : Layer 3
    Codec ID                       : A_MPEG/L3
    Codec ID/Hint                  : MP3
    Duration                       : 19mn 52s
    Bit rate mode                  : Constant
    Bit rate                       : 96.0 Kbps
    Channel count                  : 1 channel
    Sampling rate                  : 48.0 KHz
    Compression mode               : Lossy
    Stream size                    : 13.6 MiB (8%)
    Writing library                : LAME3.97 
    Encoding settings              : -m m -V 4 -q 2 -lowpass 20.5 -b 96
    Language                       : Japanese
    Default                        : No
    Forced                         : No
    
    Text
    ID                             : 4
    Format                         : UTF-8
    Codec ID                       : S_TEXT/UTF8
    Codec ID/Info                  : UTF-8 Plain Text
    Language                       : English
    Default                        : Yes
    Forced                         : No



    Größe: Single Parts / ~ 0,2 GB pro Episode / ~28 GB Gesamt
    Passwort: kein Passwort

    Staffel komplett online!

    Download@ Uploaded.to, Share-Online.biz

    Geschützter Bereich - Bedanke dich beim Poster, um den Bereich sehen zu können
    Hier erfährst Du wie Du Dich bedanken kannst oder werde jetzt Premium Mitglied ab einer Spende von 5€ und erhalte sofortigen Zugriff auf den Downloadbereich!






    Dragonball Kai



    Laufzeit: ca. 20 Minuten pro Folge
    Sprache/n: Deutsch , Japanisch
    Video: 720x400 / H264 / mkv
    Audio: MP3 / 48.0KHz / 2ch

    Beschreibung:

    Dabei wurde die Serie in mehreren Aspekten überarbeitet und wird nun vor allem unter dem Namen Dragonball Kai
    der Handlung des Mangas genau folgen, die nunmehr nicht durch Fillerepisoden unterbrochen werden, die in der
    Originalausstrahlung zur Streckung des Inhalts eingefügt wurden, wann immer die Handlung des Animes der des parallel
    in der Weekly Shonen Jump veröffentlichten Mangas aufschloss.

    Die Handlung der Neufassung beginnt mit Inhalten aus dem Fernsehspecial, das in Deutschland auf DVD unter dem Titel
    Das Bardock Special erschien und zeigt den Tod von Son-Gokus leiblichem Vater und der Vernichtung der Saiyajin durch
    Freezer und enthält zur Einleitung auch Footages aus der ersten Fernsehserie, um Son-Gokus Vorgeschichte auf der Erde
    zu zeigen, ehe die eigentliche Handlung zum gleichen Zeitpunkt wie im Original einsetzt.

    nfo:

    Spoiler
    Code:
    General
    Complete name                  : Dragonball.Kai.01.Der.Vorhang.oeffnet.sich.fuer.den.Kampf.Son-Goku.kehrt.zurueck.avi
    Format                         : AVI
    Format/Info                    : Audio Video Interleave
    File size                      : 250 MiB
    Duration                       : 23mn 23s
    Overall bit rate mode          : Variable
    Overall bit rate               : 1 494 Kbps
    Writing application            : VirtualDubMod 1.5.10.2 (build 2540/release)
    Writing library                : VirtualDubMod build 2540/release
    
    
    
    Video
    ID                             : 0
    Format                         : MPEG-4 Visual
    Format profile                 : Advanced [email protected]
    Format settings, BVOP          : Yes
    Format settings, QPel          : No
    Format settings, GMC           : No warppoints
    Format settings, Matrix        : Default (H.263)
    Codec ID                       : XVID
    Codec ID/Hint                  : XviD
    Duration                       : 23mn 23s
    Bit rate                       : 1 180 Kbps
    Width                          : 720 pixels
    Height                         : 400 pixels
    Display aspect ratio           : 16:9
    Frame rate                     : 23.976 fps
    Color space                    : YUV
    Chroma subsampling             : 4:2:0
    Bit depth                      : 8 bits
    Scan type                      : Progressive
    Compression mode               : Lossy
    Bits/(Pixel*Frame)             : 0.171
    Stream size                    : 198 MiB (79%)
    Writing library                : XviD 1.2.1 (UTC 2008-12-04)
    
    
    
    Audio #1
    ID                             : 1
    Format                         : MPEG Audio
    Format version                 : Version 1
    Format profile                 : Layer 3
    Mode                           : Joint stereo
    Mode extension                 : MS Stereo
    Codec ID                       : 55
    Codec ID/Hint                  : MP3
    Duration                       : 23mn 23s
    Bit rate mode                  : Variable
    Bit rate                       : 128 Kbps
    Minimum bit rate               : 32.0 Kbps
    Channel(s)                     : 2 channels
    Sampling rate                  : 48.0 KHz
    Compression mode               : Lossy
    Stream size                    : 21.4 MiB (9%)
    Alignment                      : Aligned on interleaves
    Interleave, duration           : 24 ms (0.58 video frame)
    Interleave, preload duration   : 156 ms
    Writing library                : LAME3.98 
    Encoding settings              : -m j -V 2 -q 0 -lowpass 18.5 --vbr-new -b 32
    
    Audio #2
    ID                             : 2
    Format                         : MPEG Audio
    Format version                 : Version 1
    Format profile                 : Layer 3
    Mode                           : Joint stereo
    Mode extension                 : MS Stereo
    Codec ID                       : 55
    Codec ID/Hint                  : MP3
    Duration                       : 23mn 23s
    Bit rate mode                  : Variable
    Bit rate                       : 165 Kbps
    Minimum bit rate               : 32.0 Kbps
    Channel(s)                     : 2 channels
    Sampling rate                  : 48.0 KHz
    Compression mode               : Lossy
    Stream size                    : 27.7 MiB (11%)
    Alignment                      : Aligned on interleaves
    Interleave, duration           : 24 ms (0.58 video frame)
    Interleave, preload duration   : 111 ms
    Writing library                : LAME3.98 
    Encoding settings              : -m j -V 2 -q 0 -lowpass 18.5 --vbr-new -b 32


    Größe: Single Parts / ~ 0,2 GB pro Episode / ~24 GB Gesamt
    Passwort: kein Passwort

    Staffel komplett online!

    Download@ Uploaded.to, Share-Online.biz

    Geschützter Bereich - Bedanke dich beim Poster, um den Bereich sehen zu können
    Hier erfährst Du wie Du Dich bedanken kannst oder werde jetzt Premium Mitglied ab einer Spende von 5€ und erhalte sofortigen Zugriff auf den Downloadbereich!






    Dragonball GT



    Laufzeit: ca. 20 Minuten pro Folge
    Sprache/n: Deutsch , Englisch , Japanisch
    Untertitel: Deutsch , Englisch
    Video: 640x480 / H264 / mkv
    Audio: MP3 / 48.0KHz / 2ch

    Beschreibung:

    Dragonball GT spielt zehn Jahre nach dem Ende von Dragonball Z. Der Bösewicht Pilaf ist immer noch auf Suche nach
    den Dragonballs und will damit die Weltherrschaft erlangen. Er stößt dabei auf die Black Star Dragonballs, die den
    Dragonballs zwar sehr ähnlich sind, jedoch auch dunkle Kräfte besitzen. Durch einen Unfall wünscht er sich von dem
    Drachen Shen Long, der einen Wunsch erfüllt, sobald man sieben Dragonballs zusammen hat, nicht die Weltherrschaft,
    sondern die Verwandlung von Son-Goku in ein Kind. Der Wunsch wird ihm erfüllt und Son-Goku schrumpft in sein junges
    Selbst - doch zum Glück bleibt Son-Goku der größte Teil seiner Kraft erhalten. Son-Goku versucht nun die sieben Black
    Star Dragonballs zu finden, um sein normales Alter zurückzuerhalten. Findet man außerdem die Black Star Dragonballs
    nicht innerhalb eines Jahres, wird die Erde zerstört. Bloß sind diese Dragonballs nicht alle auf der Erde, sondern irgendwo
    auf fremden Planeten im Universum verstreut und so beginnt die Reise...

    Nfo:

    Spoiler
    Code:
    General
    Unique ID                      : 254876829619314701417015747980538344478 (0xBFBF7DE8889E66F6B0A19A9069EEF41E)
    Complete name                  : Dragonball.GT.01.Ein.fataler.Wunsch.mkv
    Format                         : Matroska
    Format version                 : Version 1
    File size                      : 117 MiB
    Duration                       : 20mn 44s
    Overall bit rate               : 787 Kbps
    Encoded date                   : UTC 2009-01-10 16:21:49
    Writing application            : mkvmerge v2.4.1 ('Use Me') built on Dec  5 2008 18:30:05
    Writing library                : libebml v0.7.7 + libmatroska v0.8.1
    
    Video
    ID                             : 1
    Format                         : AVC
    Format/Info                    : Advanced Video Codec
    Format profile                 : [email protected]
    Format settings, CABAC         : Yes
    Format settings, ReFrames      : 8 frames
    Codec ID                       : V_MPEG4/ISO/AVC
    Duration                       : 20mn 44s
    Nominal bit rate               : 500 Kbps
    Width                          : 640 pixels
    Height                         : 480 pixels
    Display aspect ratio           : 4:3
    Frame rate mode                : Constant
    Frame rate                     : 23.976 fps
    Color space                    : YUV
    Chroma subsampling             : 4:2:0
    Bit depth                      : 8 bits
    Scan type                      : Progressive
    Bits/(Pixel*Frame)             : 0.068
    Writing library                : x264 core 65 r1040M 1591275
    Default                        : Yes
    Forced                         : No
    
    Audio #1
    ID                             : 2
    Format                         : AAC
    Format/Info                    : Advanced Audio Codec
    Format profile                 : LC
    Codec ID                       : A_AAC
    Duration                       : 20mn 44s
    Channel(s)                     : 2 channels
    Channel positions              : Front: L R
    Sampling rate                  : 48.0 KHz
    Compression mode               : Lossy
    Language                       : German
    Default                        : Yes
    Forced                         : No
    
    Audio #2
    ID                             : 3
    Format                         : AAC
    Format/Info                    : Advanced Audio Codec
    Format profile                 : HE-AAC / LC
    Codec ID                       : A_AAC
    Duration                       : 20mn 44s
    Channel(s)                     : 2 channels
    Channel positions              : Front: L R
    Sampling rate                  : 48.0 KHz / 24.0 KHz
    Compression mode               : Lossy
    Language                       : English
    Default                        : No
    Forced                         : No
    
    Audio #3
    ID                             : 4
    Format                         : AAC
    Format/Info                    : Advanced Audio Codec
    Format profile                 : HE-AAC / LC
    Codec ID                       : A_AAC
    Duration                       : 20mn 44s
    Channel(s)                     : 2 channels
    Channel positions              : Front: L R
    Sampling rate                  : 48.0 KHz / 24.0 KHz
    Compression mode               : Lossy
    Language                       : English
    Default                        : No
    Forced                         : No
    
    Audio #4
    ID                             : 5
    Format                         : AAC
    Format/Info                    : Advanced Audio Codec
    Format profile                 : LC
    Codec ID                       : A_AAC
    Duration                       : 20mn 44s
    Channel(s)                     : 1 channel
    Channel positions              : Front: C
    Sampling rate                  : 48.0 KHz
    Compression mode               : Lossy
    Language                       : Japanese
    Default                        : No
    Forced                         : No
    
    Text #1
    ID                             : 6
    Format                         : UTF-8
    Codec ID                       : S_TEXT/UTF8
    Codec ID/Info                  : UTF-8 Plain Text
    Language                       : English
    Default                        : No
    Forced                         : No
    
    Text #2
    ID                             : 7
    Format                         : UTF-8
    Codec ID                       : S_TEXT/UTF8
    Codec ID/Info                  : UTF-8 Plain Text
    Language                       : German
    Default                        : Yes
    Forced                         : No




    Größe: Single Parts / ~ 0,2 GB pro Episode / ~8,5 GB Gesamt
    Passwort: kein Passwort

    Staffel komplett online!

    Download@ Uploaded.to, Share-Online.biz

    Geschützter Bereich - Bedanke dich beim Poster, um den Bereich sehen zu können
    Hier erfährst Du wie Du Dich bedanken kannst oder werde jetzt Premium Mitglied ab einer Spende von 5€ und erhalte sofortigen Zugriff auf den Downloadbereich!






    Dragonball Z



    Laufzeit: ca. 20 Minuten pro Folge
    Sprache/n: Deutsch , Englisch , Japanisch
    Untertitel: Deutsch , Englisch
    Video: 720x480 / H264 / mkv
    Audio: MP3 / 48.0KHz / 2ch

    Beschreibung

    Son-Goku, inzwischen mit Chichi verheiratet und Vater von Son-Gohan, erhält Besuch von seinem Bruder Radditz.
    Er erfährt, dass er vom Planeten Vegeta stammt, ein Saiya-jin ist und ursprünglich mit der Mission die Erde zu erobern
    losgeschickt wurde. Weil Son-Goku jedoch als Junge in eine Schlucht stürzte und sein Gedächtnis verlor, konnte er sich
    an seinen Auftrag nicht mehr erinnern und genoss eine mehr oder minder normale Jugend bei seinem „Adoptiv“-Großvater,
    der ihn die Kampfkunst lehrte. Radditz erinnert Son-Goku an seine eigentliche Mission, doch er stößt auf wenig Gegenliebe
    und das „Dragon-Ball-Z“-Abenteuer kann beginnen.

    Nfo:

    Spoiler
    Code:
    General
    Unique ID                      : 233589728617954684110798635563342510016 (0xAFBBBECC49474118A7E3AEBE247E37C0)
    Complete name                  : Dragonball.Z.001.Ein.ausserirdischer.Krieger.mkv
    Format                         : Matroska
    Format version                 : Version 4 / Version 2
    File size                      : 162 MiB
    Duration                       : 19mn 53s
    Overall bit rate               : 1 140 Kbps
    Encoded date                   : UTC 2013-09-06 07:33:18
    Writing application            : mkvmerge v6.3.0 ('You can't stop me!') built on Jun 28 2013 20:09:41
    Writing library                : libebml v1.3.0 + libmatroska v1.4.0
    
    Video
    ID                             : 1
    Format                         : AVC
    Format/Info                    : Advanced Video Codec
    Format profile                 : [email protected]
    Format settings, CABAC         : Yes
    Format settings, ReFrames      : 11 frames
    Codec ID                       : V_MPEG4/ISO/AVC
    Duration                       : 19mn 53s
    Bit rate                       : 850 Kbps
    Width                          : 720 pixels
    Height                         : 480 pixels
    Display aspect ratio           : 16:9
    Original display aspect ratio  : 3:2
    Frame rate mode                : Constant
    Frame rate                     : 25.000 fps
    Standard                       : NTSC
    Color space                    : YUV
    Chroma subsampling             : 4:2:0
    Bit depth                      : 8 bits
    Scan type                      : Progressive
    Bits/(Pixel*Frame)             : 0.098
    Stream size                    : 118 MiB (73%)
    Writing library                : x264 core 54 rev 600
    Language                       : Japanese
    Default                        : Yes
    Forced                         : No
    
    Audio #1
    ID                             : 2
    Format                         : MPEG Audio
    Format version                 : Version 1
    Format profile                 : Layer 3
    Codec ID                       : A_MPEG/L3
    Codec ID/Hint                  : MP3
    Duration                       : 19mn 53s
    Bit rate mode                  : Constant
    Bit rate                       : 80.0 Kbps
    Channel(s)                     : 1 channel
    Sampling rate                  : 48.0 KHz
    Compression mode               : Lossy
    Stream size                    : 11.4 MiB (7%)
    Writing library                : LAME3.92
    Language                       : German
    Default                        : Yes
    Forced                         : No
    
    Audio #2
    ID                             : 3
    Format                         : MPEG Audio
    Format version                 : Version 1
    Format profile                 : Layer 3
    Mode                           : Joint stereo
    Mode extension                 : MS Stereo
    Codec ID                       : A_MPEG/L3
    Codec ID/Hint                  : MP3
    Duration                       : 19mn 53s
    Bit rate mode                  : Constant
    Bit rate                       : 128 Kbps
    Channel(s)                     : 2 channels
    Sampling rate                  : 48.0 KHz
    Compression mode               : Lossy
    Stream size                    : 18.2 MiB (11%)
    Writing library                : LAME3.97 
    Encoding settings              : -m j -V 4 -q 2 -lowpass 17 -b 128
    Language                       : English
    Default                        : No
    Forced                         : No
    
    Audio #3
    ID                             : 4
    Format                         : MPEG Audio
    Format version                 : Version 1
    Format profile                 : Layer 3
    Codec ID                       : A_MPEG/L3
    Codec ID/Hint                  : MP3
    Duration                       : 19mn 53s
    Bit rate mode                  : Constant
    Bit rate                       : 80.0 Kbps
    Channel(s)                     : 1 channel
    Sampling rate                  : 48.0 KHz
    Compression mode               : Lossy
    Stream size                    : 11.4 MiB (7%)
    Writing library                : LAME3.97 
    Encoding settings              : -m m -V 4 -q 2 -lowpass 20.3 -b 80
    Language                       : Japanese
    Default                        : No
    Forced                         : No
    
    Text #1
    ID                             : 5
    Format                         : UTF-8
    Codec ID                       : S_TEXT/UTF8
    Codec ID/Info                  : UTF-8 Plain Text
    Language                       : German
    Default                        : Yes
    Forced                         : No
    
    Text #2
    ID                             : 6
    Format                         : UTF-8
    Codec ID                       : S_TEXT/UTF8
    Codec ID/Info                  : UTF-8 Plain Text
    Language                       : English
    Default                        : No
    Forced                         : No


    Größe: Single Parts / ~ 0,2 GB pro Episode / ~55 GB Gesamt
    Passwort: kein Passwort

    Staffel komplett online!

    Download@ Uploaded.to, Share-Online.biz

    Geschützter Bereich - Bedanke dich beim Poster, um den Bereich sehen zu können
    Hier erfährst Du wie Du Dich bedanken kannst oder werde jetzt Premium Mitglied ab einer Spende von 5€ und erhalte sofortigen Zugriff auf den Downloadbereich!

    Geändert von Duffed (1. March 2016 um 08:30 Uhr)

  2. 238 Benutzer sagen Danke:

    Anzeigen

    4w4cs (28. July 2016),Ace360 (16. March 2015),Agros (16. March 2015),Aikanary (20. August 2015),Alcinoe (14. October 2015),Amraam (15. August 2015),Androkai (18. August 2016),Angel86 (6. May 2015),Anime-Watcher (22. April 2015),animefreak87 (27. June 2015),Animejunkie (7. January 2016),AniStar (30. November 2015),Antipott (22. March 2015),Asgar001 (9. May 2015),atha87 (27. April 2015),atomchind (16. April 2016),Azuya (30. March 2015),azzrah0815 (20. November 2015),Badrap_90 (6. December 2015),Bankuryu (21. April 2015),bayerle92 (24. April 2016),beast27 (16. February 2016),Besen 48 (19. May 2016),BK-201 (7. August 2016),Blackdragon1702 (28. September 2015),blutmaster_inactive (14. April 2015),Bob2019 (22. October 2015),BobaColgateTotal (24. March 2016),Buffy.P (25. October 2016),Cena90 (5. August 2015),chr1570ph3r (30. October 2016),christian1980-2012 (5. November 2015),Ciddy (23. July 2015),Cloud002 (22. July 2015),colorado109 (28. March 2015),Coolwars (10. July 2016),Corntendo (14. October 2015),curse2302 (11. April 2015),cyberbadghost (23. March 2016),Cy_Baer (1. March 2016),darkangel92 (29. April 2016),DarkPunisher (27. November 2015),Darkrain (2. May 2015),Darktrance (8. April 2015),DaWayne (16. April 2016),DBounce (6. January 2016),Deedo320 (21. December 2015),DeNoiser (15. September 2015),derrettich (21. August 2015),DieEnte5000 (20. April 2016),Direnbander (11. September 2015),dmc4life (26. March 2015),Domaru (13. November 2015),downloader_1987 (22. July 2015),Dreieckhard (16. March 2015),Drezzo (28. March 2015),drparnassus (16. March 2015),egon1212 (16. April 2016),Eight (22. August 2015),empty0 (18. March 2015),EngelEatos (26. July 2016),eponu_inactive (21. March 2015),eraz (11. May 2015),FantasticZ (29. March 2015),Feaky (30. March 2015),Flint (25. September 2015),fratzeyo (3. September 2015),freakwatcher (1. November 2015),Freak_1Anime_inactive (2. July 2015),gaensePeter24 (20. March 2015),galudo (12. May 2015),Gisol888 (13. September 2015),Gjco (15. March 2016),Goki.Grokus (6. August 2016),GomuGomuNoRedHawk (23. March 2016),Grom (16. April 2016),Guest7778 (24. March 2016),gusser_inactive (17. August 2015),Haku89 (13. May 2016),haltdiefresse (16. March 2015),Himuckel (6. September 2015),Hirs_E_Fruit (3. March 2016),hisoka suzuya (30. April 2015),Hitokiri86 (7. March 2016),Hixx (27. March 2015),Hollow-Ichigo (24. March 2015),Hyro (17. May 2016),IBlackstar (29. August 2015),Ichbineinninja (12. October 2015),icloudmax (10. December 2015),igor254 (23. April 2015),Issey_Hyodo (12. May 2016),JackyMono (17. June 2015),janik2009 (3. July 2016),Jukka (23. September 2016),julian.schuh (6. May 2016),kei (17. July 2016),Keiler (5. October 2015),kenxxx (11. June 2016),kiks (14. July 2015),Kingkollos_inactive (20. March 2015),Kira7 (5. December 2015),KlexX (7. April 2015),Kradus (1. November 2015),krasserGaul (31. July 2015),Kuon_inactive (11. July 2015),KyojinZeo (4. May 2015),Leetroll (20. March 2015),Lordnicon_inactive (9. May 2015),lyrianbz (18. April 2015),ma93re (27. May 2016),mactivity_inactive (15. April 2015),Maggotcarrier (26. April 2015),malina (3. April 2015),Manuk (16. May 2016),Maretheyu (1. May 2015),Matzehansa (24. June 2015),MCRFG (1. March 2016),McZeRo (7. July 2015),megabumer (30. January 2016),Mein_ACC01 (13. September 2015),Melijal (6. April 2015),Memati53 (14. April 2015),Miauundso (8. August 2015),michael187 (21. February 2016),midnighter (18. March 2015),Miharu (20. March 2016),Miiko_Chan (19. August 2015),Miles360 (17. March 2015),mischacraft (10. July 2016),Moltisanti (19. August 2015),mp42 (20. July 2015),mrtheloe (2. April 2015),msemi99 (8. July 2016),mukador (3. May 2016),Multiking (8. March 2016),MutationACE (13. March 2016),Nanatzusaya (15. August 2015),neeoon_inactive (28. March 2015),Neofite (14. August 2016),Nico (25. July 2015),Niggoh23 (11. March 2016),noizmaker (4. March 2016),nss89_inactive (17. March 2015),nyuuke (27. March 2015),ohlong (24. November 2015),Olligatoor (26. April 2015),ottang (23. November 2015),OwenJackson (3. February 2016),padey (14. January 2016),passi (16. March 2015),Patorikku-kun (24. April 2015),Physicaligraphy (22. March 2015),plzbugmenot_inactive (16. July 2015),poker.freak (6. September 2015),Praxas (8. April 2016),prinzvegeta (16. May 2015),PS Freak (3. May 2015),pyronik (7. September 2015),Quetzal Coatl (6. April 2015),r3voluz3r (13. October 2015),Ratzu (10. December 2015),re.tischi (15. December 2015),Reaper1 (2. August 2016),ReGGiZz (26. April 2015),rinnegan93 (11. November 2016),Roxas-chan (9. March 2016),Roysento (21. March 2015),Rumpi_inactive (17. March 2015),Ryu03 (26. April 2015),RyuLelouch (28. October 2015),san1n (31. August 2016),Sandy7580 (16. July 2015),Sanubo (17. July 2015),Scampy (22. March 2015),Schun (25. July 2016),Schwarzer_Wolf (26. March 2015),Scorch (20. April 2015),Scorpionlord88 (31. January 2016),ScOulY (9. June 2016),SerienStream (23. March 2015),serjoscha (25. March 2016),Sevion (23. March 2015),Sgoku (9. July 2015),ShadowFox (25. March 2016),shawn10398 (30. May 2016),Shirayah (22. March 2016),sinx91 (12. June 2015),Smasher25 (1. May 2016),Smitecrawler (26. June 2016),SmokingTea (9. March 2016),SnowboardRED (5. April 2015),SnowCat (5. April 2015),SONNYxq (5. May 2015),spielmacher9 (9. June 2016),Steinauge (22. March 2015),streicherishere (5. September 2015),Subroutine (17. March 2015),Superzorro (20. June 2016),Sylux (7. October 2015),t3ufel (29. March 2015),Taku (28. June 2016),Tarlysin (17. July 2016),thegroudge (17. March 2015),TheKremsi_inactive (16. May 2015),thereverend (16. March 2015),The_Other_One (28. September 2015),Tidus18 (17. June 2015),tokyodrift (16. March 2015),toxicrain (1. August 2016),TrM (21. March 2015),Truster (27. January 2016),Tsukihime (25. March 2016),TUROcKK (17. July 2015),Ulfhednir (16. March 2016),UndeadBan (23. June 2016),User347 (17. October 2015),Vastolord (6. August 2016),Vivere (8. April 2015),Voodoolol (13. April 2016),Wakaba (31. July 2015),walda191 (23. March 2015),warsnail (31. July 2016),Watashisan (24. March 2015),wddb (19. March 2016),Windwusel (2. February 2016),winni2000 (2. April 2016),xhellsingx (18. March 2015),Xidor (4. August 2015),Xxchetahx (28. June 2016),xXGaldorXx (24. April 2015),YamiXGhost (16. March 2015),Yasuhan (3. January 2016),ZER0XIII (20. June 2016),ZeroX6 (2. May 2015),Zeroxar (20. April 2015),zockerboy (16. May 2015)

  3. #2
    Neuling auf Bewährung
    Registriert seit
    Aug 2014
    Beiträge
    9
    Punkte
    2.975
    Errungenschaften:
    1000 ErfahrungspunkteHikikomori

    AW: Dragonball / Z / GT / KAI [Ger/Eng/Jap-Dub][Ger/Eng-Sub][DVDRIP]

    Wieder online

  4. 3 Benutzer sagen Danke:

    BK-201 (7. August 2016),Issey_Hyodo (12. May 2016),wddb (19. March 2016)

Lesezeichen

Berechtigungen

  • Neue Themen erstellen: Nein
  • Themen beantworten: Nein
  • Anhänge hochladen: Nein
  • Beiträge bearbeiten: Nein
  •  

1 2 3 4 5 6 7 8 9 10 11 12 13 14 15 16 17 18 19 20 21 22 23 24 25 26 27 28 29 30 31 32 33 34 35 36 37 38 39 40 41 42 43 44 45 46 47 48 49 50 51 52 53 54 55 56 57 58 59 60 61 62 63 64 65 66 67 68 69 70 71 72 73 74 75 76 77 78 79 80 81 82 83 84 85 86 87 88 89 90 91 92 93 94 95 96 97 98 99 100 101 102 103 104 105 106 107 108 109 110 111 112 113 114 115 116 117 118 119 120 121 122 123 124 125 126 127 128 129 130 131 132 133 134 135 136 137 138 139 140 141 142 143 144 145 146 147 148 149 150 151 152 153 154 155 156 157 158