Ergebnis 1 bis 1 von 1

Thema: Es war einmal... Amerika [Ger-Dub][DVDRiP][480p] - iND

Dieser Thread wurde noch nicht bewertet. Bewerte ihn doch, wenn er dir gefällt!
  1. #1
    Treues Mitglied Avatar von Sairenji
    Registriert seit
    Aug 2013
    Beiträge
    299
    Punkte
    11.339
    Errungenschaften:
    TomodachisTagger Profi10000 ErfahrungspunkteHikikomori

    Es war einmal... Amerika [Ger-Dub][DVDRiP][480p] - iND






    40.000 Jahre vor unserer heutigen Zeitrechnung: Eine gigantische Vereisung bindet das Wasser im hohen Norden zu gigantischen Eismengen. Der Meeresspiegel fällt und gibt einen Landweg frei zwischen Sibirien und Alaska. Riesige Tierherden wandern in Richtung Osten. Und hinter ihnen her, vom Hunger getrieben, ziehen unsere Freunde, der junge Pierre, sein Freund Dickie und ihre Frauen und Kinder in das neugewonnene Stück Land. Sie sind die ersten "Entdecker" des neuen Kontinents...Amerika



    Titel: Es war einmal... Amerika
    Originaltitel: Il était une fois... L'amériques
    Genre: Abenteuer, Zeichentrick
    Laufzeit: ~ 29 Min. | Episoden: 26

    [Links sind nur für registrierte und aktivierte Nutzer sichtbar. Klicke hier um dich zu registrieren.]



    Es.war.einmal.Amerika.German.DVDRiP.XViD-iND | Größe: 5957 MB | Parts: 26

    Sprache: Deutsch

    Video: DVDRiP | Audio: MP3 | Format: .avi



    Hoster: UL.net , SO.biz , OB.com , MC.net

    Crypt @ Linkcrypt.ws

    Geschützter Bereich - Bedanke dich beim Poster, um den Bereich sehen zu können
    Hier erfährst Du wie Du Dich bedanken kannst oder werde jetzt Premium Mitglied ab einer Spende von 5€ und erhalte sofortigen Zugriff auf den Downloadbereich!




    Media Info
    Code:
    General
    Format                                   : AVI
    Format/Info                              : Audio Video Interleave
    File size                                : 230 MiB
    Duration                                 : 28mn 32s
    Overall bit rate mode                    : Variable
    Overall bit rate                         : 1 129 Kbps
    Writing application                      : VirtualDubMod 1.5.10.2 (build
      2540/release)
    Writing library                          : VirtualDubMod build 2540/release
    
    Video
    ID                                       : 0
    Format                                   : MPEG-4 Visual
    Format settings, BVOP                    : 1
    Format settings, QPel                    : No
    Format settings, GMC                     : No warppoints
    Format settings, Matrix                  : Default (H.263)
    Codec ID                                 : XVID
    Codec ID/Hint                            : XviD
    Duration                                 : 28mn 32s
    Bit rate                                 : 979 Kbps
    Width                                    : 576 pixels
    Height                                   : 432 pixels
    Display aspect ratio                     : 4:3
    Frame rate                               : 25.000 fps
    Color space                              : YUV
    Chroma subsampling                       : 4:2:0
    Bit depth                                : 8 bits
    Scan type                                : Progressive
    Compression mode                         : Lossy
    Bits/(Pixel*Frame)                       : 0.157
    Stream size                              : 200 MiB (87%)
    Writing library                          : XviD 1.3.0.dev55
    
    Audio
    ID                                       : 1
    Format                                   : MPEG Audio
    Format version                           : Version 1
    Format profile                           : Layer 3
    Mode                                     : Joint stereo
    Mode extension                           : MS Stereo
    Codec ID                                 : 55
    Codec ID/Hint                            : MP3
    Duration                                 : 28mn 32s
    Bit rate mode                            : Variable
    Bit rate                                 : 144 Kbps
    Channel(s)                               : 2 channels
    Sampling rate                            : 48.0 KHz
    Compression mode                         : Lossy
    Stream size                              : 28.0 MiB (12%)
    Alignment                                : Aligned on interleaves
    Interleave, duration                     : 24 ms (0.60 video frame)
    Interleave, preload duration             : 134 ms
    Writing library                          : LAME3.98
    Encoding settings                        : -m j -V 4 -q 3 -lowpass 17.5 --abr
      144

    Inaktiver Uploader!

    Alle Re-Upload-Anfragen öffentlich im [Links sind nur für registrierte und aktivierte Nutzer sichtbar. Klicke hier um dich zu registrieren.] posten!

  2. 7 Benutzer sagen Danke:

    Asuka Langley (21. December 2015),dave_christoph (20. December 2015),haltdiefresse (20. December 2015),Kaktusmensch (21. January 2016),midnighter (31. December 2015),Poocky (27. January 2016),Tarlysin (25. December 2015)

Stichworte

Lesezeichen

Berechtigungen

  • Neue Themen erstellen: Nein
  • Themen beantworten: Nein
  • Anhänge hochladen: Nein
  • Beiträge bearbeiten: Nein
  •  

1 2 3 4 5 6 7 8 9 10 11 12 13 14 15 16 17 18 19 20 21 22 23 24 25 26 27 28 29 30 31 32 33 34 35 36 37 38 39 40 41 42 43 44 45 46 47 48 49 50 51 52 53 54 55 56 57 58 59 60 61 62 63 64 65 66 67 68 69 70 71 72 73 74 75 76 77 78 79 80 81 82 83 84 85 86 87 88 89 90 91 92 93 94 95 96 97 98 99 100 101 102 103 104 105 106 107 108 109 110 111 112 113 114 115 116 117 118 119 120 121 122 123 124 125 126 127 128 129 130 131 132 133 134 135 136 137 138 139 140 141 142 143 144 145 146 147 148 149 150 151 152 153 154 155 156 157 158