Ergebnis 1 bis 1 von 1

Thema: Es war einmal ... der Mensch [Ger-Dub][BluRay][720p] - TV4A

Dieser Thread wurde noch nicht bewertet. Bewerte ihn doch, wenn er dir gefällt!
  1. #1
    Treues Mitglied Avatar von Sairenji
    Registriert seit
    Aug 2013
    Beiträge
    299
    Punkte
    11.339
    Errungenschaften:
    TomodachisTagger Profi10000 ErfahrungspunkteHikikomori

    Es war einmal ... der Mensch [Ger-Dub][BluRay][720p] - TV4A






    Die Geschichte der Menschheit, von der Entstehung der Welt bis 2030...Eine kleine Uhr in der Bildschirmecke zeigt uns stets das Wann im Zeitstrahl, ein in allen 26 Folgen fast immer gleiches Ensemble an Personen mit pointierten Charakteren und Eigenschaften das Wo, Wie und Warum. Daher entsteht diesbezüglich eine Kontinuität, die Kindern den Raum lässt, sich auf die nicht gerade banalen Inhalte zu konzentrieren. Besonders erwähnt sei hier der Maestro, der klug und weise die kulturelle Geschichte der Menschheit mit seinen Erfahrungen und Erfindungen vorantreibt und gleichzeitig die Rolle des Erzählers innehat. Durch viele scherzhaft anmutende Szenen und die amüsanten Charaktere wird dieser eigentlich dokumentarische, nur durchschnittlich animierte Zeichentrickfilm atmosphärisch zur gehaltvollen Unterhaltung. Je nach individuellem Interessen- und Entwicklungsstand kann diese interessante, sechsteilige Reihe für Kinder ab etwa sechs bis acht Jahren, aber durchaus auch für Erwachsene, empfohlen werden.



    Titel: Es war einmal . der Mensch
    Originaltitel: Il était une fois . L'homme
    Genre: Abenteuer, Komödie
    Laufzeit: ~ 25 Min. | Episoden: 26

    [Links sind nur für registrierte und aktivierte Nutzer sichtbar. Klicke hier um dich zu registrieren.]



    Es.war.einmal.der.Mensch.German.720p.BluRay.x264-TV4A | Größe: 15,92 GB | Parts: 29

    Sprache: Deutsch | Untertitel: -

    Video: BluRay | Audio: AC3 2.0 | Format: .mkv / .mp4



    Hoster: UL.net , SO.biz , OB.com , MC.net

    Crypt @ Linkcrypt.ws

    Geschützter Bereich - Bedanke dich beim Poster, um den Bereich sehen zu können
    Hier erfährst Du wie Du Dich bedanken kannst oder werde jetzt Premium Mitglied ab einer Spende von 5€ und erhalte sofortigen Zugriff auf den Downloadbereich!




    Media Info
    Code:
    General
    Format                                   : Matroska
    Format version                           : Version 4 / Version 2
    File size                                : 600 MiB
    Duration                                 : 25mn 0s
    Overall bit rate                         : 3 353 Kbps
    Encoded date                             : UTC 2015-01-05 11:39:27
    Writing application                      : mkvmerge v7.4.0 ('Circles') 64bit
      built on Dec 12 2014 12:19:56
    Writing library                          : libebml v1.3.0 + libmatroska v1.4.1
    
    Video
    ID                                       : 1
    Format                                   : AVC
    Format/Info                              : Advanced Video Codec
    Format settings, CABAC                   : Yes
    Format settings, ReFrames                : 5 frames
    Codec ID                                 : V_MPEG4/ISO/AVC
    Duration                                 : 25mn 0s
    Bit rate                                 : 3 159 Kbps
    Width                                    : 1 200 pixels
    Height                                   : 720 pixels
    Display aspect ratio                     : 5:3
    Frame rate mode                          : Constant
    Frame rate                               : 25.000 fps
    Color space                              : YUV
    Chroma subsampling                       : 4:2:0
    Bit depth                                : 8 bits
    Scan type                                : Progressive
    Bits/(Pixel*Frame)                       : 0.146
    Stream size                              : 554 MiB (92%)
    Writing library                          : x264 core 144 r2525 40bb568
    Encoding settings                        : cabac=1 / ref=5 / deblock=1:-3:-3 /
      analyse=0x3:0x113 / me=umh / subme=7 / psy=1 / psy_rd=1.00:0.00 / mixed_ref=1 /
      me_range=16 / chroma_me=1 / trellis=1 / 8x8dct=1 / cqm=0 / deadzone=21,11 /
      fast_pskip=0 / chroma_qp_offset=-2 / threads=8 / lookahead_threads=1 /
      sliced_threads=0 / nr=0 / decimate=1 / interlaced=0 / bluray_compat=0 /
      constrained_intra=0 / bframes=3 / b_pyramid=2 / b_adapt=1 / b_bias=0 / direct=3
      / weightb=1 / open_gop=0 / weightp=2 / keyint=250 / keyint_min=25 / scenecut=40
      / intra_refresh=0 / rc_lookahead=40 / rc=2pass / mbtree=1 / bitrate=3159 /
      ratetol=1.0 / qcomp=0.60 / qpmin=0 / qpmax=69 / qpstep=4 / cplxblur=20.0 /
      qblur=0.5 / ip_ratio=1.40 / aq=1:1.00
    Default                                  : Yes
    Forced                                   : No
    
    Audio
    ID                                       : 2
    Format                                   : AC-3
    Format/Info                              : Audio Coding 3
    Mode extension                           : CM (complete main)
    Format settings, Endianness              : Big
    Codec ID                                 : A_AC3
    Duration                                 : 25mn 0s
    Bit rate mode                            : Constant
    Bit rate                                 : 192 Kbps
    Channel(s)                               : 2 channels
    Channel positions                        : Front: L R
    Sampling rate                            : 48.0 KHz
    Compression mode                         : Lossy
    Stream size                              : 34.4 MiB (6%)
    Language                                 : German
    Default                                  : Yes
    Forced                                   : No
    
    Text
    ID                                       : 3
    Format                                   : UTF-8
    Codec ID                                 : S_TEXT/UTF8
    Codec ID/Info                            : UTF-8 Plain Text
    Language                                 : German
    Default                                  : Yes
    Forced                                   : No

    Inaktiver Uploader!

    Alle Re-Upload-Anfragen öffentlich im [Links sind nur für registrierte und aktivierte Nutzer sichtbar. Klicke hier um dich zu registrieren.] posten!

  2. 10 Benutzer sagen Danke:

    Asuka Langley (21. December 2015),DarthToast (18. December 2015),Dreieckhard (17. December 2015),Gold_93 (1. August 2016),Kaktusmensch (22. January 2016),midnighter (31. December 2015),Newz2014 (5. April 2016),Poocky (27. January 2016),Sasuke (19. January 2016),Tarlysin (25. December 2015)

Stichworte

Lesezeichen

Berechtigungen

  • Neue Themen erstellen: Nein
  • Themen beantworten: Nein
  • Anhänge hochladen: Nein
  • Beiträge bearbeiten: Nein
  •  

1 2 3 4 5 6 7 8 9 10 11 12 13 14 15 16 17 18 19 20 21 22 23 24 25 26 27 28 29 30 31 32 33 34 35 36 37 38 39 40 41 42 43 44 45 46 47 48 49 50 51 52 53 54 55 56 57 58 59 60 61 62 63 64 65 66 67 68 69 70 71 72 73 74 75 76 77 78 79 80 81 82 83 84 85 86 87 88 89 90 91 92 93 94 95 96 97 98 99 100 101 102 103 104 105 106 107 108 109 110 111 112 113 114 115 116 117 118 119 120 121 122 123 124 125 126 127 128 129 130 131 132 133 134 135 136 137 138 139 140 141 142 143 144 145 146 147 148 149 150 151 152 153 154 155 156 157 158