Ergebnis 1 bis 4 von 4

Thema: Fate/Stay Night: Unlimited Blade Works (2014+2015) + Prolog + OVA + OST [Ger-Jap-Dub][Ger-Sub][AC3/PCM][720p/1080p][BluRay] - AST4u

Dieser Thread wurde noch nicht bewertet. Bewerte ihn doch, wenn er dir gefällt!
  1. #1
    United we Stand Avatar von 00Ryuji00
    Registriert seit
    Oct 2012
    Beiträge
    3.902
    Punkte
    99.823
    Errungenschaften:
    TomodachisGang LeaderHikikomoriTagger Amateur50000 Erfahrungspunkte

    Fate/Stay Night: Unlimited Blade Works (2014+2015) + Prolog + OVA + OST [Ger-Jap-Dub][Ger-Sub][AC3/PCM][720p/1080p][BluRay] - AST4u


    Fate/Stay Night: Unlimited Blade Works (2014) + (2015)

    フェイト/ステイナイト ~Unlimited Blade Works (2014) + (2015)~
    Fate/Stay Night: Unlimited Blade Works - Season 1 + 2
    Fate/Stay Night: Unlimited Blade Works
    FSN: UBW 2014, F/SN 2014, Fate/Stay Night: Unlimited Blade Works Season 2, F/SN 2015, FSN: UBW 2015






    Kurzbeschreibung:
    Zitat Zitat von AniSearch.com
    Es könnte ein normaler Tag für den Schüler Shirou Emiya werden. Eine Schulfreundin hat ihm Frühstück gemacht, er ist zur Schule gegangen und lebt sein kleines Leben. Doch die Zeit für einen besonderen Wettkampf ist angebrochen. Die Arena ist Shirous Heimatstadt und Teilnehmer agieren im Verborgenen. Magisch Begabte beschwören sich einen Diener, um diesen gegen andere kämpfen zu lassen. Gewinnen kann man den Heiligen Gral, dem nachgesagt wird, dass er dem Gewinner einen Wunsch erfüllt.


    Spieldauer: 24min
    Genre: Actiondrama
    Nebengenres: Abenteuer, Action, Drama, Fantasy, Romanze, Übermäßige Gewaltdarstellung, Alltagsleben
    Jahr: 2014 - 2015
    Sprache: Deutsch, Japanisch
    Untertitel: Deutsch
    Größe pro Folge: ~392 MiB ~825 MiB ~1.49 GiB
    Episodenanzahl: 12/12 + 13/13 + Prolog + OVA
    Format: MKV
    Auflösung: 720p (16:9), 1080p (16:9)
    Videocodec: x264 (AVC)
    Audiocodec: AC-3, PCM
    Releasegruppe: AST1u
    Hoster: Share-Online, Uploaded


    MediaInfo
    720p
    Code:
    
    Format                                   : Matroska
    Format version                           : Version 4 / Version 2
    File size                                : 392 MiB
    Duration                                 : 26mn 21s
    Overall bit rate                         : 2 078 Kbps
    Encoded date                             : UTC 2016-01-14 17:51:02
    Writing application                      : mkvmerge v8.2.0 ('World of Adventure') 32bit
    Writing library                          : libebml v1.3.1 + libmatroska v1.4.2
    DURATION                                 : 00:26:21.600000000
    NUMBER_OF_FRAMES                         : 49425
    NUMBER_OF_BYTES                          : 88569600
    _STATISTICS_WRITING_APP                  : mkvmerge v8.2.0 ('World of Adventure') 32bit
    _STATISTICS_WRITING_DATE_UTC             : 2016-01-14 17:51:02
    _STATISTICS_TAGS                         : BPS DURATION NUMBER_OF_FRAMES NUMBER_OF_BYTES
    
    Video
    ID                                       : 3
    Format                                   : AVC
    Format/Info                              : Advanced Video Codec
    Format profile                           : [email protected]
    Format settings, CABAC                   : Yes
    Format settings, ReFrames                : 6 frames
    Codec ID                                 : V_MPEG4/ISO/AVC
    Duration                                 : 26mn 21s
    Bit rate                                 : 1 140 Kbps
    Width                                    : 1 280 pixels
    Height                                   : 720 pixels
    Display aspect ratio                     : 16:9
    Frame rate mode                          : Constant
    Frame rate                               : 23.976 fps
    Color space                              : YUV
    Chroma subsampling                       : 4:2:0
    Bit depth                                : 8 bits
    Scan type                                : Progressive
    Bits/(Pixel*Frame)                       : 0.052
    Stream size                              : 215 MiB (55%)
    Writing library                          : x264 core 148 r2638 7599210
    Encoding settings                        : cabac=1 / ref=6 / deblock=1:1:1 / analyse=0x3:0x113 / me=hex / subme=9 / psy=1 / psy_rd=0.40:0.00 / mixed_ref=1 / me_range=16 / chroma_me=1 / trellis=1 / 8x8dct=1 / cqm=0 / deadzone=21,11 / fast_pskip=1 / chroma_qp_offset=-2 / threads=12 / lookahead_threads=1 / sliced_threads=0 / nr=0 / decimate=1 / interlaced=0 / bluray_compat=0 / constrained_intra=0 / bframes=5 / b_pyramid=2 / b_adapt=2 / b_bias=0 / direct=1 / weightb=1 / open_gop=0 / weightp=2 / keyint=240 / keyint_min=23 / scenecut=40 / intra_refresh=0 / rc_lookahead=40 / rc=crf / mbtree=1 / crf=16.0 / qcomp=0.60 / qpmin=0 / qpmax=69 / qpstep=4 / vbv_maxrate=62500 / vbv_bufsize=78125 / crf_max=0.0 / nal_hrd=none / filler=0 / ip_ratio=1.40 / aq=1:0.60
    Default                                  : Yes
    Forced                                   : No
    
    Audio #1
    ID                                       : 4
    Format                                   : AC-3
    Format/Info                              : Audio Coding 3
    Mode extension                           : CM (complete main)
    Format settings, Endianness              : Big
    Codec ID                                 : A_AC3
    Duration                                 : 26mn 21s
    Bit rate mode                            : Constant
    Bit rate                                 : 448 Kbps
    Channel(s)                               : 2 channels
    Channel positions                        : Front: L R
    Sampling rate                            : 48.0 KHz
    Compression mode                         : Lossy
    Stream size                              : 84.5 MiB (22%)
    Language                                 : Japanese
    Default                                  : Yes
    Forced                                   : No
    
    Audio #2
    ID                                       : 5
    Format                                   : AC-3
    Format/Info                              : Audio Coding 3
    Mode extension                           : CM (complete main)
    Format settings, Endianness              : Big
    Codec ID                                 : A_AC3
    Duration                                 : 26mn 21s
    Bit rate mode                            : Constant
    Bit rate                                 : 448 Kbps
    Channel(s)                               : 2 channels
    Channel positions                        : Front: L R
    Sampling rate                            : 48.0 KHz
    Compression mode                         : Lossy
    Stream size                              : 84.5 MiB (22%)
    Language                                 : German
    Default                                  : No
    Forced                                   : No
    
    Text #1
    ID                                       : 1
    Format                                   : PGS
    Muxing mode                              : zlib
    Codec ID                                 : S_HDMV/PGS
    Codec ID/Info                            : Picture based subtitle format used on BDs/HD-DVDs
    Default                                  : Yes
    Forced                                   : No
    
    Text #2
    ID                                       : 2
    Format                                   : PGS
    Muxing mode                              : zlib
    Codec ID                                 : S_HDMV/PGS
    Codec ID/Info                            : Picture based subtitle format used on BDs/HD-DVDs
    Default                                  : No
    Forced                                   : No
    
    


    1080p AC3
    Code:
    
    Format                                   : Matroska
    Format version                           : Version 4 / Version 2
    File size                                : 825 MiB
    Duration                                 : 26mn 21s
    Overall bit rate                         : 4 375 Kbps
    Encoded date                             : UTC 2016-01-14 00:02:12
    Writing application                      : mkvmerge v8.2.0 ('World of Adventure') 32bit
    Writing library                          : libebml v1.3.1 + libmatroska v1.4.2
    DURATION                                 : 00:26:21.600000000
    NUMBER_OF_FRAMES                         : 49425
    NUMBER_OF_BYTES                          : 88569600
    _STATISTICS_WRITING_APP                  : mkvmerge v8.2.0 ('World of Adventure') 32bit
    _STATISTICS_WRITING_DATE_UTC             : 2016-01-14 00:02:12
    _STATISTICS_TAGS                         : BPS DURATION NUMBER_OF_FRAMES NUMBER_OF_BYTES
    
    Video
    ID                                       : 3
    Format                                   : AVC
    Format/Info                              : Advanced Video Codec
    Format profile                           : [email protected]
    Format settings, CABAC                   : Yes
    Format settings, ReFrames                : 4 frames
    Codec ID                                 : V_MPEG4/ISO/AVC
    Duration                                 : 26mn 21s
    Bit rate                                 : 3 392 Kbps
    Width                                    : 1 920 pixels
    Height                                   : 1 080 pixels
    Display aspect ratio                     : 16:9
    Frame rate mode                          : Constant
    Frame rate                               : 23.976 fps
    Color space                              : YUV
    Chroma subsampling                       : 4:2:0
    Bit depth                                : 8 bits
    Scan type                                : Progressive
    Bits/(Pixel*Frame)                       : 0.068
    Stream size                              : 640 MiB (78%)
    Writing library                          : x264 core 148 r2638 7599210
    Encoding settings                        : cabac=1 / ref=4 / deblock=1:1:1 / analyse=0x3:0x113 / me=hex / subme=9 / psy=1 / psy_rd=0.40:0.00 / mixed_ref=1 / me_range=16 / chroma_me=1 / trellis=1 / 8x8dct=1 / cqm=0 / deadzone=21,11 / fast_pskip=1 / chroma_qp_offset=-2 / threads=12 / lookahead_threads=1 / sliced_threads=0 / nr=0 / decimate=1 / interlaced=0 / bluray_compat=0 / constrained_intra=0 / bframes=5 / b_pyramid=2 / b_adapt=2 / b_bias=0 / direct=1 / weightb=1 / open_gop=0 / weightp=2 / keyint=240 / keyint_min=23 / scenecut=40 / intra_refresh=0 / rc_lookahead=40 / rc=crf / mbtree=1 / crf=16.0 / qcomp=0.60 / qpmin=0 / qpmax=69 / qpstep=4 / vbv_maxrate=62500 / vbv_bufsize=78125 / crf_max=0.0 / nal_hrd=none / filler=0 / ip_ratio=1.40 / aq=1:0.60
    Default                                  : Yes
    Forced                                   : No
    
    Audio #1
    ID                                       : 4
    Format                                   : AC-3
    Format/Info                              : Audio Coding 3
    Mode extension                           : CM (complete main)
    Format settings, Endianness              : Big
    Codec ID                                 : A_AC3
    Duration                                 : 26mn 21s
    Bit rate mode                            : Constant
    Bit rate                                 : 448 Kbps
    Channel(s)                               : 2 channels
    Channel positions                        : Front: L R
    Sampling rate                            : 48.0 KHz
    Compression mode                         : Lossy
    Stream size                              : 84.5 MiB (10%)
    Language                                 : Japanese
    Default                                  : Yes
    Forced                                   : No
    
    Audio #2
    ID                                       : 5
    Format                                   : AC-3
    Format/Info                              : Audio Coding 3
    Mode extension                           : CM (complete main)
    Format settings, Endianness              : Big
    Codec ID                                 : A_AC3
    Duration                                 : 26mn 21s
    Bit rate mode                            : Constant
    Bit rate                                 : 448 Kbps
    Channel(s)                               : 2 channels
    Channel positions                        : Front: L R
    Sampling rate                            : 48.0 KHz
    Compression mode                         : Lossy
    Stream size                              : 84.5 MiB (10%)
    Language                                 : German
    Default                                  : No
    Forced                                   : No
    
    Text #1
    ID                                       : 1
    Format                                   : PGS
    Muxing mode                              : zlib
    Codec ID                                 : S_HDMV/PGS
    Codec ID/Info                            : Picture based subtitle format used on BDs/HD-DVDs
    Default                                  : Yes
    Forced                                   : No
    
    Text #2
    ID                                       : 2
    Format                                   : PGS
    Muxing mode                              : zlib
    Codec ID                                 : S_HDMV/PGS
    Codec ID/Info                            : Picture based subtitle format used on BDs/HD-DVDs
    Default                                  : No
    Forced                                   : No
    
    


    1080p PCM
    Code:
    
    Format                                   : Matroska
    Format version                           : Version 4 / Version 2
    File size                                : 1.49 GiB
    Duration                                 : 26mn 21s
    Overall bit rate                         : 8 090 Kbps
    Encoded date                             : UTC 2016-01-14 17:28:23
    Writing application                      : mkvmerge v8.2.0 ('World of Adventure') 32bit
    Writing library                          : libebml v1.3.1 + libmatroska v1.4.2
    DURATION                                 : 00:26:21.580000000
    NUMBER_OF_FRAMES                         : 37920
    NUMBER_OF_BYTES                          : 683253469
    _STATISTICS_WRITING_APP                  : mkvmerge v8.2.0 ('World of Adventure') 32bit
    _STATISTICS_WRITING_DATE_UTC             : 2016-01-14 17:28:23
    _STATISTICS_TAGS                         : BPS DURATION NUMBER_OF_FRAMES NUMBER_OF_BYTES
    
    Video
    ID                                       : 5
    Format                                   : AVC
    Format/Info                              : Advanced Video Codec
    Format profile                           : [email protected]
    Format settings, CABAC                   : Yes
    Format settings, ReFrames                : 4 frames
    Codec ID                                 : V_MPEG4/ISO/AVC
    Duration                                 : 26mn 21s
    Width                                    : 1 920 pixels
    Height                                   : 1 080 pixels
    Display aspect ratio                     : 16:9
    Frame rate mode                          : Constant
    Frame rate                               : 23.976 fps
    Color space                              : YUV
    Chroma subsampling                       : 4:2:0
    Bit depth                                : 8 bits
    Scan type                                : Progressive
    Writing library                          : x264 core 148 r2638 7599210
    Encoding settings                        : cabac=1 / ref=4 / deblock=1:1:1 / analyse=0x3:0x113 / me=hex / subme=9 / psy=1 / psy_rd=0.40:0.00 / mixed_ref=1 / me_range=16 / chroma_me=1 / trellis=1 / 8x8dct=1 / cqm=0 / deadzone=21,11 / fast_pskip=1 / chroma_qp_offset=-2 / threads=12 / lookahead_threads=1 / sliced_threads=0 / nr=0 / decimate=1 / interlaced=0 / bluray_compat=0 / constrained_intra=0 / bframes=5 / b_pyramid=2 / b_adapt=2 / b_bias=0 / direct=1 / weightb=1 / open_gop=0 / weightp=2 / keyint=240 / keyint_min=23 / scenecut=40 / intra_refresh=0 / rc_lookahead=40 / rc=crf / mbtree=1 / crf=16.0 / qcomp=0.60 / qpmin=0 / qpmax=69 / qpstep=4 / vbv_maxrate=62500 / vbv_bufsize=78125 / crf_max=0.0 / nal_hrd=none / filler=0 / ip_ratio=1.40 / aq=1:0.60
    Default                                  : Yes
    Forced                                   : No
    
    Audio #1
    ID                                       : 1
    Format                                   : PCM
    Format settings, Endianness              : Big
    Codec ID                                 : A_PCM/INT/BIG
    Duration                                 : 26mn 21s
    Bit rate mode                            : Constant
    Channel(s)                               : 2 channels
    Sampling rate                            : 48.0 KHz
    Bit depth                                : 24 bits
    Default                                  : Yes
    Forced                                   : No
    
    Audio #2
    ID                                       : 2
    Format                                   : PCM
    Format settings, Endianness              : Big
    Codec ID                                 : A_PCM/INT/BIG
    Duration                                 : 26mn 21s
    Bit rate mode                            : Constant
    Channel(s)                               : 2 channels
    Sampling rate                            : 48.0 KHz
    Bit depth                                : 24 bits
    Default                                  : No
    Forced                                   : No
    
    Text #1
    ID                                       : 3
    Format                                   : PGS
    Muxing mode                              : zlib
    Codec ID                                 : S_HDMV/PGS
    Codec ID/Info                            : Picture based subtitle format used on BDs/HD-DVDs
    Default                                  : Yes
    Forced                                   : No
    
    Text #2
    ID                                       : 4
    Format                                   : PGS
    Muxing mode                              : zlib
    Codec ID                                 : S_HDMV/PGS
    Codec ID/Info                            : Picture based subtitle format used on BDs/HD-DVDs
    Default                                  : No
    Forced                                   : No
    
    


    OST
    Code:
    
    Format                                   : MPEG Audio
    File size                                : 12.6 MiB
    Duration                                 : 5mn 30s
    Overall bit rate mode                    : Variable
    Overall bit rate                         : 320 Kbps
    Album                                    : no title
    Track name                               : AudioTrack 01
    Track name/Position                      : 1
    Track name/Total                         : 27
    Performer                                : no artist
    Genre                                    : Unknown
    Writing library                          : LAME3.99r
    
    Audio
    Format                                   : MPEG Audio
    Format version                           : Version 1
    Format profile                           : Layer 3
    Mode                                     : Joint stereo
    Duration                                 : 5mn 30s
    Bit rate mode                            : Variable
    Bit rate                                 : 320 Kbps
    Channel(s)                               : 2 channels
    Sampling rate                            : 48.0 KHz
    Compression mode                         : Lossy
    Stream size                              : 12.6 MiB (100%)
    Writing library                          : LAME3.99r
    Encoding settings                        : -m j -V 2 -q 0 -lowpass 18.5 --vbr-new
    
    






    Geschützter Bereich - Bedanke dich beim Poster, um den Bereich sehen zu können
    Hier erfährst Du wie Du Dich bedanken kannst oder werde jetzt Premium Mitglied ab einer Spende von 5€ und erhalte sofortigen Zugriff auf den Downloadbereich!

    [Links sind nur für registrierte und aktivierte Nutzer sichtbar. Klicke hier um dich zu registrieren.]
    Geändert von 00Ryuji00 (25. October 2015 um 18:31 Uhr)
    !!!Alle Anliegen bezüglich Uploads werden nur mit direktem Threadlink zum Angebot bearbeitet!!!

    Re-Uploadanfragen nur per PN - Ihr könnt mir auch Listen schicken

    Re-Uploads erfolgen meist innerhalb 24h, kann aber auch bis zu 7 Tage dauern

    [Links sind nur für registrierte und aktivierte Nutzer sichtbar. Klicke hier um dich zu registrieren.] | [Links sind nur für registrierte und aktivierte Nutzer sichtbar. Klicke hier um dich zu registrieren.] | >[Links sind nur für registrierte und aktivierte Nutzer sichtbar. Klicke hier um dich zu registrieren.]<
    [Links sind nur für registrierte und aktivierte Nutzer sichtbar. Klicke hier um dich zu registrieren.]

  2. 273 Benutzer sagen Danke:

    Anzeigen

    1Ranger (3. October 2015),Ace360 (22. January 2016),Akbah (14. October 2015),Akio (22. August 2015),alecander (23. October 2015),AlucardGER (24. April 2016),Androkai (5. October 2016),andyb90 (3. October 2016),Angelous (30. September 2015),animeathome (22. March 2016),AniStar (29. November 2015),Apocaliptica (22. November 2015),Ardock (25. November 2015),Asuka Langley (29. September 2015),Atmozfear (13. August 2015),Atzinger (19. October 2015),babjasrap94 (27. November 2016),bayerle92 (24. April 2016),Belbo (26. July 2016),Blackdragon1702 (7. December 2015),BlackIron (29. November 2015),BlackPhoenix (7. August 2015),BlackReaper (7. October 2016),Black_ Reaper (2. October 2016),blitzman1977 (5. February 2016),BornToShoot (8. June 2016),bra1nbug94 (5. February 2016),brunsdumm (26. March 2016),Bull (5. October 2015),Bullet91 (4. May 2016),Bunchy (2. October 2015),Buschkilla (3. September 2015),bytes (9. October 2015),Cande (18. October 2015),Carbon (13. October 2016),Chasil (22. August 2016),Chilko (7. August 2015),Chillasedi (7. August 2015),chopper23 (7. August 2015),chris1989 (14. February 2016),Chrissi89 (28. September 2015),Cloud9019 (22. August 2015),Coji (7. August 2015),Conopas (29. April 2016),cooliero (2. October 2016),Coolwars (2. July 2016),Corntendo (25. November 2016),crazy_p (11. December 2015),CrossOvah (18. March 2016),Cy_Baer (7. August 2015),D15c05 (4. February 2016),dagger85 (27. March 2016),Dall (7. August 2015),Daniel (3. January 2016),DarkHunter (1. October 2015),Darkweber40 (11. October 2015),DarthToast (7. October 2015),daydreamer (10. January 2016),Deadman_01 (7. October 2015),Deedo320 (15. October 2016),demonac (10. November 2016),deofration (4. November 2015),deverill14 (3. January 2016),DevilStyleZ (19. September 2015),DJPAUL1990 (3. April 2016),downloader_1987 (16. November 2016),Drezzo (5. February 2016),Ecel (4. May 2016),etter (19. November 2015),Evilon (24. January 2016),Exede (26. March 2016),Extraneis (18. November 2015),Ezekiel2517 (20. January 2016),Feed Me x33 (17. November 2015),flextrex (3. October 2016),frankra (8. June 2016),Freakin_Blunt (21. October 2015),freakwatcher (7. August 2015),Gatti1983 (9. January 2016),Ghostraven (8. September 2015),GiftGasBaer (7. December 2015),Goldwipf (24. February 2016),Gorbatschow (21. November 2015),Greg (1. October 2016),Griever (15. December 2015),Halloweed (7. August 2015),hanfii (3. December 2015),hanismustismann (8. November 2015),Happyhentai_inactive (27. August 2015),herrntod (16. November 2015),Hobbitgraf (2. April 2016),Holzmodem (28. March 2016),hundekuchen (25. September 2015),Icke (15. May 2016),Infi (10. December 2015),inst4gib (5. October 2016),jetjojo (25. October 2015),JoleenLovesMina (10. November 2015),juckenkratzen (22. January 2016),Jukka (30. October 2015),Kaan- (28. May 2016),Kaktusmensch (7. August 2015),Kalchi (22. November 2016),Kaldo (10. October 2015),Kartox (28. August 2015),Kaze (28. November 2015),Kenny328 (14. August 2015),kevboy1991 (4. January 2016),khavatarie (3. April 2016),Kinasix (7. August 2015),kinghol (7. August 2015),Kirdock (3. April 2016),KiritoDerSchwertKämpfer (27. November 2016),KiritoMazayo (19. May 2016),Kleibi (15. September 2015),Knuddelbearli (25. January 2016),KnutHunter (10. February 2016),Kox598 (28. December 2015),Kradus (2. November 2016),Kristal (1. September 2015),krokojo (10. August 2015),Lacus (10. October 2015),Lamperouge (4. December 2016),Lautrerbomber (25. August 2015),LEITZ (3. May 2016),LelouchviBritannia (8. October 2015),Ley0304 (12. September 2015),llsnakyll (29. April 2016),LordBacon1 (16. February 2016),lucky_mer (8. November 2015),Makenshi (4. October 2016),manuel4193 (9. October 2015),mar3el (31. October 2015),Masaru (4. February 2016),Mathonwy (26. January 2016),Matzehansa (30. November 2015),Max13493 (21. October 2015),McLinux (20. November 2016),Merkartor (7. October 2016),Messenjah (30. March 2016),meyer (7. August 2015),midnighter (15. August 2015),Miharu (4. October 2015),misterdsl (4. October 2015),monsterhunter93 (25. October 2015),morpheus243 (6. December 2015),mossi93 (31. August 2015),Mr.Shit (29. October 2016),MrScenic (12. August 2015),muffinhunter (6. December 2015),Multiking (4. October 2016),nabou (4. November 2015),Natsu008 (19. May 2016),nbody (23. April 2016),Niker92 (19. January 2016),nived (29. December 2015),Noire16 (2. October 2016),norby (7. August 2015),npmusiQ (2. October 2015),Nu-chan (7. November 2016),nudel (15. August 2015),nuggl (22. November 2015),NUVAKWAHU (20. June 2016),Oidem (6. January 2016),Okarin (7. October 2015),okzide (23. October 2016),olevonpopole (28. April 2016),OokamiHoro (29. April 2016),passi (10. October 2015),Physicaligraphy (21. November 2016),proakdag (16. October 2015),pron.supra (28. September 2015),Pure (2. October 2016),qitschibo (9. August 2015),RapidKill (7. August 2015),Raziel (29. October 2015),Reach (27. September 2015),Regi (19. February 2016),remiel (30. October 2016),Rena (23. March 2016),rentaro (26. December 2015),riezik (16. October 2015),Rikune (5. October 2015),Rin58 (5. October 2015),rinnegan93 (20. November 2016),RisingJack (18. April 2016),risobp (10. February 2016),ro.rin (29. November 2015),Ronae (3. October 2015),Roysento (19. August 2016),RyuLelouch (10. November 2015),saarx (9. October 2015),sabs0686 (26. September 2015),SagBitte (25. June 2016),Saiga (8. October 2015),san1n (22. November 2015),sapzero (4. October 2016),Satiini (27. October 2015),satsugai (15. January 2016),SCrichardR (6. November 2016),Sebi859 (15. April 2016),Seki (3. April 2016),Sendo2k (6. February 2016),Sepsis (6. January 2016),Shirayah (21. January 2016),Shirobaka (7. June 2016),Shokyu (30. November 2016),skylier (3. June 2016),smaik (23. April 2016),Smasher25 (4. November 2015),Smery (5. May 2016),SolLekgol (19. August 2015),songucku (22. August 2015),SONNYxq (14. October 2015),Spark (9. January 2016),spielmacher9 (31. December 2015),Spotix (2. October 2015),spymatiak (23. May 2016),srobee (17. July 2016),Starbrand (9. December 2015),Steev (25. January 2016),sudeku (4. February 2016),swagrid (2. May 2016),sweetpunky (7. August 2015),TakashiKudo (13. March 2016),Tana-kun (3. December 2015),Tartarus (18. November 2016),Tekay (13. July 2016),thanathan85 (6. October 2015),TheDarkJesus (2. October 2016),TheOne0815 (28. April 2016),TheTestzilla (20. November 2015),The_Iron (3. January 2016),thomas (27. January 2016),tigerhai (19. April 2016),Titanime (15. October 2016),tohotono1987 (7. October 2015),TokyoHazard (17. March 2016),TrM (7. November 2016),TrUnkO (3. October 2016),Tsu (4. November 2015),TUROcKK (28. October 2015),Tycos (4. October 2015),tzuio (9. June 2016),Ultraregister (27. October 2015),Varkoo (31. July 2016),Vastolord (21. December 2015),VatosLocos (9. September 2015),vegito1990 (6. September 2015),ventus1991 (6. October 2016),Victor2901 (10. January 2016),Virgel (14. April 2016),vitrax (6. January 2016),vollLASER (20. September 2015),WatchDog (26. June 2016),Windwusel (5. February 2016),WolfsBlade (26. August 2015),Wrahar_inactive (19. August 2015),Wölfchen (7. August 2015),x6100x (23. December 2015),XenoX (5. May 2016),xEssentiaLx (24. April 2016),xifaxufu (18. July 2016),Xionic (8. February 2016),Xoon (3. December 2015),xorphenx (3. January 2016),xtsiux123 (29. May 2016),Z5991E (18. December 2015),Zarroc1 (13. January 2016),zerophyte (25. August 2016),ZeroXG (25. October 2015),zoe#449 (16. February 2016),Zumay (3. October 2015)

  3. #2
    Uploader Avatar von Masaru
    Registriert seit
    Jan 2016
    Ort
    neumünster
    Beiträge
    453
    Punkte
    11.993
    Errungenschaften:
    10000 ErfahrungspunkteSenpai

    Fate/Stay Night: Unlimited Blade Works (2015) [Ger-Jap-Dub][Ger-Sub][1080p][BluRay] - AST4u


    Fate/Stay Night: Unlimited Blade Works (2015)
    Fate/Stay Night: Unlimited Blade Works 2






    Kurzbeschreibung:
    Zitat Zitat von AniSearch.com
    Es könnte ein normaler Tag für den Schüler Shirou Emiya werden. Eine Schulfreundin hat ihm Frühstück gemacht, er ist zur Schule gegangen und lebt sein kleines Leben. Doch die Zeit für einen besonderen Wettkampf ist angebrochen. Die Arena ist Shirous Heimatstadt und Teilnehmer agieren im Verborgenen. Magisch begabte beschwören sich einen Diener, um diesen gegen andere kämpfen zu lassen. Gewinnen kann man den Heiligen Gral, dem nachgesagt wird, dass er dem Gewinner einen Wunsch erfüllt.


    Spieldauer: 24min
    Genre: Actiondrama
    Nebengenres: Abenteuer, Action, Alltagsleben, Drama, Fantasy, Romanze
    Jahr: 2015
    Sprache: Deutsch, Japanisch
    Untertitel: Deutsch
    Größe pro Folge: 1,7 GB
    Episodenanzahl: 13 /13
    Format: MKV
    Auflösung: 1080p (16:9)
    Videocodec: x264 (AVC)
    Audiocodec: PCM
    Releasegruppe: AST4u
    Hoster: Uploaded, Share-Online


    MediaInfo
    Code:
    
    Container
    General
    Format: Matroska
    Format version: Version 4 / Version 2
    
    Video
    Format: AVC
    Format profile: High@ L4.1
    Format settings, CABAC: Yes
    Format settings, ReFrames: 4 frames
    
    Audio #1
    Format: PCM
    Format settings, Endianness: Big
    
    Audio #2
    Format: PCM
    Format settings, Endianness: Big
    
    Text #1
    Format: PGS
    
    Text #2
    Format: PGS
     Convert




    Geschützter Bereich - Bedanke dich beim Poster, um den Bereich sehen zu können
    Hier erfährst Du wie Du Dich bedanken kannst oder werde jetzt Premium Mitglied ab einer Spende von 5€ und erhalte sofortigen Zugriff auf den Downloadbereich!

    [Links sind nur für registrierte und aktivierte Nutzer sichtbar. Klicke hier um dich zu registrieren.]
    Geändert von Masaru (26. March 2016 um 14:07 Uhr)

  4. 169 Benutzer sagen Danke:

    Anzeigen

    1Ranger (26. March 2016),AlucardGER (24. April 2016),Androkai (27. March 2016),animeathome (22. March 2016),animefan84 (28. March 2016),Ardock (16. May 2016),Asuka Langley (6. February 2016),bayerle92 (20. April 2016),BlackIron (16. March 2016),BlackPhoenix (26. March 2016),Black_ Reaper (7. April 2016),blitzman1977 (5. February 2016),Bloodrevenge (19. June 2016),Bloody Shion (16. April 2016),BornToShoot (8. June 2016),bra1nbug94 (4. February 2016),brunsdumm (26. March 2016),Bull (31. March 2016),Bullet91 (9. May 2016),Chasil (21. August 2016),Chilko (6. February 2016),Chillasedi (27. March 2016),chopper23 (15. March 2016),chris1989 (14. February 2016),ChristianLake (4. February 2016),Coji (5. February 2016),Conopas (29. April 2016),cooliero (28. March 2016),Coolwars (2. July 2016),CrossOvah (19. March 2016),Cy_Baer (26. March 2016),dacheff (5. February 2016),dagger85 (27. March 2016),Dall (17. April 2016),darkangel92 (29. May 2016),DarthToast (4. February 2016),deofration (2. April 2016),Dester007 (2. April 2016),DJPAUL1990 (3. April 2016),Drezzo (11. February 2016),egon1212 (3. April 2016),Evilon (26. March 2016),Exede (26. March 2016),Extraneis (22. February 2016),fab1 (20. August 2016),Facebreaker (23. May 2016),Ghostraven (4. February 2016),GiftGasBaer (6. February 2016),Goldwipf (5. February 2016),graythunder (27. February 2016),Greg (1. October 2016),Griever (26. March 2016),haloman10000 (4. August 2016),heikobaer (5. February 2016),Hobbitgraf (2. April 2016),holyhooker111 (22. March 2016),Holzmodem (30. September 2016),hundekuchen (23. May 2016),Icke (15. May 2016),Imilya (2. August 2016),Infi (19. May 2016),jacksparrow12 (22. March 2016),juckenkratzen (6. February 2016),Kaan- (20. April 2016),kakashi656 (27. June 2016),Kaldo (14. April 2016),Kartox (26. March 2016),Kaze (18. March 2016),Kevin386 (27. April 2016),khavatarie (3. April 2016),Kirdock (3. April 2016),KiritoMazayo (19. May 2016),krokojo (12. March 2016),Kuraiko55 (22. May 2016),LEITZ (3. May 2016),LelouchviBritannia (29. March 2016),Leomar (7. May 2016),llsnakyll (1. May 2016),LordBacon1 (16. February 2016),lucky_mer (5. February 2016),Manfred28 (3. April 2016),manuel4193 (5. February 2016),mar3el (18. August 2016),markusdamon5 (30. March 2016),McLinux (20. November 2016),MCRFG (26. March 2016),Messenjah (30. March 2016),meyer (5. February 2016),midnighter (7. February 2016),Mr.Shit (13. April 2016),muffinhunter (26. April 2016),Multiking (28. April 2016),n0b0dy (11. September 2016),nabou (28. March 2016),Nanatzusaya (14. March 2016),Newz2014 (29. February 2016),norby (4. February 2016),npmusiQ (26. March 2016),NUVAKWAHU (20. June 2016),olevonpopole (28. April 2016),OokamiHoro (29. April 2016),Ovaron (21. March 2016),passi (5. February 2016),Piwi (13. May 2016),proakdag (17. May 2016),qsywax (28. March 2016),Raziel (28. March 2016),Regi (19. February 2016),Rena (29. March 2016),riezik (8. February 2016),rinnegan93 (20. November 2016),RisingJack (18. April 2016),risobp (22. February 2016),Ronae (5. February 2016),Roysento (19. August 2016),RyuLelouch (15. March 2016),S4nCh3z (23. April 2016),SagBitte (25. June 2016),Saiga (15. August 2016),Satiini (6. October 2016),Sebi859 (15. April 2016),Seki (3. April 2016),Sendo2k (6. February 2016),Sephir0th (7. February 2016),shawn10398 (26. March 2016),Shikku (11. April 2016),Shinu Luna (12. February 2016),Shokyu (30. November 2016),SilverSurferGT.de (22. March 2016),skylier (1. June 2016),smaik (23. April 2016),SmokingTea (27. March 2016),Sonicslash (23. July 2016),SONNYxq (28. March 2016),Sou-chan (17. June 2016),Spotix (28. March 2016),spymatiak (23. May 2016),srobee (17. July 2016),Steev (6. April 2016),Steüüensturm (12. September 2016),sure21 (20. March 2016),swagrid (2. May 2016),TakashiKudo (13. March 2016),Tana-kun (4. February 2016),Tarlysin (5. February 2016),Tekay (10. July 2016),Tekk (26. March 2016),thanathan85 (26. March 2016),thegroudge (29. May 2016),TheOne0815 (28. April 2016),The_Iron (26. March 2016),thomas (12. February 2016),TokyoHazard (17. March 2016),tooti (23. April 2016),tounho (18. February 2016),TrUnkO (1. April 2016),Tycos (20. May 2016),Tzi (6. February 2016),Varkoo (31. July 2016),Whiteno1 (3. March 2016),Windwusel (4. February 2016),XenoX (5. May 2016),xEssentiaLx (9. April 2016),xifaxufu (18. July 2016),Xionic (14. June 2016),xtsiux123 (29. May 2016),Yoma (2. May 2016),zoe#449 (16. February 2016),Zumay (5. August 2016)

  5. #3
    Uploader Avatar von Masaru
    Registriert seit
    Jan 2016
    Ort
    neumünster
    Beiträge
    453
    Punkte
    11.993
    Errungenschaften:
    10000 ErfahrungspunkteSenpai

    AW: Fate/Stay Night: Unlimited Blade Works (2015) [Ger-Jap-Dub][Ger-Sub][1080p][BluRay] - AST4u

    folge 7-13 (19-25) online, serie komplett

  6. 3 Benutzer sagen Danke:

    Greg (1. October 2016),Leomar (6. May 2016),nabou (28. March 2016)

  7. #4
    United we Stand Avatar von 00Ryuji00
    Registriert seit
    Oct 2012
    Beiträge
    3.902
    Punkte
    99.823
    Errungenschaften:
    TomodachisGang LeaderHikikomoriTagger Amateur50000 Erfahrungspunkte

    AW: Fate/Stay Night: Unlimited Blade Works (2014+2015) + Prolog + OVA + OST [Ger-Jap-Dub][Ger-Sub][AC3/PCM][720p/1080p][BluRay] - AST4u

    Update: Dateien auf Wunsch wieder online.
    !!!Alle Anliegen bezüglich Uploads werden nur mit direktem Threadlink zum Angebot bearbeitet!!!

    Re-Uploadanfragen nur per PN - Ihr könnt mir auch Listen schicken

    Re-Uploads erfolgen meist innerhalb 24h, kann aber auch bis zu 7 Tage dauern

    [Links sind nur für registrierte und aktivierte Nutzer sichtbar. Klicke hier um dich zu registrieren.] | [Links sind nur für registrierte und aktivierte Nutzer sichtbar. Klicke hier um dich zu registrieren.] | >[Links sind nur für registrierte und aktivierte Nutzer sichtbar. Klicke hier um dich zu registrieren.]<
    [Links sind nur für registrierte und aktivierte Nutzer sichtbar. Klicke hier um dich zu registrieren.]

  8. 3 Benutzer sagen Danke:

    Carbon (13. October 2016),Holzmodem (4. October 2016),Shokyu (30. November 2016)

Lesezeichen

Berechtigungen

  • Neue Themen erstellen: Nein
  • Themen beantworten: Nein
  • Anhänge hochladen: Nein
  • Beiträge bearbeiten: Nein
  •  

1 2 3 4 5 6 7 8 9 10 11 12 13 14 15 16 17 18 19 20 21 22 23 24 25 26 27 28 29 30 31 32 33 34 35 36 37 38 39 40 41 42 43 44 45 46 47 48 49 50 51 52 53 54 55 56 57 58 59 60 61 62 63 64 65 66 67 68 69 70 71 72 73 74 75 76 77 78 79 80 81 82 83 84 85 86 87 88 89 90 91 92 93 94 95 96 97 98 99 100 101 102 103 104 105 106 107 108 109 110 111 112 113 114 115 116 117 118 119 120 121 122 123 124 125 126 127 128 129 130 131 132 133 134 135 136 137 138 139 140 141 142 143 144 145 146 147 148 149 150 151 152 153 154 155 156 157 158