Ergebnis 1 bis 6 von 6

Thema: Fullmetal Alchemist: Brotherhood + OVA [Ger-Jap-Dub][Ger-Sub][AC3/DTS-HD][720p/1080p][BluRay]-Ast4u

Dieser Thread wurde durchschnittlich mit 5 Sternen bewertet, wobei 1 Stern die schlechteste und 5 Sterne die beste Bewertung ist. Es haben insgesamt 3 Mitglieder eine Bewertung abgegeben.

  1. #1
    United we Stand Avatar von 00Ryuji00
    Registriert seit
    Oct 2012
    Beiträge
    3.902
    Punkte
    100.092
    Errungenschaften:
    TomodachisGang LeaderHikikomoriTagger Amateur50000 Erfahrungspunkte

    Fullmetal Alchemist: Brotherhood + OVA [Ger-Jap-Dub][Ger-Sub][AC3/DTS-HD][720p/1080p][BluRay]-Ast4u

    Fullmetal Alchemist: Brotherhood
    Hagane no Renkinjutsushi: Fullmetal Alchemist
    鋼の錬金術師 Fullmetal Alchemist
    Fullmetal Alchemist 2, Hagane no Renkinjutsushi 2, FMA 2, Full Metal Alchemist 2009, Hagane no Renkinjutsushi (2009)





    Kurzbeschreibung:
    Hagane no Renkinjutsushi (2009) ist die nunmehr zweite Anime-Umsetzung des gleichnamigen Mangas von Hiromu Arakawa.
    Dabei handelt es sich jedoch nicht um eine Fortsetzung des Animes aus dem Jahre 2003. Vielmehr erzählt diese Version die Geschichte der Gebrüder Elric neu
    und hält sich dabei wesentlich stärker an die Manga-Vorlage, als die erste Anime-Adaption.

    Die beiden Brüder und Alchemisten Edward und Alphonse Elric haben, als sie noch klein waren, einen verhängnisvollen Fehler begangen:
    Als ihnen die Durchführung einer streng verbotenen Transmutation misslingt, verliert Edward einen Arm. Seinen Bruder trifft es sogar noch schlimmer.
    Edward kann ihn nur retten, indem er im Zuge eines äquivalenten Tausches sein eigenes Bein opfert und Alphons Seele an eine Rüstung bindet - dessen Körper aber scheint verloren. Ein viel zu hoher Preis, den die beiden für ihren Leichtsinn zahlen mussten. Deshalb beschließen sie alles zu versuchen, um ihre alten Körper zurückzubekommen.
    Im Bestreben die besten Forschungsbedingungen auf dem Gebiet der Alchemie zu erlangen, führt sie ihr Weg schließlich zur Armee von Amestris.
    Die Militärdiktatur des Landes setzt sogenannte Staats-Alchemisten als Elitekämpfer in Kriegen und Konflikten ein. In Friedenszeiten hingegen steht es den "Lakaien der Armee" frei,
    zu forschen und Zugriff auf umfangreiche Aufzeichnungen über Alchemie, sowie entsprechende finanzielle Mittel zu erhalten.
    Doch schon bald müssen die beiden Elric-Brüder feststellen, dass ihre eigenen Probleme im Vergleich zu der Bedrohung,
    die dem Land Amestris droht, geradezu unscheinbar wirken...


    Sprache: Deutsch, Japanisch
    Untertitel: Deutsch
    Episodenanzahl: 64/64 + 4/4
    Format: .mkv
    Auflösung: 720p & 1080p
    Group: Ast4u
    Codec: x264
    Hoster: Share-Online ; Uploaded



    Datei Info:
    Spoiler


    720p AC3

    Code:
    
    
    Format                                   : Matroska
    Format version                           : Version 4 / Version 2
    File size                                : 523 MiB
    Duration                                 : 24mn 27s
    Overall bit rate                         : 2 989 Kbps
    Encoded date                             : UTC 2015-12-16 15:21:29
    Writing application                      : mkvmerge v8.2.0 ('World of Adventure') 32bit
    Writing library                          : libebml v1.3.1 + libmatroska v1.4.2
    DURATION                                 : 00:24:15.955000000
    NUMBER_OF_FRAMES                         : 569
    NUMBER_OF_BYTES                          : 6288505
    _STATISTICS_WRITING_APP                  : mkvmerge v8.2.0 ('World of Adventure') 32bit
    _STATISTICS_WRITING_DATE_UTC             : 2015-12-16 15:21:29
    _STATISTICS_TAGS                         : BPS DURATION NUMBER_OF_FRAMES NUMBER_OF_BYTES
    
    Video
    ID                                       : 1
    Format                                   : AVC
    Format/Info                              : Advanced Video Codec
    Format profile                           : [email protected]
    Format settings, CABAC                   : Yes
    Format settings, ReFrames                : 6 frames
    Codec ID                                 : V_MPEG4/ISO/AVC
    Duration                                 : 24mn 27s
    Bit rate                                 : 2 034 Kbps
    Width                                    : 1 280 pixels
    Height                                   : 720 pixels
    Display aspect ratio                     : 16:9
    Frame rate mode                          : Constant
    Frame rate                               : 23.976 fps
    Color space                              : YUV
    Chroma subsampling                       : 4:2:0
    Bit depth                                : 8 bits
    Scan type                                : Progressive
    Bits/(Pixel*Frame)                       : 0.092
    Stream size                              : 356 MiB (68%)
    Writing library                          : x264 core 148 r2638 7599210
    Encoding settings                        : cabac=1 / ref=6 / deblock=1:1:1 / analyse=0x3:0x113 / me=hex / subme=9 / psy=1 / psy_rd=0.40:0.00 / mixed_ref=1 / me_range=16 / chroma_me=1 / trellis=1 / 8x8dct=1 / cqm=0 / deadzone=21,11 / fast_pskip=1 / chroma_qp_offset=-2 / threads=12 / lookahead_threads=1 / sliced_threads=0 / nr=0 / decimate=1 / interlaced=0 / bluray_compat=0 / constrained_intra=0 / bframes=5 / b_pyramid=2 / b_adapt=2 / b_bias=0 / direct=1 / weightb=1 / open_gop=0 / weightp=2 / keyint=240 / keyint_min=23 / scenecut=40 / intra_refresh=0 / rc_lookahead=40 / rc=crf / mbtree=1 / crf=16.0 / qcomp=0.60 / qpmin=0 / qpmax=69 / qpstep=4 / vbv_maxrate=62500 / vbv_bufsize=78125 / crf_max=0.0 / nal_hrd=none / filler=0 / ip_ratio=1.40 / aq=1:0.60
    Default                                  : Yes
    Forced                                   : No
    
    Audio #1
    ID                                       : 2
    Format                                   : AC-3
    Format/Info                              : Audio Coding 3
    Mode extension                           : CM (complete main)
    Format settings, Endianness              : Big
    Codec ID                                 : A_AC3
    Duration                                 : 24mn 27s
    Bit rate mode                            : Constant
    Bit rate                                 : 448 Kbps
    Channel(s)                               : 6 channels
    Channel positions                        : Front: L C R, Side: L R, LFE
    Sampling rate                            : 48.0 KHz
    Compression mode                         : Lossy
    Stream size                              : 78.4 MiB (15%)
    Language                                 : German
    Default                                  : Yes
    Forced                                   : No
    
    Audio #2
    ID                                       : 3
    Format                                   : AC-3
    Format/Info                              : Audio Coding 3
    Mode extension                           : CM (complete main)
    Format settings, Endianness              : Big
    Codec ID                                 : A_AC3
    Duration                                 : 24mn 27s
    Bit rate mode                            : Constant
    Bit rate                                 : 448 Kbps
    Channel(s)                               : 2 channels
    Channel positions                        : Front: L R
    Sampling rate                            : 48.0 KHz
    Compression mode                         : Lossy
    Stream size                              : 78.4 MiB (15%)
    Language                                 : Japanese
    Default                                  : No
    Forced                                   : No
    
    Text #1
    ID                                       : 4
    Format                                   : PGS
    Muxing mode                              : zlib
    Codec ID                                 : S_HDMV/PGS
    Codec ID/Info                            : Picture based subtitle format used on BDs/HD-DVDs
    Default                                  : Yes
    Forced                                   : No
    
    Text #2
    ID                                       : 5
    Format                                   : PGS
    Muxing mode                              : zlib
    Codec ID                                 : S_HDMV/PGS
    Codec ID/Info                            : Picture based subtitle format used on BDs/HD-DVDs
    Default                                  : No
    Forced                                   : No
    
    



    1080p AC3

    Code:
    
    
    Format                                   : Matroska
    Format version                           : Version 4 / Version 2
    File size                                : 904 MiB
    Duration                                 : 24mn 27s
    Overall bit rate                         : 5 165 Kbps
    Encoded date                             : UTC 2015-12-16 21:24:13
    Writing application                      : mkvmerge v8.2.0 ('World of Adventure') 32bit
    Writing library                          : libebml v1.3.1 + libmatroska v1.4.2
    DURATION                                 : 00:24:15.955000000
    NUMBER_OF_FRAMES                         : 569
    NUMBER_OF_BYTES                          : 6288505
    _STATISTICS_WRITING_APP                  : mkvmerge v8.2.0 ('World of Adventure') 32bit
    _STATISTICS_WRITING_DATE_UTC             : 2015-12-16 21:24:13
    _STATISTICS_TAGS                         : BPS DURATION NUMBER_OF_FRAMES NUMBER_OF_BYTES
    
    Video
    ID                                       : 1
    Format                                   : AVC
    Format/Info                              : Advanced Video Codec
    Format profile                           : [email protected]
    Format settings, CABAC                   : Yes
    Format settings, ReFrames                : 4 frames
    Codec ID                                 : V_MPEG4/ISO/AVC
    Duration                                 : 24mn 27s
    Bit rate                                 : 4 166 Kbps
    Width                                    : 1 920 pixels
    Height                                   : 1 080 pixels
    Display aspect ratio                     : 16:9
    Frame rate mode                          : Constant
    Frame rate                               : 23.976 fps
    Color space                              : YUV
    Chroma subsampling                       : 4:2:0
    Bit depth                                : 8 bits
    Scan type                                : Progressive
    Bits/(Pixel*Frame)                       : 0.084
    Stream size                              : 729 MiB (81%)
    Writing library                          : x264 core 148 r2638 7599210
    Encoding settings                        : cabac=1 / ref=4 / deblock=1:1:1 / analyse=0x3:0x113 / me=hex / subme=9 / psy=1 / psy_rd=0.40:0.00 / mixed_ref=1 / me_range=16 / chroma_me=1 / trellis=1 / 8x8dct=1 / cqm=0 / deadzone=21,11 / fast_pskip=1 / chroma_qp_offset=-2 / threads=12 / lookahead_threads=1 / sliced_threads=0 / nr=0 / decimate=1 / interlaced=0 / bluray_compat=0 / constrained_intra=0 / bframes=5 / b_pyramid=2 / b_adapt=2 / b_bias=0 / direct=1 / weightb=1 / open_gop=0 / weightp=2 / keyint=240 / keyint_min=23 / scenecut=40 / intra_refresh=0 / rc_lookahead=40 / rc=crf / mbtree=1 / crf=16.0 / qcomp=0.60 / qpmin=0 / qpmax=69 / qpstep=4 / vbv_maxrate=62500 / vbv_bufsize=78125 / crf_max=0.0 / nal_hrd=none / filler=0 / ip_ratio=1.40 / aq=1:0.60
    Default                                  : Yes
    Forced                                   : No
    
    Audio #1
    ID                                       : 2
    Format                                   : AC-3
    Format/Info                              : Audio Coding 3
    Mode extension                           : CM (complete main)
    Format settings, Endianness              : Big
    Codec ID                                 : A_AC3
    Duration                                 : 24mn 27s
    Bit rate mode                            : Constant
    Bit rate                                 : 448 Kbps
    Channel(s)                               : 6 channels
    Channel positions                        : Front: L C R, Side: L R, LFE
    Sampling rate                            : 48.0 KHz
    Compression mode                         : Lossy
    Stream size                              : 78.4 MiB (9%)
    Language                                 : German
    Default                                  : Yes
    Forced                                   : No
    
    Audio #2
    ID                                       : 3
    Format                                   : AC-3
    Format/Info                              : Audio Coding 3
    Mode extension                           : CM (complete main)
    Format settings, Endianness              : Big
    Codec ID                                 : A_AC3
    Duration                                 : 24mn 27s
    Bit rate mode                            : Constant
    Bit rate                                 : 448 Kbps
    Channel(s)                               : 2 channels
    Channel positions                        : Front: L R
    Sampling rate                            : 48.0 KHz
    Compression mode                         : Lossy
    Stream size                              : 78.4 MiB (9%)
    Language                                 : Japanese
    Default                                  : No
    Forced                                   : No
    
    Text #1
    ID                                       : 4
    Format                                   : PGS
    Muxing mode                              : zlib
    Codec ID                                 : S_HDMV/PGS
    Codec ID/Info                            : Picture based subtitle format used on BDs/HD-DVDs
    Default                                  : Yes
    Forced                                   : No
    
    Text #2
    ID                                       : 5
    Format                                   : PGS
    Muxing mode                              : zlib
    Codec ID                                 : S_HDMV/PGS
    Codec ID/Info                            : Picture based subtitle format used on BDs/HD-DVDs
    Default                                  : No
    Forced                                   : No
    
    



    1080p DTS-HD

    Code:
    
    
    Format                                   : Matroska
    Format version                           : Version 4 / Version 2
    File size                                : 1.59 GiB
    Duration                                 : 24mn 27s
    Overall bit rate mode                    : Variable
    Overall bit rate                         : 9 324 Kbps
    Encoded date                             : UTC 2015-12-16 21:41:57
    Writing application                      : mkvmerge v8.2.0 ('World of Adventure') 32bit
    Writing library                          : libebml v1.3.1 + libmatroska v1.4.2
    DURATION                                 : 00:24:15.955000000
    NUMBER_OF_FRAMES                         : 569
    NUMBER_OF_BYTES                          : 6288505
    _STATISTICS_WRITING_APP                  : mkvmerge v8.2.0 ('World of Adventure') 32bit
    _STATISTICS_WRITING_DATE_UTC             : 2015-12-16 21:41:57
    _STATISTICS_TAGS                         : BPS DURATION NUMBER_OF_FRAMES NUMBER_OF_BYTES
    
    Video
    ID                                       : 1
    Format                                   : AVC
    Format/Info                              : Advanced Video Codec
    Format profile                           : [email protected]
    Format settings, CABAC                   : Yes
    Format settings, ReFrames                : 4 frames
    Codec ID                                 : V_MPEG4/ISO/AVC
    Duration                                 : 24mn 27s
    Width                                    : 1 920 pixels
    Height                                   : 1 080 pixels
    Display aspect ratio                     : 16:9
    Frame rate mode                          : Constant
    Frame rate                               : 23.976 fps
    Color space                              : YUV
    Chroma subsampling                       : 4:2:0
    Bit depth                                : 8 bits
    Scan type                                : Progressive
    Writing library                          : x264 core 148 r2638 7599210
    Encoding settings                        : cabac=1 / ref=4 / deblock=1:1:1 / analyse=0x3:0x113 / me=hex / subme=9 / psy=1 / psy_rd=0.40:0.00 / mixed_ref=1 / me_range=16 / chroma_me=1 / trellis=1 / 8x8dct=1 / cqm=0 / deadzone=21,11 / fast_pskip=1 / chroma_qp_offset=-2 / threads=12 / lookahead_threads=1 / sliced_threads=0 / nr=0 / decimate=1 / interlaced=0 / bluray_compat=0 / constrained_intra=0 / bframes=5 / b_pyramid=2 / b_adapt=2 / b_bias=0 / direct=1 / weightb=1 / open_gop=0 / weightp=2 / keyint=240 / keyint_min=23 / scenecut=40 / intra_refresh=0 / rc_lookahead=40 / rc=crf / mbtree=1 / crf=16.0 / qcomp=0.60 / qpmin=0 / qpmax=69 / qpstep=4 / vbv_maxrate=62500 / vbv_bufsize=78125 / crf_max=0.0 / nal_hrd=none / filler=0 / ip_ratio=1.40 / aq=1:0.60
    Default                                  : Yes
    Forced                                   : No
    
    Audio #1
    ID                                       : 2
    Format                                   : DTS
    Format/Info                              : Digital Theater Systems
    Format profile                           : MA / Core
    Mode                                     : 16
    Format settings, Endianness              : Big
    Codec ID                                 : A_DTS
    Duration                                 : 24mn 27s
    Bit rate mode                            : Variable
    Bit rate                                 : Unknown / 1 509 Kbps
    Channel(s)                               : 6 channels
    Channel positions                        : Front: L C R, Side: L R, LFE
    Sampling rate                            : 48.0 KHz
    Bit depth                                : 24 bits
    Compression mode                         : Lossless / Lossy
    Language                                 : German
    Default                                  : Yes
    Forced                                   : No
    
    Audio #2
    ID                                       : 3
    Format                                   : DTS
    Format/Info                              : Digital Theater Systems
    Format profile                           : MA / Core
    Mode                                     : 16
    Format settings, Endianness              : Big
    Codec ID                                 : A_DTS
    Duration                                 : 24mn 27s
    Bit rate mode                            : Variable
    Bit rate                                 : Unknown / 768 Kbps
    Channel(s)                               : 2 channels
    Channel positions                        : Front: L R
    Sampling rate                            : 48.0 KHz
    Bit depth                                : 16 bits
    Compression mode                         : Lossless / Lossy
    Language                                 : Japanese
    Default                                  : No
    Forced                                   : No
    
    Text #1
    ID                                       : 4
    Format                                   : PGS
    Muxing mode                              : zlib
    Codec ID                                 : S_HDMV/PGS
    Codec ID/Info                            : Picture based subtitle format used on BDs/HD-DVDs
    Default                                  : Yes
    Forced                                   : No
    
    Text #2
    ID                                       : 5
    Format                                   : PGS
    Muxing mode                              : zlib
    Codec ID                                 : S_HDMV/PGS
    Codec ID/Info                            : Picture based subtitle format used on BDs/HD-DVDs
    Default                                  : No
    Forced                                   : No
    
    









    Geschützter Bereich - Bedanke dich beim Poster, um den Bereich sehen zu können
    Hier erfährst Du wie Du Dich bedanken kannst oder werde jetzt Premium Mitglied ab einer Spende von 5€ und erhalte sofortigen Zugriff auf den Downloadbereich!


    !!!Alle Anliegen bezüglich Uploads werden nur mit direktem Threadlink zum Angebot bearbeitet!!!

    Re-Uploadanfragen nur per PN - Ihr könnt mir auch Listen schicken

    Re-Uploads folgen nach Anfrage meist am Wochenende

    [Links sind nur für registrierte und aktivierte Nutzer sichtbar. Klicke hier um dich zu registrieren.] | [Links sind nur für registrierte und aktivierte Nutzer sichtbar. Klicke hier um dich zu registrieren.] | >[Links sind nur für registrierte und aktivierte Nutzer sichtbar. Klicke hier um dich zu registrieren.]<
    [Links sind nur für registrierte und aktivierte Nutzer sichtbar. Klicke hier um dich zu registrieren.]

  2. 417 Benutzer sagen Danke:

    Anzeigen

    ソウル イーター  (29. December 2015),-tomcat- (8. August 2016),1und2 (7. January 2016),ace1234560 (18. November 2015),Aikesh (19. February 2016),Akan (26. July 2015),Akio (8. August 2015),Alaric (1. August 2015),alecander (28. September 2015),Alecith (13. March 2016),Aluaran (24. July 2015),Always_Unknown (11. February 2016),Amyros (22. August 2015),Androkai (27. July 2015),andy6 (22. December 2015),andyb90 (14. December 2015),Angelous (19. August 2015),animuddi (23. December 2015),anno_nami (27. December 2015),ansyeiraso (10. September 2015),ApCeLlonDinG (25. December 2015),archonize (20. December 2015),Ardock (23. December 2015),Argl (16. August 2015),Asgar001 (12. November 2016),Asuka Langley (23. July 2015),Atlas (13. December 2015),Atmozfear (22. August 2015),Audifreak91 (19. November 2016),Axel87 (5. January 2016),babjasrap94 (3. December 2016),baldur1989 (30. December 2015),Baschti1989 (27. September 2016),basdi (4. February 2016),bayerle92 (2. August 2015),bbc123 (28. December 2015),Belbo (5. June 2016),BlackAssassin100 (1. April 2016),Blackdragon1702 (25. December 2015),BlackDragon333 (4. August 2016),Blackfl4g (28. July 2015),BlackPhoenix (23. July 2015),BlackWidow (14. February 2016),BlayZin (18. January 2016),bleach-master (6. January 2016),Bloodrevenge (27. December 2015),Bloodymight (13. December 2015),Boendal (30. September 2016),bra1nbug94 (5. February 2016),brunsdumm (24. December 2015),Buddha (9. February 2016),Bullet91 (17. August 2015),Buschkilla (7. December 2015),Carbon (18. October 2016),cenobia (13. December 2015),Chilko (7. August 2015),Chillasedi (4. August 2015),chL420 (20. September 2016),chopper23 (23. July 2015),ChriisP (27. December 2015),Chris (5. September 2016),chris1989 (17. October 2015),Ciddy (26. August 2015),Clankinator (21. November 2015),claro.claire1996 (29. June 2016),cloud-strife20 (17. November 2016),Coji (27. September 2015),CoNfu5eD (8. January 2016),Conopas (2. May 2016),CrmnlBT (15. May 2016),Crocodile (14. December 2015),CROYAL (22. May 2016),Cruchy Lizard (2. January 2016),Cy_Baer (24. July 2015),dacheff (24. December 2015),Dall (7. August 2015),Dangel (31. October 2016),Dark-Noir (15. September 2015),Darkmasta (23. January 2016),DarkTerminator (5. January 2016),Darth Affe (13. March 2016),darthgonk (7. March 2016),DarthToast (24. July 2015),Das-Ying (24. April 2016),Deadman_01 (20. October 2016),Delatharos (6. February 2016),demonac (23. July 2016),DerLucky215 (16. December 2015),DerP0LE (5. February 2016),Dester007 (10. December 2015),deverill14 (2. January 2016),dex90 (3. January 2016),dionys (8. July 2016),Dipack (23. August 2015),Djangorain (7. December 2015),DjRayleigh (6. September 2016),dkomm (23. January 2016),dmix (15. December 2015),donma (24. December 2015),dosde (5. May 2016),downloader_1987 (12. December 2015),DR.N (25. August 2015),dracx (29. January 2016),Dreieckhard (18. August 2015),duscha2925 (16. November 2015),dzeko (6. December 2016),egon1212 (21. August 2015),ElfenLied (30. August 2015),EmeralX4 (11. November 2015),Enirito (18. December 2015),EpiX (23. December 2015),Er4s3r (21. December 2015),Exede (24. December 2015),Extraneis (14. December 2015),Ezekiel2517 (22. January 2016),fabio1221 (30. May 2016),Facebreaker (12. December 2015),FantasticZ (9. November 2016),fexco (24. December 2015),fifa200 (27. December 2015),FingerMove (15. October 2015),Finkregh (23. December 2015),Firefly (28. December 2015),firenox89 (25. August 2015),Fishbowl (18. August 2015),Flint (23. September 2015),florian2212 (26. May 2016),Flyer (10. December 2015),fonomonochan (24. November 2015),frankra (2. January 2016),freakwatcher (31. August 2015),fullmetal1995 (29. March 2016),galudo (27. September 2016),Gatti1983 (19. December 2015),GiftGasBaer (10. September 2015),gisela (24. December 2015),Glade (10. April 2016),Goki.Grokus (27. December 2015),Goldensun (14. August 2015),Goldwipf (19. March 2016),Gott Enel (1. October 2016),GutiHaz_14 (24. January 2016),Habimon (17. August 2015),hanismustismann (7. December 2015),heikobaer (15. August 2015),Hirs_E_Fruit (13. December 2015),Hiruja (19. July 2016),Hisamaki (16. December 2015),Hobbitgraf (23. December 2015),Hollow-Ichigo (22. December 2015),Holzmodem (15. January 2016),Hououin Kyouma (3. May 2016),hundekuchen (18. May 2016),hyper (14. August 2015),Hyro (29. September 2016),iclazzzix (26. July 2015),icloudmax (13. December 2015),iCornflakes (18. October 2015),ihabo (30. October 2015),ikkyyy (28. April 2016),illyria87_inactive (21. August 2015),inst4gib (13. December 2015),ItachiUchiha (25. May 2016),Ithilias (4. November 2015),ItsMeee (22. April 2016),Jamaz (17. January 2016),janik2009 (9. October 2015),Jesche (19. August 2016),juckenkratzen (28. December 2015),Jukka (5. August 2015),Jurij3boy (11. October 2015),Kaan- (3. June 2016),kaiste (3. July 2016),Kaktusmensch (31. July 2015),Kaldo (4. December 2015),KawaiiCookie (5. October 2015),Kazuma (1. November 2015),KeepPrivat (19. August 2015),Keiler (13. May 2016),Kevin386 (25. April 2016),KingDing15 (11. October 2015),kinghol (24. July 2015),KiRa69 (13. October 2015),knanime (18. August 2015),Knochenjonny (26. October 2016),KnutHunter (17. January 2016),krasserGaul (23. July 2015),krokojo (26. July 2015),KudoShinichi (16. September 2015),kutschi (23. July 2015),lamiron (10. September 2015),Lammel (23. August 2015),Lamperouge (25. January 2016),Lautrerbomber (14. September 2016),Laxi (15. August 2015),LelouchviBritannia (23. January 2016),LeonAdamo (13. December 2015),Ley0304 (26. August 2015),lippls (1. March 2016),Lolarennt (11. October 2016),LomeaDae (4. September 2016),LordBacon1 (23. March 2016),LostRay (21. August 2016),lucky_mer (7. December 2015),luko8000 (30. December 2015),Lupino (3. January 2016),Lux49 (14. December 2015),MacRul3z (5. September 2016),markusdamon5 (8. September 2016),MaTRiiX (28. November 2015),Matzehansa (30. November 2015),mauslea (10. January 2016),Max13493 (24. July 2015),maximus (18. May 2016),McBass212 (30. August 2015),mccharly (7. August 2015),McLinux (25. December 2015),MCRFG (13. March 2016),McZeRo (21. February 2016),Meistermagier (10. August 2015),merb (15. December 2015),Michih80 (16. December 2015),midnighter (25. July 2015),Miharu (20. December 2015),Mikarmi (17. November 2015),Miriweth (26. October 2015),mischacraft (22. September 2016),misterdsl (20. September 2015),MJMax (15. November 2015),moflippa (27. July 2015),Monkey (27. January 2016),Monkey_D._Luffy (4. January 2016),Mr.Shit (7. January 2016),muffinhunter (16. August 2015),MutationACE (2. January 2016),n3l0S (24. July 2015),nabou (15. December 2015),nascool (28. March 2016),Natsuki (19. August 2015),Necronomikon (4. January 2016),NeefBenriya (2. January 2016),nemo (1. July 2016),Nephalis (29. July 2016),NeroTheDawn (8. November 2015),nickssystem (14. September 2015),nickwismar (27. July 2016),nicole832 (25. August 2016),nightstick (26. July 2015),Nijazi2000 (1. October 2016),NobodyKnows (3. March 2016),noigel2 (21. December 2015),noizmaker (23. December 2015),norby (23. July 2015),numbke (2. August 2015),Nyan (24. December 2015),onepiecefreak (19. December 2015),oOeLOo (27. December 2015),Paachan (5. April 2016),PaMon1904 (11. June 2016),Paraxamos (20. April 2016),passi (14. August 2015),Paulus (13. December 2015),Pazu (19. September 2016),Phoenixhunter (7. December 2015),piqchiq (29. December 2015),Poocky (24. December 2015),Porco (15. November 2015),pp95 (15. August 2015),prinzvegeta (3. January 2016),prodektor (17. August 2015),pron.supra (28. September 2015),Pure (9. August 2016),Rahel (20. October 2016),Raphael96 (8. February 2016),Ravyn2805 (21. May 2016),Razel86 (8. September 2015),Raziel (27. December 2015),redithebat (12. August 2015),Rena (31. July 2016),rentaro (25. November 2015),Repcak (6. April 2016),rettz (20. December 2015),Rhonos (29. October 2016),riezik (13. October 2015),riku14466 (27. December 2015),Rikune (22. June 2016),Rin58 (21. September 2015),rinnegan93 (28. November 2016),risobp (9. February 2016),rkrause (14. April 2016),Robin88 (10. July 2016),roxxa (22. August 2015),RyuLelouch (14. December 2015),sabs0686 (14. August 2015),Sam Diamond (29. May 2016),sami123 (26. July 2015),Samiki (22. October 2015),sapzero (17. May 2016),saso! (18. September 2016),Satiini (31. October 2015),Sayurai (6. July 2016),scarven (13. August 2016),sch (8. December 2016),Scorns (27. December 2015),Scorpionlord88 (10. February 2016),Se.phi.roth (8. March 2016),sebmori (3. July 2016),SenseiSasone (24. July 2015),Senseless (28. September 2015),Sephi66 (30. August 2015),Sergej10 (30. December 2015),Sgoku (30. April 2016),ShAd_1337 (23. July 2016),shawn10398 (4. August 2015),Shi No Ryu (5. April 2016),Shika (23. July 2015),Shinigamiix (11. September 2015),Shinon.Kagura (30. October 2016),showtekia (3. April 2016),Sidias (3. December 2015),Sildurias (30. October 2015),Silversurfer1402 (9. November 2015),SilverSurferGT.de (23. July 2015),Simon Jack (22. January 2016),Sirenetix (29. June 2016),Sirius (17. April 2016),slyva (31. December 2015),smaik (27. December 2015),Smiths (15. May 2016),SmokingTea (18. October 2015),Snake356 (24. December 2015),Sodomizer (27. July 2015),Sonicslash (11. April 2016),SONNYxq (23. July 2015),Sora (25. December 2015),Sorko (12. January 2016),SourceSeeker (18. June 2016),Spark (28. September 2015),Speedy1887 (21. January 2016),Spittfaia (13. December 2015),sponkyplayer (1. September 2015),Starbrand (13. December 2015),Statler (29. April 2016),Stoneman (24. December 2015),sunnlo (14. March 2016),Supersick (24. June 2016),Susuchi (27. July 2015),svwanalyst (7. November 2016),swagrid (26. December 2015),Swani (17. August 2015),Sylux (3. September 2015),Tai1988 (27. February 2016),Talerius (2. September 2016),Tana-kun (3. December 2015),TBlade (10. October 2015),Tekk (12. December 2015),Tenacious (6. October 2015),ter_Kapitalist (21. July 2016),TheDarkJesus (27. October 2016),theglone (1. February 2016),thegroudge (25. May 2016),TheTestzilla (19. December 2015),TheYoAsakura (4. January 2016),The_Iron (6. October 2015),thomas (3. January 2016),thor17 (26. September 2015),Tibscha (3. October 2015),tigerhai (24. December 2015),Titanime (15. October 2016),tokage (28. December 2015),Tokitomo (11. September 2016),tompace (21. October 2016),TrUnkO (24. July 2015),turyal (28. September 2015),Tycos (24. December 2015),Tzi (17. August 2015),tzuio (24. December 2015),T§sseract (24. July 2016),unknown5731 (1. June 2016),Vagabund (6. October 2016),Vastolord (30. August 2016),VatosLocos (29. September 2015),Vaxes013 (6. February 2016),ventus1991 (29. November 2016),videoseven (25. June 2016),Virgel (14. March 2016),Volki002 (10. September 2015),Wakaba (1. December 2016),Wallaby (7. May 2016),wasweisich (5. October 2015),Wides (8. February 2016),Windwusel (25. December 2015),winni2000 (30. January 2016),wire1257 (19. September 2016),wirschiii (24. July 2015),WolfsBlade (23. August 2015),Wölfchen (12. December 2015),x6100x (25. July 2015),xdricixd (31. October 2015),XenoX (4. April 2016),Xers (23. July 2015),xNiikeY (30. January 2016),Xoon (21. October 2016),Xwix (24. June 2016),xXBaaMXx (9. January 2016),Yeezy (6. June 2016),Yuki+ (28. December 2015),Yumikora (22. January 2016),Z5991E (17. December 2015),zamza21 (29. July 2015),Zapzerap (5. June 2016),Zeigerful (2. January 2016),ZeroX6 (23. October 2015),zockerboy (20. August 2015),zoe#449 (26. November 2015),zorro177 (3. July 2016),Zumay (25. December 2015)

  3. #2
    High Quality Anime Avatar von Uploading123
    Registriert seit
    Mar 2013
    Beiträge
    1.009
    Punkte
    44.135
    Errungenschaften:
    TomodachisTagger Amateur25000 ErfahrungspunkteHikikomoriKapitän

    AW: Fullmetal Alchemist: Brotherhood [Ger-Jap-Dub][Ger-Sub][720p/1080p][Bluray]-Ast4u

    Fullmetal.Alchemist.Brotherhood.COMPLETE.u.OVAs.Ge rman.AC3.DL.720p.BluRay.x264-AST4u



    .:Beschreibung:.
    Die Wissenschaft kann mittlerweile fast alles. Das ist einerseits gut, andererseits aber auch verführerisch. Denn nach wie vor kann sie niemanden aus dem Reich der Toten zurückholen. Auch die sogenannte Alchemie nicht, die sich dem Verstehen, Zerlegen und der Rekonstruktion von Materie verschrieben hat. Man kann nicht Etwas aus Nichts erschaffen. Für Alchemisten existiert daher auch ein Tabu: Die Transmutation von Menschen. Diese darf niemals versucht werden. Als die Brüder Edward und Alphonse Elric jedoch versuchen, ihre gestorbene Mutter zu transmutieren, müssen sie den Preis dafür zahlen…

    Note: Alle Versionen noch nicht gefixt.

    .:Info:.
    Größe: 56884 MB
    Laufzeit: 24 Min.
    Format: .mkv
    Video Stream: BD
    Video Codec: MPEG-4 H.264 / AVC
    Audio Stream: Dolby Digital 5.1
    Sprache/n: GER, JPN
    Genre: Animeserie
    Episodenanzahl: 64/64 + 4/4

    .:NFO:.
    Spoiler
    Code:
    nfo by
      daskenny
    
    _                        PROUDLY PRESENTS
    
    _     Fullmetal Alchmist Brotherhood OVAs BDRip 720p AST4u
    
    _  Erscheinungsdatum: 09.11.2015
    _  Source...........: Bluray
    _  Format...........: MKV
    _  Codec............: x264
    _  Formatinfos......: 1280 x 720
    _  Soundformat......: AC3
    _  Videobitrate.....: 4500 kbps
    _  Audiobitrate.....: 448 kbps
    _  Dateigroesse.....: Deutsch, Japanisch
    _  Untertitel.......: Deutsch
    _  Spieldauer.......: 60 Minuten
    _  FSK..............: 16 Jahren
    _  Dateigroesse.....: 2.01 GB
    
    _  Original BluRay und encodet by AST4u-HD-Crew
    
    _  Fullmetal Alchemist: Brotherhood - OVA Collection
    
    _  Basierend auf den Mangas von Hiromu Arakawa wurde auch
    _  diese OVA Collection aufwSndig in Szene gesetzt. Begleiten  _
    _  Sie Edward und Alphonse, Winry, Izumi Curtis, Roy Mustang
    _  und Maes Hughes bei ihren spannenden und dramatischen
    _  Geschichten. OVA steht fnr SOriginal Video Animation  und
    _  zeigt in diesem Fall vier Hintergrundgeschichten aus dem
    _  Universum von SFullmetal Alchemist: Brotherhood
    
    _  Edward und Alphonse Elric ziehen durch das Land, immer
    _  noch auf der Suche nach dem Stein der Weisen, der es ihnen  _
    _  erm glicht, wieder so zu werden, wie sie vor dem Versuch
    _  der menschlichen Transmutation waren. Hoffnung keimt in
    _  ihnen auf, als sie auf den blinden Alchemisten Judeau
    _  treffen, denn ihm scheint es gelungen zu sein, einen
    _  Menschen erfolgreich zu transmutieren. Ed und Al haben
    _  zudem herausgefunden, wie sie Winry am besten freundlich
    _  stimmen k nnen: Mit Ohrringen. Als sie ihr immer wieder
    _  welche schenken, lSsst sie sich jedes Mal neue Ohrl cher
    _  stechen. In einer weiteren Geschichte wird erzShlt, wie
    _  die 18-jShrige Izumi Curtis, die damals noch Izumi Harnet
    _  hiess, ihren Meister trifft. Dieser verlangt von ihr zum
    _  Trainingsauftakt, einen Monat in den Bergen von Briggs zu
    _  nberleben - nur bewaffnet mit einem Messer. Die vierte
    _  Folge beschreibt, wie sich Roy Mustang und Maes Hughes auf  _
    _  der Kadettenschule kennenlernen. Ausserdem blicken wir in
    _  das Jahr 1908, inmitten der Wirren des ishvalischen
    _  Vernichtungskrieges.
    
    _  In der ersten Geschichte SDer blinde Alchemist  ziehen
    _  Edward und Alphonse Elric durch das Land, immer noch auf
    _  der Suche nach dem Stein der Weisen, der es ihnen
    _  erm glicht, wieder so zu werden, wie sie vor dem Versuch
    _  der menschlichen Transmutation waren. Hoffnung keimt in
    _  ihnen auf, als sie auf den blinden Alchemisten Judeau
    _  treffen, denn ihm scheint es gelungen zu sein, einen
    _  Menschen erfolgreich zu transmutieren. Doch mit der Zeit
    _  erfahren sie die Wahrheit, die ihre Herzen erweichen
    _  lSssta
    
    _  In SEinfache Leute  haben Ed und Al herausgefunden, wie
    _  sie Winry am besten freundlich stimmen k nnen: Mit
    _  Ohrringen, die sie beim Juwelier fnr sie kaufen. Sie
    _  kaufen ihr jedes Mal, wenn sie sie besuchen ein neues
    _  Paar. Dann allerdings bemerken sie, dass sie sich fnr
    _  jedes geschenkte Paar neue Ohrl cher stechen lSsst. Das
    _  tut sie auch, weil sie das bei Riza so gut findet. Riza
    _  hingegen beschlie t sich die Haare wachsen zu lassen, weil  _
    _  sie es bei Winry so toll findet.
    
    _  In SDie Geschichte der Meisterin  wird erzShlt, wie die
    _  18-jShrige Izumi Curtis, die damals noch Izumi Harnet
    _  hie , ihren Meister trifft. Dieser verlangt von ihr zum
    _  Trainingsauftakt, einen Monat in den Bergen von Briggs zu
    _  nberleben - nur bewaffnet mit einem Messer. Darnber hinaus  _
    _  erfahren wir auch noch, wie sie ihren spSteren Ehemann Sig  _
    _  Curtis das erste Mal trifft.
    
    _  Die vierte Folge beschreibt, wie sich Roy Mustang und Maes  _
    _  Hughes auf der Kadettenschule kennenlernen. Sie freunden
    _  sich mit einem Mitstudenten aus Ishval an, der von den
    _  anderen gemobbt wird. Sie stellen sich auf seine Seite,
    _  doch dann bricht der ishvalische Vernichtungskrieg aus und  _
    _  die Freunde werden so gezwungenerma en zu Feinden, die
    _  sich gegenseitig bekriegen mnssen.
    
    _  01 Der blinde Alchemist
    _  02 Einfache Leute
    _  03 Die Geschichte der Meisterin
    _  04 Noch ein anderes MSnner Schlachtfeld
    
    _________      ast4u.me


    Mirrors kompatibel

    .:Uploaded.net:.
    Geschützter Bereich - Bedanke dich beim Poster, um den Bereich sehen zu können
    Hier erfährst Du wie Du Dich bedanken kannst oder werde jetzt Premium Mitglied ab einer Spende von 5€ und erhalte sofortigen Zugriff auf den Downloadbereich!

    .:Share-online.biz:.
    Geschützter Bereich - Bedanke dich beim Poster, um den Bereich sehen zu können
    Hier erfährst Du wie Du Dich bedanken kannst oder werde jetzt Premium Mitglied ab einer Spende von 5€ und erhalte sofortigen Zugriff auf den Downloadbereich!

    .:Oboom.com:.
    Geschützter Bereich - Bedanke dich beim Poster, um den Bereich sehen zu können
    Hier erfährst Du wie Du Dich bedanken kannst oder werde jetzt Premium Mitglied ab einer Spende von 5€ und erhalte sofortigen Zugriff auf den Downloadbereich!




    Fullmetal.Alchemist.Brotherhood.COMPLETE.u.OVAs.Ge rman.AC3.DL.1080p.BluRay.x264-AST4u



    .:Beschreibung:.
    Die Wissenschaft kann mittlerweile fast alles. Das ist einerseits gut, andererseits aber auch verführerisch. Denn nach wie vor kann sie niemanden aus dem Reich der Toten zurückholen. Auch die sogenannte Alchemie nicht, die sich dem Verstehen, Zerlegen und der Rekonstruktion von Materie verschrieben hat. Man kann nicht Etwas aus Nichts erschaffen. Für Alchemisten existiert daher auch ein Tabu: Die Transmutation von Menschen. Diese darf niemals versucht werden. Als die Brüder Edward und Alphonse Elric jedoch versuchen, ihre gestorbene Mutter zu transmutieren, müssen sie den Preis dafür zahlen…

    .:Info:.
    Größe: 116412 MB
    Laufzeit: 24 Min.
    Format: .mkv
    Video Stream: BD
    Video Codec: MPEG-4 H.264 / AVC
    Audio Stream: Dolby Digital 5.1
    Sprache/n: GER, JPN
    Genre: Animeserie
    Episodenanzahl: 64/64 + 4/4

    .:NFO:.
    Spoiler
    Code:
    nfo by
      daskenny
    
    _                        PROUDLY PRESENTS
    
    _    Fullmetal Alchmist Brotherhood OVAs BDRip 1080p AST4u
    
    _  Erscheinungsdatum: 09.11.2015
    _  Source...........: Bluray
    _  Format...........: MKV
    _  Codec............: x264
    _  Formatinfos......: 1920 x 1280
    _  Soundformat......: AC3
    _  Videobitrate.....: 10000 kbps
    _  Audiobitrate.....: 448 kbps
    _  Dateigroesse.....: Deutsch, Japanisch
    _  Untertitel.......: Deutsch
    _  Spieldauer.......: 60 Minuten
    _  FSK..............: 16 Jahren
    _  Dateigroesse.....: 4.02 GB
    
    _  Original BluRay und encodet by AST4u-HD-Crew
    
    _  Fullmetal Alchemist: Brotherhood - OVA Collection
    
    _  Basierend auf den Mangas von Hiromu Arakawa wurde auch
    _  diese OVA Collection aufwSndig in Szene gesetzt. Begleiten  _
    _  Sie Edward und Alphonse, Winry, Izumi Curtis, Roy Mustang
    _  und Maes Hughes bei ihren spannenden und dramatischen
    _  Geschichten. OVA steht fnr SOriginal Video Animation  und
    _  zeigt in diesem Fall vier Hintergrundgeschichten aus dem
    _  Universum von SFullmetal Alchemist: Brotherhood
    
    _  Edward und Alphonse Elric ziehen durch das Land, immer
    _  noch auf der Suche nach dem Stein der Weisen, der es ihnen  _
    _  erm glicht, wieder so zu werden, wie sie vor dem Versuch
    _  der menschlichen Transmutation waren. Hoffnung keimt in
    _  ihnen auf, als sie auf den blinden Alchemisten Judeau
    _  treffen, denn ihm scheint es gelungen zu sein, einen
    _  Menschen erfolgreich zu transmutieren. Ed und Al haben
    _  zudem herausgefunden, wie sie Winry am besten freundlich
    _  stimmen k nnen: Mit Ohrringen. Als sie ihr immer wieder
    _  welche schenken, lSsst sie sich jedes Mal neue Ohrl cher
    _  stechen. In einer weiteren Geschichte wird erzShlt, wie
    _  die 18-jShrige Izumi Curtis, die damals noch Izumi Harnet
    _  hiess, ihren Meister trifft. Dieser verlangt von ihr zum
    _  Trainingsauftakt, einen Monat in den Bergen von Briggs zu
    _  nberleben - nur bewaffnet mit einem Messer. Die vierte
    _  Folge beschreibt, wie sich Roy Mustang und Maes Hughes auf  _
    _  der Kadettenschule kennenlernen. Ausserdem blicken wir in
    _  das Jahr 1908, inmitten der Wirren des ishvalischen
    _  Vernichtungskrieges.
    
    _  In der ersten Geschichte SDer blinde Alchemist  ziehen
    _  Edward und Alphonse Elric durch das Land, immer noch auf
    _  der Suche nach dem Stein der Weisen, der es ihnen
    _  erm glicht, wieder so zu werden, wie sie vor dem Versuch
    _  der menschlichen Transmutation waren. Hoffnung keimt in
    _  ihnen auf, als sie auf den blinden Alchemisten Judeau
    _  treffen, denn ihm scheint es gelungen zu sein, einen
    _  Menschen erfolgreich zu transmutieren. Doch mit der Zeit
    _  erfahren sie die Wahrheit, die ihre Herzen erweichen
    _  lSssta
    
    _  In SEinfache Leute  haben Ed und Al herausgefunden, wie
    _  sie Winry am besten freundlich stimmen k nnen: Mit
    _  Ohrringen, die sie beim Juwelier fnr sie kaufen. Sie
    _  kaufen ihr jedes Mal, wenn sie sie besuchen ein neues
    _  Paar. Dann allerdings bemerken sie, dass sie sich fnr
    _  jedes geschenkte Paar neue Ohrl cher stechen lSsst. Das
    _  tut sie auch, weil sie das bei Riza so gut findet. Riza
    _  hingegen beschlie t sich die Haare wachsen zu lassen, weil  _
    _  sie es bei Winry so toll findet.
    
    _  In SDie Geschichte der Meisterin  wird erzShlt, wie die
    _  18-jShrige Izumi Curtis, die damals noch Izumi Harnet
    _  hie , ihren Meister trifft. Dieser verlangt von ihr zum
    _  Trainingsauftakt, einen Monat in den Bergen von Briggs zu
    _  nberleben - nur bewaffnet mit einem Messer. Darnber hinaus  _
    _  erfahren wir auch noch, wie sie ihren spSteren Ehemann Sig  _
    _  Curtis das erste Mal trifft.
    
    _  Die vierte Folge beschreibt, wie sich Roy Mustang und Maes  _
    _  Hughes auf der Kadettenschule kennenlernen. Sie freunden
    _  sich mit einem Mitstudenten aus Ishval an, der von den
    _  anderen gemobbt wird. Sie stellen sich auf seine Seite,
    _  doch dann bricht der ishvalische Vernichtungskrieg aus und  _
    _  die Freunde werden so gezwungenerma en zu Feinden, die
    _  sich gegenseitig bekriegen mnssen.
    
    _  01 Der blinde Alchemist
    _  02 Einfache Leute
    _  03 Die Geschichte der Meisterin
    _  04 Noch ein anderes MSnner Schlachtfeld
    
    _________      ast4u.me


    Mirrors kompatibel

    .:Uploaded.net:.
    Geschützter Bereich - Bedanke dich beim Poster, um den Bereich sehen zu können
    Hier erfährst Du wie Du Dich bedanken kannst oder werde jetzt Premium Mitglied ab einer Spende von 5€ und erhalte sofortigen Zugriff auf den Downloadbereich!

    .:Share-online.biz:.
    Geschützter Bereich - Bedanke dich beim Poster, um den Bereich sehen zu können
    Hier erfährst Du wie Du Dich bedanken kannst oder werde jetzt Premium Mitglied ab einer Spende von 5€ und erhalte sofortigen Zugriff auf den Downloadbereich!

    .:Oboom.com:.
    Geschützter Bereich - Bedanke dich beim Poster, um den Bereich sehen zu können
    Hier erfährst Du wie Du Dich bedanken kannst oder werde jetzt Premium Mitglied ab einer Spende von 5€ und erhalte sofortigen Zugriff auf den Downloadbereich!




    Fullmetal.Alchemist.Brotherhood.COMPLETE.u.OVAs.Ge rman.DTS.5.1.DL.1080p.BluRay.x264-AST4u



    .:Beschreibung:.
    Die Wissenschaft kann mittlerweile fast alles. Das ist einerseits gut, andererseits aber auch verführerisch. Denn nach wie vor kann sie niemanden aus dem Reich der Toten zurückholen. Auch die sogenannte Alchemie nicht, die sich dem Verstehen, Zerlegen und der Rekonstruktion von Materie verschrieben hat. Man kann nicht Etwas aus Nichts erschaffen. Für Alchemisten existiert daher auch ein Tabu: Die Transmutation von Menschen. Diese darf niemals versucht werden. Als die Brüder Edward und Alphonse Elric jedoch versuchen, ihre gestorbene Mutter zu transmutieren, müssen sie den Preis dafür zahlen…

    .:Info:.
    Größe: 163720 MB
    Laufzeit: 24 Min.
    Format: .mkv
    Video Stream: BD
    Video Codec: MPEG-4 H.264 / AVC
    Audio Stream: DTS 5.1
    Sprache/n: GER, JPN
    Genre: Animeserie
    Episodenanzahl: 64/64 + 4/4

    .:NFO:.
    Spoiler
    Code:
    nfo by
      daskenny
    
    _                        PROUDLY PRESENTS
    
    _  Fullmetal Alchmist Brotherhood OVAs BDRip DTS 1080p AST4u
    
    _  Erscheinungsdatum: 09.11.2015
    _  Source...........: Bluray
    _  Format...........: MKV
    _  Codec............: x264
    _  Formatinfos......: 1920 x 1280
    _  Soundformat......: AC3
    _  Videobitrate.....: 10000 kbps
    _  Audiobitrate.....: 1509 kbps
    _  Dateigroesse.....: Deutsch, Japanisch
    _  Untertitel.......: Deutsch
    _  Spieldauer.......: 60 Minuten
    _  FSK..............: 16 Jahren
    _  Dateigroesse.....: 5.66 GB
    
    _  Original BluRay und encodet by AST4u-HD-Crew
    
    _  Fullmetal Alchemist: Brotherhood - OVA Collection
    
    _  Basierend auf den Mangas von Hiromu Arakawa wurde auch
    _  diese OVA Collection aufwSndig in Szene gesetzt. Begleiten  _
    _  Sie Edward und Alphonse, Winry, Izumi Curtis, Roy Mustang
    _  und Maes Hughes bei ihren spannenden und dramatischen
    _  Geschichten. OVA steht fnr SOriginal Video Animation  und
    _  zeigt in diesem Fall vier Hintergrundgeschichten aus dem
    _  Universum von SFullmetal Alchemist: Brotherhood
    
    _  Edward und Alphonse Elric ziehen durch das Land, immer
    _  noch auf der Suche nach dem Stein der Weisen, der es ihnen  _
    _  erm glicht, wieder so zu werden, wie sie vor dem Versuch
    _  der menschlichen Transmutation waren. Hoffnung keimt in
    _  ihnen auf, als sie auf den blinden Alchemisten Judeau
    _  treffen, denn ihm scheint es gelungen zu sein, einen
    _  Menschen erfolgreich zu transmutieren. Ed und Al haben
    _  zudem herausgefunden, wie sie Winry am besten freundlich
    _  stimmen k nnen: Mit Ohrringen. Als sie ihr immer wieder
    _  welche schenken, lSsst sie sich jedes Mal neue Ohrl cher
    _  stechen. In einer weiteren Geschichte wird erzShlt, wie
    _  die 18-jShrige Izumi Curtis, die damals noch Izumi Harnet
    _  hiess, ihren Meister trifft. Dieser verlangt von ihr zum
    _  Trainingsauftakt, einen Monat in den Bergen von Briggs zu
    _  nberleben - nur bewaffnet mit einem Messer. Die vierte
    _  Folge beschreibt, wie sich Roy Mustang und Maes Hughes auf  _
    _  der Kadettenschule kennenlernen. Ausserdem blicken wir in
    _  das Jahr 1908, inmitten der Wirren des ishvalischen
    _  Vernichtungskrieges.
    
    _  In der ersten Geschichte SDer blinde Alchemist  ziehen
    _  Edward und Alphonse Elric durch das Land, immer noch auf
    _  der Suche nach dem Stein der Weisen, der es ihnen
    _  erm glicht, wieder so zu werden, wie sie vor dem Versuch
    _  der menschlichen Transmutation waren. Hoffnung keimt in
    _  ihnen auf, als sie auf den blinden Alchemisten Judeau
    _  treffen, denn ihm scheint es gelungen zu sein, einen
    _  Menschen erfolgreich zu transmutieren. Doch mit der Zeit
    _  erfahren sie die Wahrheit, die ihre Herzen erweichen
    _  lSssta
    
    _  In SEinfache Leute  haben Ed und Al herausgefunden, wie
    _  sie Winry am besten freundlich stimmen k nnen: Mit
    _  Ohrringen, die sie beim Juwelier fnr sie kaufen. Sie
    _  kaufen ihr jedes Mal, wenn sie sie besuchen ein neues
    _  Paar. Dann allerdings bemerken sie, dass sie sich fnr
    _  jedes geschenkte Paar neue Ohrl cher stechen lSsst. Das
    _  tut sie auch, weil sie das bei Riza so gut findet. Riza
    _  hingegen beschlie t sich die Haare wachsen zu lassen, weil  _
    _  sie es bei Winry so toll findet.
    
    _  In SDie Geschichte der Meisterin  wird erzShlt, wie die
    _  18-jShrige Izumi Curtis, die damals noch Izumi Harnet
    _  hie , ihren Meister trifft. Dieser verlangt von ihr zum
    _  Trainingsauftakt, einen Monat in den Bergen von Briggs zu
    _  nberleben - nur bewaffnet mit einem Messer. Darnber hinaus  _
    _  erfahren wir auch noch, wie sie ihren spSteren Ehemann Sig  _
    _  Curtis das erste Mal trifft.
    
    _  Die vierte Folge beschreibt, wie sich Roy Mustang und Maes  _
    _  Hughes auf der Kadettenschule kennenlernen. Sie freunden
    _  sich mit einem Mitstudenten aus Ishval an, der von den
    _  anderen gemobbt wird. Sie stellen sich auf seine Seite,
    _  doch dann bricht der ishvalische Vernichtungskrieg aus und  _
    _  die Freunde werden so gezwungenerma en zu Feinden, die
    _  sich gegenseitig bekriegen mnssen.
    
    _  01 Der blinde Alchemist
    _  02 Einfache Leute
    _  03 Die Geschichte der Meisterin
    _  04 Noch ein anderes MSnner Schlachtfeld
    
    _________      ast4u.me


    Mirrors kompatibel

    .:Uploaded.net:.
    Geschützter Bereich - Bedanke dich beim Poster, um den Bereich sehen zu können
    Hier erfährst Du wie Du Dich bedanken kannst oder werde jetzt Premium Mitglied ab einer Spende von 5€ und erhalte sofortigen Zugriff auf den Downloadbereich!

    .:Share-online.biz:.
    Geschützter Bereich - Bedanke dich beim Poster, um den Bereich sehen zu können
    Hier erfährst Du wie Du Dich bedanken kannst oder werde jetzt Premium Mitglied ab einer Spende von 5€ und erhalte sofortigen Zugriff auf den Downloadbereich!

    .:Oboom.com:.
    Geschützter Bereich - Bedanke dich beim Poster, um den Bereich sehen zu können
    Hier erfährst Du wie Du Dich bedanken kannst oder werde jetzt Premium Mitglied ab einer Spende von 5€ und erhalte sofortigen Zugriff auf den Downloadbereich!


  4. 98 Benutzer sagen Danke:

    Anzeigen

    1Ranger (14. December 2015),Aluaran (10. December 2015),Alucard1412 (9. March 2016),Amnesia420 (19. December 2015),Androkai (10. December 2015),Asuka Langley (11. December 2015),Axel87 (5. January 2016),Bankuryu (13. February 2016),Baschti1989 (27. September 2016),BlackAssassin100 (1. April 2016),blacky123 (23. December 2015),Bloodyair (20. December 2015),brunsdumm (10. December 2015),Chilko (24. December 2015),Chillasedi (10. December 2015),chopper23 (9. December 2015),Chris (5. September 2016),claro.claire1996 (21. July 2016),Cloud9019 (13. December 2015),Cruchy Lizard (9. January 2016),dacheff (5. February 2016),dagger85 (9. December 2015),dave_ (10. December 2015),dionys (8. July 2016),DjRayleigh (6. September 2016),dkomm (3. July 2016),DommiNanz (10. December 2015),downloader_1987 (20. September 2016),Dreieckhard (9. December 2015),entryx (12. May 2016),EpiX (23. December 2015),Evilon (15. December 2015),FantasticZ (9. November 2016),Flyer (10. December 2015),fullmetal1995 (9. December 2015),GiftGasBaer (24. December 2015),Glade (10. April 2016),Griever (9. December 2015),Heat (7. March 2016),Hirs_E_Fruit (11. December 2015),Hobbitgraf (23. December 2015),hundekuchen (18. May 2016),hyper (10. December 2015),juckenkratzen (22. December 2015),Kaldo (11. December 2015),kinghol (10. December 2015),Kirdock (23. December 2015),krasserGaul (20. December 2015),kutschi (10. December 2015),lippls (1. March 2016),Lolarennt (11. October 2016),LomeaDae (4. September 2016),LordBacon1 (23. March 2016),markusdamon5 (8. September 2016),Miharu (20. December 2015),Mimosasukarina (13. February 2016),mischacraft (22. September 2016),Mr.Shit (10. December 2015),naban (9. December 2015),Natsuki (9. December 2015),nbody (9. February 2016),Niggoh23 (25. January 2016),nightstick (31. December 2015),norby (9. December 2015),nuggl (11. December 2015),Porco (12. December 2015),Pure (9. August 2016),Rahel (20. October 2016),Raziel (9. December 2015),Rhonos (29. October 2016),Robin88 (10. July 2016),Roxas8139 (3. January 2016),sabs0686 (11. December 2015),Scorpionlord88 (5. February 2016),Se.phi.roth (8. March 2016),Sephi66 (11. December 2015),SONNYxq (13. March 2016),Sora (25. December 2015),Spark (11. January 2016),Speedy1887 (20. January 2016),Starbrand (13. December 2015),SuperSaitama (2. June 2016),swagrid (10. February 2016),syth (18. March 2016),TakashiKudo (10. December 2015),Tana-kun (10. December 2015),TheTestzilla (20. February 2016),Titanime (15. October 2016),tompace (21. October 2016),Volki002 (12. March 2016),wire1257 (3. January 2016),Xers (10. December 2015),xGate (28. December 2015),xNiikeY (30. January 2016),Yoarashi (24. February 2016),Yumikora (22. January 2016),Zarroc1 (15. December 2015),zorro177 (3. July 2016)

  5. #3
    United we Stand Avatar von 00Ryuji00
    Registriert seit
    Oct 2012
    Beiträge
    3.902
    Punkte
    100.092
    Errungenschaften:
    TomodachisGang LeaderHikikomoriTagger Amateur50000 Erfahrungspunkte

    AW: Fullmetal Alchemist: Brotherhood + OVA [Ger-Jap-Dub][Ger-Sub][AC3/DTS-HD][720p/1080p][BluRay]-Ast4u

    Update: Folgen 49-64 hinzugefügt, 1080p-AC3 Version hinzugefügt, OVA's hinzugefügt. Release ist damit vollständig.
    !!!Alle Anliegen bezüglich Uploads werden nur mit direktem Threadlink zum Angebot bearbeitet!!!

    Re-Uploadanfragen nur per PN - Ihr könnt mir auch Listen schicken

    Re-Uploads folgen nach Anfrage meist am Wochenende

    [Links sind nur für registrierte und aktivierte Nutzer sichtbar. Klicke hier um dich zu registrieren.] | [Links sind nur für registrierte und aktivierte Nutzer sichtbar. Klicke hier um dich zu registrieren.] | >[Links sind nur für registrierte und aktivierte Nutzer sichtbar. Klicke hier um dich zu registrieren.]<
    [Links sind nur für registrierte und aktivierte Nutzer sichtbar. Klicke hier um dich zu registrieren.]

  6. 2 Benutzer sagen Danke:

    tompace (21. October 2016),Virgel (14. March 2016)

  7. #4
    United we Stand Avatar von 00Ryuji00
    Registriert seit
    Oct 2012
    Beiträge
    3.902
    Punkte
    100.092
    Errungenschaften:
    TomodachisGang LeaderHikikomoriTagger Amateur50000 Erfahrungspunkte

    AW: Fullmetal Alchemist: Brotherhood + OVA [Ger-Jap-Dub][Ger-Sub][AC3/DTS-HD][720p/1080p][BluRay]-Ast4u

    Update: Alle Versionen gegen gefixtes Release ausgetauscht. Falls noch signifikante Fehler auftauchen sollten, postet diese bitte in diesem Thread: [Links sind nur für registrierte und aktivierte Nutzer sichtbar. Klicke hier um dich zu registrieren.]
    !!!Alle Anliegen bezüglich Uploads werden nur mit direktem Threadlink zum Angebot bearbeitet!!!

    Re-Uploadanfragen nur per PN - Ihr könnt mir auch Listen schicken

    Re-Uploads folgen nach Anfrage meist am Wochenende

    [Links sind nur für registrierte und aktivierte Nutzer sichtbar. Klicke hier um dich zu registrieren.] | [Links sind nur für registrierte und aktivierte Nutzer sichtbar. Klicke hier um dich zu registrieren.] | >[Links sind nur für registrierte und aktivierte Nutzer sichtbar. Klicke hier um dich zu registrieren.]<
    [Links sind nur für registrierte und aktivierte Nutzer sichtbar. Klicke hier um dich zu registrieren.]

  8. 3 Benutzer sagen Danke:

    Mr.Shit (7. January 2016),tompace (21. October 2016),Virgel (14. March 2016)

  9. #5
    United we Stand Avatar von 00Ryuji00
    Registriert seit
    Oct 2012
    Beiträge
    3.902
    Punkte
    100.092
    Errungenschaften:
    TomodachisGang LeaderHikikomoriTagger Amateur50000 Erfahrungspunkte

    AW: Fullmetal Alchemist: Brotherhood + OVA [Ger-Jap-Dub][Ger-Sub][AC3/DTS-HD][720p/1080p][BluRay]-Ast4u

    Update: Folge 48 der 720p-Version wurde gefixt und ausgetauscht.
    !!!Alle Anliegen bezüglich Uploads werden nur mit direktem Threadlink zum Angebot bearbeitet!!!

    Re-Uploadanfragen nur per PN - Ihr könnt mir auch Listen schicken

    Re-Uploads folgen nach Anfrage meist am Wochenende

    [Links sind nur für registrierte und aktivierte Nutzer sichtbar. Klicke hier um dich zu registrieren.] | [Links sind nur für registrierte und aktivierte Nutzer sichtbar. Klicke hier um dich zu registrieren.] | >[Links sind nur für registrierte und aktivierte Nutzer sichtbar. Klicke hier um dich zu registrieren.]<
    [Links sind nur für registrierte und aktivierte Nutzer sichtbar. Klicke hier um dich zu registrieren.]

  10. 3 Benutzer sagen Danke:

    Nyan (14. March 2016),tompace (21. October 2016),Virgel (14. March 2016)

  11. #6
    Erfahrener Otaku Avatar von DjRayleigh
    Registriert seit
    Jul 2015
    Beiträge
    195
    Punkte
    2.962
    Errungenschaften:
    1000 ErfahrungspunkteHyperaktivErste GruppeTomodachisSenpai

    AW: Fullmetal Alchemist: Brotherhood + OVA [Ger-Jap-Dub][Ger-Sub][AC3/DTS-HD][720p/1080p][BluRay]-Ast4u


    Hagane no Renkinjutsushi (2009)
    鋼の錬金術師 FULLMETAL ALCHEMIST (2009)
    Fullmetal Alchemist: Brotherhood






    Kurzbeschreibung:
    Zitat Zitat von AniSearch.com
    Hagane no Renkinjutsushi (2009) ist die nunmehr zweite Anime-Umsetzung des gleichnamigen Mangas von Hiromu Arakawa. Dabei handelt es sich jedoch nicht um eine Fortsetzung des Animes aus dem Jahre 2003. Vielmehr erzählt diese Version die Geschichte der Gebrüder Elric neu und hält sich dabei wesentlich stärker an die Manga-Vorlage, als die erste Anime-Adaption.

    Die beiden Brüder und Alchemisten Edward und Alphonse Elric haben, als sie noch klein waren, einen verhängnisvollen Fehler begangen: Als ihnen die Durchführung einer streng verbotenen Transmutation misslingt, verliert Edward ein Bein. Seinen Bruder trifft es sogar noch schlimmer. Edward kann ihn nur retten, indem er im Zuge eines äquivalenten Tausches seinen eigenen Arm opfert und Alphons Seele an eine Rüstung bindet ‒ dessen Körper aber scheint verloren. Ein viel zu hoher Preis, den die beiden für ihren Leichtsinn zahlen mussten. Deshalb beschließen sie alles zu versuchen, um ihre alten Körper zurückzubekommen. Im Bestreben die besten Forschungsbedingungen auf dem Gebiet der Alchemie zu erlangen, führt sie ihr Weg schließlich zur Armee von Amestris. Die Militärdiktatur des Landes setzt sogenannte Staats-Alchemisten als Elitekämpfer in Kriegen und Konflikten ein. In Friedenszeiten hingegen steht es den "Lakaien der Armee" frei, zu forschen und Zugriff auf umfangreiche Aufzeichnungen über Alchemie, sowie entsprechende finanzielle Mittel zu erhalten. Doch schon bald müssen die beiden Elric-Brüder feststellen, dass ihre eigenen Probleme im Vergleich zu der Bedrohung, die dem Land Amestris droht, geradezu unscheinbar wirken …



    Spieldauer: 25min
    Genre: Abenteuer
    Nebengenres: Abenteuer, Action, Drama, Fantasy, Fighting-Shounen, Komödie, Psychodrama, Übermäßige Gewaltdarstellung
    Jahr: 2009
    Sprache: Deutsch, Japanisch
    Untertitel: Deutsch
    Größe pro Folge: ~904 MiB
    Episodenanzahl: 64/64 + 4 OVAs
    Format: MKV
    Auflösung: 1080p (16:9)
    Videocodec: x264 (AVC)
    Audiocodec: AC-3
    Releasegruppe: AST4u
    Hoster: Share-Online, Uploaded

    Note: Alle Versionen gefixt.

    MediaInfo
    Code:
    
    Format  : Matroska
    Format version  : Version 4 / Version 2
    File size  : 904 MiB
    Duration  : 24mn 27s
    Overall bit rate  : 5 165 Kbps
    Encoded date  : UTC 2015-12-16 21:24:13
    Writing application  : mkvmerge v8.2.0 ('World of Adventure') 32bit
    Writing library  : libebml v1.3.1 + libmatroska v1.4.2
    DURATION  : 00:24:15.955000000
    NUMBER_OF_FRAMES  : 569
    NUMBER_OF_BYTES  : 6288505
    _STATISTICS_WRITING_APP  : mkvmerge v8.2.0 ('World of Adventure') 32bit
    _STATISTICS_WRITING_DATE_UTC  : 2015-12-16 21:24:13
    _STATISTICS_TAGS  : BPS DURATION NUMBER_OF_FRAMES NUMBER_OF_BYTES
    
    Video
    ID  : 1
    Format  : AVC
    Format/Info  : Advanced Video Codec
    Format profile  : [email protected]
    Format settings, CABAC  : Yes
    Format settings, ReFrames  : 4 frames
    Codec ID  : V_MPEG4/ISO/AVC
    Duration  : 24mn 27s
    Bit rate  : 4 166 Kbps
    Width  : 1 920 pixels
    Height  : 1 080 pixels
    Display aspect ratio  : 16:9
    Frame rate mode  : Constant
    Frame rate  : 23.976 fps
    Color space  : YUV
    Chroma subsampling  : 4:2:0
    Bit depth  : 8 bits
    Scan type  : Progressive
    Bits/(Pixel*Frame)  : 0.084
    Stream size  : 729 MiB (81%)
    Writing library  : x264 core 148 r2638 7599210
    Encoding settings  : cabac=1 / ref=4 / deblock=1:1:1 / analyse=0x3:0x113 / me=hex / subme=9 / psy=1 / psy_rd=0.40:0.00 / mixed_ref=1 / me_range=16 / chroma_me=1 / trellis=1 / 8x8dct=1 / cqm=0 / deadzone=21,11 / fast_pskip=1 / chroma_qp_offset=-2 / threads=12 / lookahead_threads=1 / sliced_threads=0 / nr=0 / decimate=1 / interlaced=0 / bluray_compat=0 / constrained_intra=0 / bframes=5 / b_pyramid=2 / b_adapt=2 / b_bias=0 / direct=1 / weightb=1 / open_gop=0 / weightp=2 / keyint=240 / keyint_min=23 / scenecut=40 / intra_refresh=0 / rc_lookahead=40 / rc=crf / mbtree=1 / crf=16.0 / qcomp=0.60 / qpmin=0 / qpmax=69 / qpstep=4 / vbv_maxrate=62500 / vbv_bufsize=78125 / crf_max=0.0 / nal_hrd=none / filler=0 / ip_ratio=1.40 / aq=1:0.60
    Default  : Yes
    Forced  : No
    
    Audio #1
    ID  : 2
    Format  : AC-3
    Format/Info  : Audio Coding 3
    Mode extension  : CM (complete main)
    Format settings, Endianness  : Big
    Codec ID  : A_AC3
    Duration  : 24mn 27s
    Bit rate mode  : Constant
    Bit rate  : 448 Kbps
    Channel(s)  : 6 channels
    Channel positions  : Front: L C R, Side: L R, LFE
    Sampling rate  : 48.0 KHz
    Compression mode  : Lossy
    Stream size  : 78.4 MiB (9%)
    Language  : German
    Default  : Yes
    Forced  : No
    
    Audio #2
    ID  : 3
    Format  : AC-3
    Format/Info  : Audio Coding 3
    Mode extension  : CM (complete main)
    Format settings, Endianness  : Big
    Codec ID  : A_AC3
    Duration  : 24mn 27s
    Bit rate mode  : Constant
    Bit rate  : 448 Kbps
    Channel(s)  : 2 channels
    Channel positions  : Front: L R
    Sampling rate  : 48.0 KHz
    Compression mode  : Lossy
    Stream size  : 78.4 MiB (9%)
    Language  : Japanese
    Default  : No
    Forced  : No
    
    Text #1
    ID  : 4
    Format  : PGS
    Muxing mode  : zlib
    Codec ID  : S_HDMV/PGS
    Codec ID/Info  : Picture based subtitle format used on BDs/HD-DVDs
    Default  : Yes
    Forced  : No
    
    Text #2
    ID  : 5
    Format  : PGS
    Muxing mode  : zlib
    Codec ID  : S_HDMV/PGS
    Codec ID/Info  : Picture based subtitle format used on BDs/HD-DVDs
    Default  : No
    Forced  : No
    
    




    [Links sind nur für registrierte und aktivierte Nutzer sichtbar. Klicke hier um dich zu registrieren.]

    Passwort: DjRayleigh


    Release Manager
    Geändert von DjRayleigh (1. October 2016 um 17:04 Uhr)

    [Links sind nur für registrierte und aktivierte Nutzer sichtbar. Klicke hier um dich zu registrieren.]
    Support über PN
    =
    AKTIV

  12. 4 Benutzer sagen Danke:

    Asuka Langley (2. October 2016),Rahel (20. October 2016),Rhonos (29. October 2016),tompace (21. October 2016)

Lesezeichen

Berechtigungen

  • Neue Themen erstellen: Nein
  • Themen beantworten: Nein
  • Anhänge hochladen: Nein
  • Beiträge bearbeiten: Nein
  •  

1 2 3 4 5 6 7 8 9 10 11 12 13 14 15 16 17 18 19 20 21 22 23 24 25 26 27 28 29 30 31 32 33 34 35 36 37 38 39 40 41 42 43 44 45 46 47 48 49 50 51 52 53 54 55 56 57 58 59 60 61 62 63 64 65 66 67 68 69 70 71 72 73 74 75 76 77 78 79 80 81 82 83 84 85 86 87 88 89 90 91 92 93 94 95 96 97 98 99 100 101 102 103 104 105 106 107 108 109 110 111 112 113 114 115 116 117 118 119 120 121 122 123 124 125 126 127 128 129 130 131 132 133 134 135 136 137 138 139 140 141 142 143 144 145 146 147 148 149 150 151 152 153 154 155 156 157 158