Ergebnis 1 bis 2 von 2

Thema: Gantz GerJapDub GerSub DVDRip x264 - iND

Dieser Thread wurde noch nicht bewertet. Bewerte ihn doch, wenn er dir gefällt!
  1. #1
    High Quality Anime Avatar von Uploading123
    Registriert seit
    Mar 2013
    Beiträge
    1.006
    Punkte
    44.015
    Errungenschaften:
    TomodachisTagger Amateur25000 ErfahrungspunkteHikikomoriKapitän

    Gantz GerJapDub GerSub DVDRip x264 - iND


    Gantz.COMPLETE.German.DL.DVDRip.x264-iND



    .:Beschreibung:.
    Kei und Kato sind zwei Freunde aus alten Tagen. Als sie sich zufällig nach langer Zeit in der Tokyoter U-Bahn wieder treffen, helfen sie gerade einem Betrunkenen, der auf die Gleise fiel. Doch eine heranrasende U-Bahn erfasst und tötet die beiden. Als sie dennoch wieder zu sich kommen, befinden sie sich gemeinsam mit anderen toten Jugendlichen in einem seltsamen Raum mit einer großen, schwarzen Kugel. Diese Kugel, GANTZ genannt, erklärt ihnen, dass sie dazu auserwählt wurden, die Welt von Außerirdischen zu erretten. Einen Ausweg gibt es nicht, entweder, sie kämpfen für GANTZ, oder sie werden endgültig sterben...

    .:Info:.
    Größe: 6061.08 MB
    Laufzeit: 780 Min.
    Format: .mkv
    Video Stream: DVD-RIP
    Video Codec: MPEG-4 H.264 / AVC
    Audio Stream: Stereo
    Sprache/n: GER, JPN
    Genre: Animation

    .:NFO:.
    Spoiler
    Code:
    General
    Unique ID                                : 192205081218852739506716114123431444118 (0x90995A25BBEF0B4E97A59C24714D7E96)
    Complete name                            : 1-Ein.neuer.Morgen.ist.angebrochen.mkv
    Format                                   : Matroska
    Format version                           : Version 1
    File size                                : 231 MiB
    Duration                                 : 22mn 51s
    Overall bit rate mode                    : Variable
    Overall bit rate                         : 1 413 Kbps
    Encoded date                             : UTC 2005-09-09 14:21:47
    Writing application                      : mkvmerge v1.5.0 ('It's alright, baby') built on Jul  1 2005 11:07:52
    Writing library                          : libebml v0.7.5 + libmatroska v0.7.7
    
    Video
    ID                                       : 1
    Format                                   : AVC
    Format/Info                              : Advanced Video Codec
    Format profile                           : [email protected]
    Format settings, CABAC                   : Yes
    Format settings, ReFrames                : 2 frames
    Codec ID                                 : V_MPEG4/ISO/AVC
    Duration                                 : 22mn 51s
    Bit rate                                 : 1 144 Kbps
    Width                                    : 640 pixels
    Height                                   : 480 pixels
    Display aspect ratio                     : 16:9
    Original display aspect ratio            : 4:3
    Frame rate mode                          : Constant
    Frame rate                               : 25.000 fps
    Color space                              : YUV
    Chroma subsampling                       : 4:2:0
    Bit depth                                : 8 bits
    Scan type                                : Progressive
    Bits/(Pixel*Frame)                       : 0.149
    Stream size                              : 187 MiB (81%)
    Title                                    : By Dragon Knight
    Writing library                          : eavc 1.0.2.2
    Language                                 : German
    Default                                  : Yes
    Forced                                   : No
    
    Audio #1
    ID                                       : 2
    Format                                   : Vorbis
    Format settings, Floor                   : 1
    Codec ID                                 : A_VORBIS
    Duration                                 : 22mn 51s
    Bit rate mode                            : Variable
    Bit rate                                 : 128 Kbps
    Channel(s)                               : 2 channels
    Sampling rate                            : 48.0 KHz
    Compression mode                         : Lossy
    Stream size                              : 20.9 MiB (9%)
    Title                                    : Vorbis Ogg 2.0
    Writing library                          : libVorbis 1.0 (UTC 2002-07-17)
    Language                                 : German
    Default                                  : Yes
    Forced                                   : No
    Writing application                      : Made with BeSweet v1.5b30
    
    Audio #2
    ID                                       : 3
    Format                                   : Vorbis
    Format settings, Floor                   : 1
    Codec ID                                 : A_VORBIS
    Duration                                 : 22mn 51s
    Bit rate mode                            : Variable
    Bit rate                                 : 112 Kbps
    Channel(s)                               : 2 channels
    Sampling rate                            : 48.0 KHz
    Compression mode                         : Lossy
    Stream size                              : 18.3 MiB (8%)
    Title                                    : Vorbis Ogg 2.0
    Writing library                          : libVorbis 1.0 (UTC 2002-07-17)
    Language                                 : Japanese
    Default                                  : No
    Forced                                   : No
    Writing application                      : Made with BeSweet v1.5b30
    
    Text #1
    ID                                       : 4
    Format                                   : UTF-8
    Codec ID                                 : S_TEXT/UTF8
    Codec ID/Info                            : UTF-8 Plain Text
    Title                                    : SRT
    Language                                 : German
    Default                                  : Yes
    Forced                                   : No
    
    Text #2
    ID                                       : 5
    Format                                   : VobSub
    Muxing mode                              : zlib
    Codec ID                                 : S_VOBSUB
    Codec ID/Info                            : The same subtitle format used on DVDs
    Title                                    : DVD Sub
    Language                                 : German
    Default                                  : No
    Forced                                   : No
    
    Menu
    00:00:00.000                             : :Opening
    00:01:30.840                             : :Teil 1
    00:06:19.560                             : :Teil 2
    00:11:17.280                             : :Teil 3
    00:17:03.600                             : :Ending
    00:21:05.400                             : :Vorschau


    Mirrors kompatibel

    .:Uploaded.net:.
    Geschützter Bereich - Bedanke dich beim Poster, um den Bereich sehen zu können
    Hier erfährst Du wie Du Dich bedanken kannst oder werde jetzt Premium Mitglied ab einer Spende von 5€ und erhalte sofortigen Zugriff auf den Downloadbereich!

    .:Share-online.biz:.
    Geschützter Bereich - Bedanke dich beim Poster, um den Bereich sehen zu können
    Hier erfährst Du wie Du Dich bedanken kannst oder werde jetzt Premium Mitglied ab einer Spende von 5€ und erhalte sofortigen Zugriff auf den Downloadbereich!


  2. 68 Benutzer sagen Danke:

    Anzeigen

    0xDEADC0DE (31. October 2015),Aikesh (23. October 2015),AkaTenshi (9. April 2015),Akatsuki (19. June 2015),Aluaran (31. March 2015),Asuka Langley (24. July 2015),Bartfratze (19. June 2015),BlackWidow (29. August 2015),Bombur (23. September 2015),Bruglin (18. May 2015),Buttercups (22. January 2016),cloud-strife20 (7. November 2016),Cloud002 (18. August 2015),DarkTerminator (16. November 2015),dimachenkov (18. April 2015),Dragon29 (9. August 2015),egon1212 (8. August 2015),ElCapitan (25. February 2016),fak0r (23. November 2015),FantasticZ (25. April 2015),foxasult (3. May 2015),Haxz0r (19. September 2015),Hydron (9. August 2016),Ibanezar (9. January 2016),JADAKISS31 (12. September 2015),JugoBetrugo (7. May 2015),Kaktusmensch (31. March 2015),KaneTheMagic (9. November 2015),Kazukyy (30. October 2015),Kazuma (1. November 2015),keku (24. July 2015),Kradus (17. July 2015),KyojinZeo (2. April 2015),Lelouch92 (11. August 2015),LetsPhoenixPlay (19. August 2015),let_me_in (1. March 2016),MasterRei (20. July 2015),MattDeox (26. November 2015),Maxxo (12. April 2015),Miles360 (31. March 2015),Modell_Thomas (26. April 2015),Monkey (6. February 2016),Nanatzusaya (31. March 2015),Nexus777 (6. September 2015),Nuk-Schnuk_inactive (17. July 2015),pahso (7. July 2016),Raychan (5. April 2015),re.tischi (19. December 2015),Roxas-chan (10. October 2015),Ruffy121 (31. July 2015),RyuLelouch (18. November 2015),san1n (22. November 2015),Se.phi.roth (11. April 2015),shadow2442 (13. November 2015),Shadow7525 (5. July 2015),shawn10398 (13. February 2016),Shika (4. July 2015),SL4V3R (17. November 2015),SnowCat (31. March 2015),Son Goku (30. November 2015),Superzorro (6. April 2015),swigswag (19. April 2015),tigerhai (26. July 2015),UndeadBan (27. September 2015),Vivere (9. April 2015),Watashisan (31. March 2015),Yukova (5. July 2015)

  3. #2
    United we Stand Avatar von 00Ryuji00
    Registriert seit
    Oct 2012
    Beiträge
    3.896
    Punkte
    99.519
    Errungenschaften:
    TomodachisGang LeaderHikikomoriTagger Amateur50000 Erfahrungspunkte

    AW: Gantz [Ger-Jap-Dub][Ger-Sub][480p][DVDRip]

    Gantz
    ガンツ



    Kurzbeschreibung:
    Kei und Masaru sind alte Schulfreunde, die sich nach langer Zeit in einer U-Bahnstation in Tokyo zufällig wiedertreffen. Bei dem Versuch, einem auf die Gleise gestürzten Obdachlosen zu helfen, werden die beiden von der heranrasenden Bahn erfasst und brutal in Stücke gerissen.

    Doch das Leben der zwei Freunde ist nicht endgültig ausgelöscht. Sie finden sich als ihr eigener KLON zusammen mit anderen, eigentlich ebenfalls verstorbenen, Personen in einem mysteriösen Raum wieder. In der Mitte dieses Raumes befindet sich eine schwarze Kugel namens "Gantz"! Als diese sich öffnet, gibt sie Fächer frei, in denen sich schwarze, auf jede Person maßgeschneiderte Cyber-Kampfanzüge, sowie futuristische Waffen befinden. Dann erscheinen Schriftzeichen und ein Bild auf der Kugeloberfläche und "GANTZ" informiert die Anwesenden über ihre erste zu erledigende Mission: Es handelt sich dabei um einen Tötungsauftrag von "GANTZ" zynisch nur als "Spiel" bezeichnet!
    Sprache: Deutsch, Japanisch
    Untertitel: Deutsch
    Spieldauer: ~ 24min
    Größe: ~ 240MB, insgesamt 6GB
    Episodenanzahl: 26/26
    Format: .mkv
    Auflösung: 480p (640x480, 16:9)
    Codec: x264, Vorbis
    Gruppe: iND
    Hoster: Uploaded, Share-Online

    Datei-Info.:
    Spoiler
    Code:
    Format                                   : Matroska
    Format version                           : Version 1
    File size                                : 231 MiB
    Duration                                 : 22mn 51s
    Overall bit rate mode                    : Variable
    Overall bit rate                         : 1 413 Kbps
    Encoded date                             : UTC 2005-09-09 14:21:47
    Writing application                      : mkvmerge v1.5.0 ('It's alright, baby') built on Jul  1 2005 11:07:52
    Writing library                          : libebml v0.7.5 + libmatroska v0.7.7
    
    Video
    ID                                       : 1
    Format                                   : AVC
    Format/Info                              : Advanced Video Codec
    Format profile                           : [email protected]
    Format settings, CABAC                   : Yes
    Format settings, ReFrames                : 2 frames
    Codec ID                                 : V_MPEG4/ISO/AVC
    Duration                                 : 22mn 51s
    Bit rate                                 : 1 144 Kbps
    Width                                    : 640 pixels
    Height                                   : 480 pixels
    Display aspect ratio                     : 16:9
    Original display aspect ratio            : 4:3
    Frame rate mode                          : Constant
    Frame rate                               : 25.000 fps
    Color space                              : YUV
    Chroma subsampling                       : 4:2:0
    Bit depth                                : 8 bits
    Scan type                                : Progressive
    Bits/(Pixel*Frame)                       : 0.149
    Stream size                              : 187 MiB (81%)
    Title                                    : By Dragon Knight
    Writing library                          : eavc 1.0.2.2
    Language                                 : German
    Default                                  : Yes
    Forced                                   : No
    
    Audio #1
    ID                                       : 2
    Format                                   : Vorbis
    Format settings, Floor                   : 1
    Codec ID                                 : A_VORBIS
    Duration                                 : 22mn 51s
    Bit rate mode                            : Variable
    Bit rate                                 : 128 Kbps
    Channel count                            : 2 channels
    Sampling rate                            : 48.0 KHz
    Compression mode                         : Lossy
    Stream size                              : 20.9 MiB (9%)
    Title                                    : Vorbis Ogg 2.0
    Writing library                          : libVorbis 1.0 (UTC 2002-07-17)
    Language                                 : German
    Default                                  : Yes
    Forced                                   : No
    Writing application                      : Made with BeSweet v1.5b30
    Encoded_Application/Url                  : http://DSPguru.doom9.org
    
    Audio #2
    ID                                       : 3
    Format                                   : Vorbis
    Format settings, Floor                   : 1
    Codec ID                                 : A_VORBIS
    Duration                                 : 22mn 51s
    Bit rate mode                            : Variable
    Bit rate                                 : 112 Kbps
    Channel count                            : 2 channels
    Sampling rate                            : 48.0 KHz
    Compression mode                         : Lossy
    Stream size                              : 18.3 MiB (8%)
    Title                                    : Vorbis Ogg 2.0
    Writing library                          : libVorbis 1.0 (UTC 2002-07-17)
    Language                                 : Japanese
    Default                                  : No
    Forced                                   : No
    Writing application                      : Made with BeSweet v1.5b30
    Encoded_Application/Url                  : http://DSPguru.doom9.org
    
    Text #1
    ID                                       : 4
    Format                                   : UTF-8
    Codec ID                                 : S_TEXT/UTF8
    Codec ID/Info                            : UTF-8 Plain Text
    Title                                    : SRT
    Language                                 : German
    Default                                  : Yes
    Forced                                   : No
    
    Text #2
    ID                                       : 5
    Format                                   : VobSub
    Muxing mode                              : zlib
    Codec ID                                 : S_VOBSUB
    Codec ID/Info                            : The same subtitle format used on DVDs
    Title                                    : DVD Sub
    Language                                 : German
    Default                                  : No
    Forced                                   : No
    
    Menu
    00:00:00.000                             : :Opening
    00:01:30.840                             : :Teil 1
    00:06:19.560                             : :Teil 2
    00:11:17.280                             : :Teil 3
    00:17:03.600                             : :Ending
    00:21:05.400                             : :Vorschau
    


    Geschützter Bereich - Bedanke dich beim Poster, um den Bereich sehen zu können
    Hier erfährst Du wie Du Dich bedanken kannst oder werde jetzt Premium Mitglied ab einer Spende von 5€ und erhalte sofortigen Zugriff auf den Downloadbereich!
    !!!Alle Anliegen bezüglich Uploads werden nur mit direktem Threadlink zum Angebot bearbeitet!!!

    Re-Uploadanfragen nur per PN - Ihr könnt mir auch Listen schicken

    Re-Uploads erfolgen meist innerhalb 24h, kann aber auch bis zu 7 Tage dauern

    [Links sind nur für registrierte und aktivierte Nutzer sichtbar. Klicke hier um dich zu registrieren.] | [Links sind nur für registrierte und aktivierte Nutzer sichtbar. Klicke hier um dich zu registrieren.] | >[Links sind nur für registrierte und aktivierte Nutzer sichtbar. Klicke hier um dich zu registrieren.]<
    [Links sind nur für registrierte und aktivierte Nutzer sichtbar. Klicke hier um dich zu registrieren.]

  4. 21 Benutzer sagen Danke:

    Akio (12. September 2015),andyb90 (6. July 2015),Asuka Langley (24. July 2015),cloud-strife20 (7. November 2016),derEisige (4. July 2015),EpiX (26. December 2015),haltdiefresse (4. July 2015),Haxz0r (19. September 2015),Invader_Zim (24. July 2015),Kaze (28. November 2015),Lelouch92 (11. August 2015),Monkey (6. February 2016),Morbi2k15 (7. July 2015),Nuk-Schnuk_inactive (17. July 2015),pahso (7. July 2016),re.tischi (19. December 2015),redithebat (21. September 2015),Ruffy121 (31. July 2015),SciTeC (29. October 2015),Tzi (4. July 2015),vangel (2. January 2016)

Lesezeichen

Berechtigungen

  • Neue Themen erstellen: Nein
  • Themen beantworten: Nein
  • Anhänge hochladen: Nein
  • Beiträge bearbeiten: Nein
  •  

1 2 3 4 5 6 7 8 9 10 11 12 13 14 15 16 17 18 19 20 21 22 23 24 25 26 27 28 29 30 31 32 33 34 35 36 37 38 39 40 41 42 43 44 45 46 47 48 49 50 51 52 53 54 55 56 57 58 59 60 61 62 63 64 65 66 67 68 69 70 71 72 73 74 75 76 77 78 79 80 81 82 83 84 85 86 87 88 89 90 91 92 93 94 95 96 97 98 99 100 101 102 103 104 105 106 107 108 109 110 111 112 113 114 115 116 117 118 119 120 121 122 123 124 125 126 127 128 129 130 131 132 133 134 135 136 137 138 139 140 141 142 143 144 145 146 147 148 149 150 151 152 153 154 155 156 157 158