Ergebnis 1 bis 1 von 1

Thema: Grimms Märchen Ger-Dub AAC 1987 TVRip x264 - iND

Dieser Thread wurde noch nicht bewertet. Bewerte ihn doch, wenn er dir gefällt!
  1. #1
    High Quality Anime Avatar von Uploading123
    Registriert seit
    Mar 2013
    Beiträge
    1.008
    Punkte
    44.102
    Errungenschaften:
    TomodachisTagger Amateur25000 ErfahrungspunkteHikikomoriKapitän

    Grimms Märchen Ger-Dub AAC 1987 TVRip x264 - iND


    Grimms Märchen German AAC 1987 TVRip x264 - iND




    Grimm Meisaku Gekijou ist die japanische Interpretation der Grimm'schen Märchen. Diese Serie behandelt bekannte als auch eher unbekannt Märchen der Gebrüder Grimm wie unter anderem "Der gestiefelte Kater", "Schneewittchen", "Cinderella" und "Hänsel und Gretel".


    Größe: 4.14 GB // ca. 130 MB pro Folge
    Laufzeit: ca. 21 Minuten pro Folge
    Auflösung: 320x240 // 640x480
    Bittiefe: 8-Bit
    Audio: AAC
    Format: mp4
    Codec: x264
    Sprache: Deutsch
    Release Group: iND
    Episodenanzahl: 47/47

    Mediainfo
    Spoiler

    eneral
    Complete name : Grimms Märchen 01 - Die Bremer Stadtmusikanten.mp4
    Format : MPEG-4
    Format profile : Base Media
    Codec ID : isom
    File size : 124 MiB
    Duration : 20mn 47s
    Overall bit rate : 832 Kbps
    Tagged date : UTC 2012-06-19 09:19:56
    Writing application : Lavf53.27.0

    Video
    ID : 1
    Format : AVC
    Format/Info : Advanced Video Codec
    Format profile : [email protected]
    Format settings, CABAC : Yes
    Format settings, ReFrames : 4 frames
    Codec ID : avc1
    Codec ID/Info : Advanced Video Coding
    Duration : 20mn 47s
    Bit rate : 700 Kbps
    Width : 640 pixels
    Height : 480 pixels
    Display aspect ratio : 4:3
    Frame rate mode : Constant
    Frame rate : 25.000 fps
    Color space : YUV
    Chroma subsampling : 4:2:0
    Bit depth : 8 bits
    Scan type : Progressive
    Bits/(Pixel*Frame) : 0.091
    Stream size : 104 MiB (84%)
    Writing library : x264 core 120 r2M 0f692db
    Encoding settings : cabac=1 / ref=3 / deblock=1:0:0 / analyse=0x3:0x113 / me=hex / subme=7 / psy=1 / psy_rd=1.00:0.00 / mixed_ref=1 / me_range=8 / chroma_me=1 / trellis=1 / 8x8dct=1 / cqm=0 / deadzone=21,11 / fast_pskip=1 / chroma_qp_offset=-2 / threads=4 / sliced_threads=0 / nr=0 / decimate=1 / interlaced=0 / bluray_compat=0 / constrained_intra=0 / bframes=3 / b_pyramid=2 / b_adapt=1 / b_bias=0 / direct=1 / weightb=1 / open_gop=0 / weightp=2 / keyint=250 / keyint_min=25 / scenecut=40 / intra_refresh=0 / rc_lookahead=40 / rc=2pass / mbtree=1 / bitrate=700 / ratetol=1.0 / qcomp=0.60 / qpmin=0 / qpmax=69 / qpstep=4 / cplxblur=20.0 / qblur=0.5 / vbv_maxrate=800 / vbv_bufsize=4000 / nal_hrd=none / ip_ratio=1.40 / aq=1:1.00

    Audio
    ID : 2
    Format : AAC
    Format/Info : Advanced Audio Codec
    Format profile : LC
    Codec ID : 40
    Duration : 20mn 47s
    Bit rate mode : Constant
    Bit rate : 128 Kbps
    Channel(s) : 2 channels
    Channel positions : Front: L R
    Sampling rate : 44.1 KHz
    Compression mode : Lossy
    Stream size : 19.0 MiB (15%)


    // Folgen einzeln ladbar //

    Mirrors kompatibel

    Geschützter Bereich - Bedanke dich beim Poster, um den Bereich sehen zu können
    Hier erfährst Du wie Du Dich bedanken kannst oder werde jetzt Premium Mitglied ab einer Spende von 5€ und erhalte sofortigen Zugriff auf den Downloadbereich!


    Geschützter Bereich - Bedanke dich beim Poster, um den Bereich sehen zu können
    Hier erfährst Du wie Du Dich bedanken kannst oder werde jetzt Premium Mitglied ab einer Spende von 5€ und erhalte sofortigen Zugriff auf den Downloadbereich!



    Spoiler
    Insanity

    Ihr seht nur Oboom als Mirror, obwohl Uploaded bzw. Share-Online angegeben ist?
    [Links sind nur für registrierte und aktivierte Nutzer sichtbar. Klicke hier um dich zu registrieren.]

  2. 32 Benutzer sagen Danke:

    4l1c3_inactive (18. April 2014),AlexDerErste (12. August 2014),Bhaal_inactive (9. August 2014),blagger64 (20. January 2016),cat 86 (6. July 2015),daikami (20. April 2015),Darkcateye (22. October 2015),EngelEatos (8. April 2016),Exalderan (14. January 2015),fellmer (12. May 2014),gerdhanse (10. April 2014),Guvi (19. April 2014),haltdiefresse (13. March 2015),Kajiro (13. May 2014),Madisson (3. July 2015),Meistermagier (16. July 2015),midnighter (29. April 2015),MrScenic (6. April 2014),NeoGreen (20. April 2014),piamater (12. March 2015),prinzvegeta (21. June 2015),SaberNight (10. April 2014),sabs0686 (13. July 2014),SnowCat (8. April 2014),Sonicslash (7. June 2014),speedcorefan (19. June 2014),ThA (14. April 2014),tompace (8. April 2014),Usagi91 (18. June 2016),Zaisen (6. April 2014),zamza21 (17. April 2014)

Lesezeichen

Berechtigungen

  • Neue Themen erstellen: Nein
  • Themen beantworten: Nein
  • Anhänge hochladen: Nein
  • Beiträge bearbeiten: Nein
  •  

1 2 3 4 5 6 7 8 9 10 11 12 13 14 15 16 17 18 19 20 21 22 23 24 25 26 27 28 29 30 31 32 33 34 35 36 37 38 39 40 41 42 43 44 45 46 47 48 49 50 51 52 53 54 55 56 57 58 59 60 61 62 63 64 65 66 67 68 69 70 71 72 73 74 75 76 77 78 79 80 81 82 83 84 85 86 87 88 89 90 91 92 93 94 95 96 97 98 99 100 101 102 103 104 105 106 107 108 109 110 111 112 113 114 115 116 117 118 119 120 121 122 123 124 125 126 127 128 129 130 131 132 133 134 135 136 137 138 139 140 141 142 143 144 145 146 147 148 149 150 151 152 153 154 155 156 157 158