Ergebnis 1 bis 2 von 2

Thema: Hagure Yuusha no Aesthetica German AC3 HDRip x264 - Chefflo

Dieser Thread wurde noch nicht bewertet. Bewerte ihn doch, wenn er dir gefällt!
  1. #1
    High Quality Anime Avatar von Uploading123
    Registriert seit
    Mar 2013
    Beiträge
    1.006
    Punkte
    44.015
    Errungenschaften:
    TomodachisTagger Amateur25000 ErfahrungspunkteHikikomoriKapitän

    Hagure Yuusha no Aesthetica German AC3 HDRip x264 - Chefflo


    Hagure.Yuusha.no.Aesthetica.Complete.German.AC3.HD Rip.x264-Chefflo



    .:Beschreibung:.
    Akatsuki Ousawa hat den gefürchteten Dämonenkönig besiegt. Die Welt Alazzard feiert ihn deswegen als Helden. Doch Akatsuki will nicht bleiben, er ist nämlich ein Weltenreisender. Ohne das Wissen des Königshauses von Alazzard, nimmt Akatsuki die Tochter des Dämonenkönigs mit sich in seine Welt. Doch dies hat weitreichende Konsequenzen...

    .:Info:.
    Größe: 2653.13 MB
    Laufzeit: 304 Min.
    Format: .mkv
    Video Stream: BD-RIP
    Video Codec: MPEG-4 H.264 / AVC
    Audio Stream: Dolby Digital 2.0
    Sprache/n: GER
    Genre: Anime

    .:NFO:.
    Spoiler
    Code:
    ____  ____  ____  __   __  __    ____
    (    \(  __)(_  _)/ _\ (  )(  )  / ___)
    ) D ( ) _)   )( /    \ )( / (_/\\___ \
    (____/(____) (__)\_/\_/(__)\____/(____/
    
    Release:...........Hagure.Yuusha.no.Aesthetica.Complete.German.
    AC3.HDRip.x264-Chefflo
    
    Gerne..............Anime
    Sprache............Deutsch
    Untertitel.........Forced
    Erscheinungsdate...2014 BR
    Source.............Video:Bluray 720p thx @ ???
    Source.............Audio:Bluray 720p thx @ ???
    Laufzeit...........12 x 23 Min + 7 x 4 Min
    Bitrate ...........1000 kbps - 2 Pass
    Codec..............x264
    Framerate..........23,976
    Aufloesung.........720 x 404
    Audio..............AC3 2.0 192 Kbps
    
    ___  ____   __   _  _  ____    __ _   __  ____  ____  ____
    / __)(  _ \ /  \ / )( \(  _ \  (  ( \ /  \(_  _)(  __)/ ___)
    ( (_ \ )   /(  O )) \/ ( ) __/  /    /(  O ) )(   ) _) \___ \
    \___/(__\_) \__/ \____/(__)    \_)__) \__/ (__) (____)(____/
    
    ...NOPE...
    
    _        __
    (_)      / _|
    _ _ __ | |_ ___  ___
    | | '_ \|  _/ _ \/ __|
    | | | | | || (_) \__ \
    |_|_| |_|_| \___/|___/
    
    Originaltitel: Hagure Yusha no Aestetica
    
    URL:           http://www.imdb.com/title/tt2269368/
    
    Note:          7.5/10
    
    Plot:          Google
    
    _
    | |
    __ _ _ __ ___  ___| |_ ___
    / _` | '__/ _ \/ _ \ __/ __|
    | (_| | | |  __/  __/ |_\__ \
    \__, |_|  \___|\___|\__|___/
    __/ |
    |___/
    
    23thStreet,AJA,pmHD,Smoki187
    
    _           __  __ _
    | |         / _|/ _| |
    ___| |__   ___| |_| |_| | ___
    / __| '_ \ / _ \  _|  _| |/ _ \
    | (__| | | |  __/ | | | | | (_) |
    \___|_| |_|\___|_| |_| |_|\___/
    a legend that never dies...


    Mirrors kompatibel

    .:Uploaded.net:.
    Geschützter Bereich - Bedanke dich beim Poster, um den Bereich sehen zu können
    Hier erfährst Du wie Du Dich bedanken kannst oder werde jetzt Premium Mitglied ab einer Spende von 5€ und erhalte sofortigen Zugriff auf den Downloadbereich!

    .:Share-online.biz:.
    Geschützter Bereich - Bedanke dich beim Poster, um den Bereich sehen zu können
    Hier erfährst Du wie Du Dich bedanken kannst oder werde jetzt Premium Mitglied ab einer Spende von 5€ und erhalte sofortigen Zugriff auf den Downloadbereich!


  2. 45 Benutzer sagen Danke:

    Akio (6. August 2015),aquarius (3. April 2015),Asuka Langley (23. July 2015),carollatranny (19. May 2016),chita88 (22. April 2015),Crome18 (4. May 2015),dr_fist (13. January 2016),Ecel (8. July 2015),egon1212 (8. August 2015),EniMan (5. May 2015),etter (13. April 2015),FrankyxD (14. August 2015),Glonar_inactive (4. May 2015),HellSPawn91 (1. July 2015),HybridTech (24. July 2015),janik2009 (15. April 2015),Kradus (3. July 2015),Max13493 (7. July 2015),Meatron (1. May 2015),MegaMacX (6. March 2016),midnighter (19. April 2015),mikle20 (30. June 2016),Mipporin (9. April 2015),MrScenic (5. April 2015),n0b0dy (12. June 2015),Noire16 (25. July 2015),Pure (17. May 2015),Raychan (8. April 2015),raydar (11. April 2015),Rena_Chan (6. August 2015),sabs0686 (23. June 2015),sakaeo42 (18. May 2015),SandStein (19. October 2015),sapzero (11. July 2015),Schweigi (1. August 2015),SertiX (2. May 2015),Tarlysin (4. April 2015),tigerhai (27. July 2015),tmcx (29. April 2015),Traxolator (7. January 2016),xelli_inactive (5. April 2015),xEssentiaLx (21. July 2015),ZeroXG (25. April 2015),zockerfreund (24. July 2016)

  3. #2
    United we Stand Avatar von 00Ryuji00
    Registriert seit
    Oct 2012
    Beiträge
    3.896
    Punkte
    99.519
    Errungenschaften:
    TomodachisGang LeaderHikikomoriTagger Amateur50000 Erfahrungspunkte

    AW: Hagure Yuusha no Aesthetica + OVA [Ger-Dub][404p][HDRip]

    Hagure Yuusha no Estetica
    はぐれ勇者の鬼畜美学 [エステティカ]
    Aesthetica of a Rogue Hero
    Hagure Yusha no Aestetica



    Kurzbeschreibung:
    Akatsuki Ousawa hat den gefürchteten Dämonenkönig besiegt. Die Welt Alazzard feiert ihn deswegen als Helden. Doch Akatsuki will nicht bleiben, er ist nämlich ein Weltenreisender. Ohne das Wissen des Königshauses von Alazzard, nimmt Akatsuki die Tochter des Dämonenkönigs mit sich in seine Welt. Doch dies hat weitreichende Konsequenzen...
    Sprache: Deutsch
    Untertitel: -
    Spieldauer: ~ 24min + 4min
    Größe: ~ 205MB + 40MB
    Episodenanzahl: 12/12 + 7/7
    Format: .mkv
    Auflösung: 404p (720x404, 16:9)
    Codec: x264, AC-3
    Gruppe: Chefflo
    Hoster: Uploaded, Share-Online

    Datei-Info.:
    Spoiler
    Staffel
    Code:
    Format                                   : Matroska
    Format version                           : Version 4 / Version 2
    File size                                : 198 MiB
    Duration                                 : 23mn 11s
    Overall bit rate                         : 1 194 Kbps
    Movie name                               : AESTHETICA OF A ROGUE HERO 1.Title0.BlurayRip
    Encoded date                             : UTC 2014-05-26 03:21:27
    Writing application                      : mkvmerge v6.5.0 ('Isn't she lovely') built on Oct 20 2013 12:50:05
    Writing library                          : libebml v1.3.0 + libmatroska v1.4.1
    
    Video
    ID                                       : 1
    Format                                   : AVC
    Format/Info                              : Advanced Video Codec
    Format profile                           : [email protected]
    Format settings, CABAC                   : Yes
    Format settings, ReFrames                : 8 frames
    Codec ID                                 : V_MPEG4/ISO/AVC
    Duration                                 : 23mn 11s
    Bit rate                                 : 1 000 Kbps
    Width                                    : 720 pixels
    Height                                   : 404 pixels
    Display aspect ratio                     : 16:9
    Frame rate mode                          : Constant
    Frame rate                               : 23.976 fps
    Color space                              : YUV
    Chroma subsampling                       : 4:2:0
    Bit depth                                : 8 bits
    Scan type                                : Progressive
    Bits/(Pixel*Frame)                       : 0.143
    Stream size                              : 162 MiB (82%)
    Writing library                          : x264 core 138 r2358 9e941d1
    Encoding settings                        : cabac=1 / ref=8 / deblock=1:-2:-2 / analyse=0x3:0x133 / me=umh / subme=8 / psy=1 / psy_rd=0.95:0.00 / mixed_ref=1 / me_range=18 / chroma_me=1 / trellis=2 / 8x8dct=1 / cqm=0 / deadzone=21,11 / fast_pskip=1 / chroma_qp_offset=-2 / threads=9 / lookahead_threads=1 / sliced_threads=0 / nr=0 / decimate=1 / interlaced=0 / bluray_compat=0 / constrained_intra=0 / bframes=3 / b_pyramid=2 / b_adapt=2 / b_bias=0 / direct=3 / weightb=1 / open_gop=0 / weightp=2 / keyint=240 / keyint_min=23 / scenecut=40 / intra_refresh=0 / rc_lookahead=60 / rc=2pass / mbtree=1 / bitrate=1000 / ratetol=1.0 / qcomp=0.60 / qpmin=0 / qpmax=69 / qpstep=4 / cplxblur=20.0 / qblur=0.5 / vbv_maxrate=50000 / vbv_bufsize=62500 / nal_hrd=none / ip_ratio=1.40 / aq=1:1.00
    Language                                 : English
    Default                                  : Yes
    Forced                                   : No
    
    Audio
    ID                                       : 2
    Format                                   : AC-3
    Format/Info                              : Audio Coding 3
    Mode extension                           : CM (complete main)
    Format settings, Endianness              : Big
    Codec ID                                 : A_AC3
    Duration                                 : 23mn 11s
    Bit rate mode                            : Constant
    Bit rate                                 : 192 Kbps
    Channel count                            : 2 channels
    Channel positions                        : Front: L R
    Sampling rate                            : 48.0 KHz
    Bit depth                                : 16 bits
    Compression mode                         : Lossy
    Stream size                              : 31.9 MiB (16%)
    Language                                 : German
    Default                                  : Yes
    Forced                                   : No
    
    Text
    ID                                       : 3
    Format                                   : VobSub
    Codec ID                                 : S_VOBSUB
    Codec ID/Info                            : The same subtitle format used on DVDs
    Language                                 : German
    Default                                  : Yes
    Forced                                   : No
    
    Menu
    00:00:00.000                             : en:(01)00:00:00:000
    00:02:48.168                             : en:(02)00:02:48:168
    00:09:46.586                             : en:(03)00:09:46:586
    00:21:41.300                             : en:(04)00:21:41:300
    00:23:11.390                             : en:(05)00:23:11:390
    
    OVA
    Code:
    Format                                   : Matroska
    Format version                           : Version 4 / Version 2
    File size                                : 35.7 MiB
    Duration                                 : 3mn 26s
    Overall bit rate                         : 1 451 Kbps
    Encoded date                             : UTC 2014-05-29 21:25:09
    Writing application                      : mkvmerge v6.5.0 ('Isn't she lovely') built on Oct 20 2013 12:50:05
    Writing library                          : libebml v1.3.0 + libmatroska v1.4.1
    
    Video
    ID                                       : 1
    Format                                   : AVC
    Format/Info                              : Advanced Video Codec
    Format profile                           : [email protected]
    Format settings, CABAC                   : Yes
    Format settings, ReFrames                : 8 frames
    Codec ID                                 : V_MPEG4/ISO/AVC
    Duration                                 : 3mn 26s
    Bit rate                                 : 1 000 Kbps
    Width                                    : 720 pixels
    Height                                   : 404 pixels
    Display aspect ratio                     : 16:9
    Frame rate mode                          : Constant
    Frame rate                               : 23.976 fps
    Color space                              : YUV
    Chroma subsampling                       : 4:2:0
    Bit depth                                : 8 bits
    Scan type                                : Progressive
    Bits/(Pixel*Frame)                       : 0.143
    Stream size                              : 23.9 MiB (67%)
    Writing library                          : x264 core 138 r2358 9e941d1
    Encoding settings                        : cabac=1 / ref=8 / deblock=1:-2:-2 / analyse=0x3:0x133 / me=umh / subme=8 / psy=1 / psy_rd=0.95:0.00 / mixed_ref=1 / me_range=18 / chroma_me=1 / trellis=2 / 8x8dct=1 / cqm=0 / deadzone=21,11 / fast_pskip=1 / chroma_qp_offset=-2 / threads=9 / lookahead_threads=1 / sliced_threads=0 / nr=0 / decimate=1 / interlaced=0 / bluray_compat=0 / constrained_intra=0 / bframes=3 / b_pyramid=2 / b_adapt=2 / b_bias=0 / direct=3 / weightb=1 / open_gop=0 / weightp=2 / keyint=240 / keyint_min=23 / scenecut=40 / intra_refresh=0 / rc_lookahead=60 / rc=2pass / mbtree=1 / bitrate=1000 / ratetol=1.0 / qcomp=0.60 / qpmin=0 / qpmax=69 / qpstep=4 / cplxblur=20.0 / qblur=0.5 / vbv_maxrate=50000 / vbv_bufsize=62500 / nal_hrd=none / ip_ratio=1.40 / aq=1:1.00
    Language                                 : English
    Default                                  : Yes
    Forced                                   : No
    
    Audio
    ID                                       : 2
    Format                                   : AC-3
    Format/Info                              : Audio Coding 3
    Mode extension                           : CM (complete main)
    Format settings, Endianness              : Big
    Codec ID                                 : A_AC3
    Duration                                 : 3mn 26s
    Bit rate mode                            : Constant
    Bit rate                                 : 448 Kbps
    Channel count                            : 2 channels
    Channel positions                        : Front: L R
    Sampling rate                            : 48.0 KHz
    Bit depth                                : 16 bits
    Compression mode                         : Lossy
    Stream size                              : 11.0 MiB (31%)
    Title                                    : AC3-2.0
    Language                                 : Japanese
    Default                                  : Yes
    Forced                                   : No
    
    Text
    ID                                       : 3
    Format                                   : UTF-8
    Codec ID                                 : S_TEXT/UTF8
    Codec ID/Info                            : UTF-8 Plain Text
    Title                                    : Full-Sub (srt)
    Language                                 : German
    Default                                  : Yes
    Forced                                   : No
    


    Geschützter Bereich - Bedanke dich beim Poster, um den Bereich sehen zu können
    Hier erfährst Du wie Du Dich bedanken kannst oder werde jetzt Premium Mitglied ab einer Spende von 5€ und erhalte sofortigen Zugriff auf den Downloadbereich!
    Geändert von 00Ryuji00 (6. July 2015 um 16:12 Uhr)
    !!!Alle Anliegen bezüglich Uploads werden nur mit direktem Threadlink zum Angebot bearbeitet!!!

    Re-Uploadanfragen nur per PN - Ihr könnt mir auch Listen schicken

    Re-Uploads erfolgen meist innerhalb 24h, kann aber auch bis zu 7 Tage dauern

    [Links sind nur für registrierte und aktivierte Nutzer sichtbar. Klicke hier um dich zu registrieren.] | [Links sind nur für registrierte und aktivierte Nutzer sichtbar. Klicke hier um dich zu registrieren.] | >[Links sind nur für registrierte und aktivierte Nutzer sichtbar. Klicke hier um dich zu registrieren.]<
    [Links sind nur für registrierte und aktivierte Nutzer sichtbar. Klicke hier um dich zu registrieren.]

  4. 11 Benutzer sagen Danke:

    Asuka Langley (23. July 2015),Aya (14. July 2015),bra1nbug94 (10. September 2015),CoNfu5eD (6. July 2015),haltdiefresse (7. July 2015),mikle20 (30. June 2016),sapzero (11. July 2015),Silent467 (1. September 2015),Sirius (7. July 2015),Traxolator (7. January 2016),xEssentiaLx (21. July 2015)

Lesezeichen

Berechtigungen

  • Neue Themen erstellen: Nein
  • Themen beantworten: Nein
  • Anhänge hochladen: Nein
  • Beiträge bearbeiten: Nein
  •  

1 2 3 4 5 6 7 8 9 10 11 12 13 14 15 16 17 18 19 20 21 22 23 24 25 26 27 28 29 30 31 32 33 34 35 36 37 38 39 40 41 42 43 44 45 46 47 48 49 50 51 52 53 54 55 56 57 58 59 60 61 62 63 64 65 66 67 68 69 70 71 72 73 74 75 76 77 78 79 80 81 82 83 84 85 86 87 88 89 90 91 92 93 94 95 96 97 98 99 100 101 102 103 104 105 106 107 108 109 110 111 112 113 114 115 116 117 118 119 120 121 122 123 124 125 126 127 128 129 130 131 132 133 134 135 136 137 138 139 140 141 142 143 144 145 146 147 148 149 150 151 152 153 154 155 156 157 158