Ergebnis 1 bis 3 von 3

Thema: Hagure Yuusha no Estetica + Special [Ger-Jap-Dub][Ger-Sub][AC3/DTS-HD][720p/1080p][BluRay] - AST4u

Dieser Thread wurde noch nicht bewertet. Bewerte ihn doch, wenn er dir gefällt!
  1. #1
    United we Stand Avatar von 00Ryuji00
    Registriert seit
    Oct 2012
    Beiträge
    3.902
    Punkte
    100.220
    Errungenschaften:
    TomodachisGang LeaderHikikomoriTagger Amateur50000 Erfahrungspunkte

    Hagure Yuusha no Estetica + Special [Ger-Jap-Dub][Ger-Sub][AC3/DTS-HD][720p/1080p][BluRay] - AST4u


    Hagure Yuusha no Estetica

    はぐれ勇者の鬼畜美学 [エステティカ]
    Aesthetica of a Rogue Hero
    Hagure Yusha no Aestetica
    +
    Hagure Yuusha no Estetica Specials はぐれ勇者の鬼畜美学 Specials
    Aesthetica of a Rogue Hero Specials
    Aesthetica of a Rogue Hero Bonus OVAs
    +
    Queen's Blade Rebellion vs. Hagure Yuusha no Estetica クイーンズブレイド リベリオンVSはぐれ勇者の鬼畜美学
    Queen's Blade Rebellion vs. Aesthetica of a Rogue Hero



    Kurzbeschreibung:
    Zitat Zitat von AniSearch.com
    Akatsuki Ousawa hat den gefürchteten Dämonenkönig besiegt. Die Welt Alazzard feiert ihn deswegen als Helden. Doch Akatsuki will nicht bleiben, er ist nämlich ein Weltenreisender. Ohne das Wissen des Königshauses von Alazzard, nimmt Akatsuki die Tochter des Dämonenkönigs mit sich in seine Welt. Doch dies hat weitreichende Konsequenzen...
    Spieldauer: 24min
    Genre: Action
    Nebengenres: Action, Ecchi, Fantasy, Harem, Männlich
    Jahr: 2012
    Sprache: Deutsch, Japanisch
    Untertitel: Deutsch
    Größe pro Folge: ~ 230MB/700MB/1,55GB/1,8GB
    Episodenanzahl: 12/12 + 7/7
    Format: MKV
    Auflösung: 404p (16:9), 720p (16:9), 1080p (16:9)
    Videocodec: XviD, x264 (AVC)
    Audiocodec: MP3, AC-3, DTS
    Releasegruppe: AST4u
    Hoster: Uploaded, Share-Online

    MediaInfo
    720p AC-3
    Code:
    
    Format                                   : Matroska
    Format version                           : Version 4 / Version 2
    File size                                : 563 MiB
    Duration                                 : 23mn 12s
    Overall bit rate                         : 3 391 Kbps
    Encoded date                             : UTC 2015-02-17 14:43:11
    Writing application                      : mkvmerge v7.4.0 ('Circles') 64bit built on Dec 12 2014 12:19:56
    Writing library                          : libebml v1.3.0 + libmatroska v1.4.1
    _STATISTICS_WRITING_APP                  : mkvmerge v7.4.0 ('Circles') 64bit built on Dec 12 2014 12:19:56
    _STATISTICS_WRITING_DATE_UTC             : 2015-02-17 14:43:11
    _STATISTICS_TAGS                         : BPS DURATION NUMBER_OF_FRAMES NUMBER_OF_BYTES
    DURATION                                 : 00:22:31.725000000
    NUMBER_OF_FRAMES                         : 496
    NUMBER_OF_BYTES                          : 2477184
    
    Video
    ID                                       : 1
    Format                                   : AVC
    Format/Info                              : Advanced Video Codec
    Format profile                           : [email protected]
    Format settings, CABAC                   : Yes
    Format settings, ReFrames                : 6 frames
    Codec ID                                 : V_MPEG4/ISO/AVC
    Duration                                 : 23mn 12s
    Bit rate                                 : 2 428 Kbps
    Width                                    : 1 280 pixels
    Height                                   : 720 pixels
    Display aspect ratio                     : 16:9
    Frame rate mode                          : Constant
    Frame rate                               : 23.976 fps
    Color space                              : YUV
    Chroma subsampling                       : 4:2:0
    Bit depth                                : 8 bits
    Scan type                                : Progressive
    Bits/(Pixel*Frame)                       : 0.110
    Stream size                              : 403 MiB (72%)
    Writing library                          : x264 core 140 r2377 1ca7bb9
    Encoding settings                        : cabac=1 / ref=6 / deblock=1:1:1 / analyse=0x3:0x113 / me=hex / subme=7 / psy=1 / psy_rd=1.00:0.00 / mixed_ref=1 / me_range=16 / chroma_me=1 / trellis=1 / 8x8dct=1 / cqm=0 / deadzone=21,11 / fast_pskip=1 / chroma_qp_offset=-2 / threads=6 / lookahead_threads=1 / sliced_threads=0 / nr=0 / decimate=1 / interlaced=0 / bluray_compat=0 / constrained_intra=0 / bframes=5 / b_pyramid=2 / b_adapt=1 / b_bias=0 / direct=1 / weightb=1 / open_gop=0 / weightp=2 / keyint=240 / keyint_min=23 / scenecut=40 / intra_refresh=0 / rc_lookahead=40 / rc=crf / mbtree=1 / crf=16.0 / qcomp=0.60 / qpmin=0 / qpmax=69 / qpstep=4 / vbv_maxrate=62500 / vbv_bufsize=78125 / crf_max=0.0 / nal_hrd=none / filler=0 / ip_ratio=1.40 / aq=1:0.60
    Default                                  : Yes
    Forced                                   : No
    
    Audio #1
    ID                                       : 2
    Format                                   : AC-3
    Format/Info                              : Audio Coding 3
    Mode extension                           : CM (complete main)
    Format settings, Endianness              : Big
    Codec ID                                 : A_AC3
    Duration                                 : 23mn 12s
    Bit rate mode                            : Constant
    Bit rate                                 : 448 Kbps
    Channel count                            : 2 channels
    Channel positions                        : Front: L R
    Sampling rate                            : 48.0 KHz
    Bit depth                                : 16 bits
    Compression mode                         : Lossy
    Stream size                              : 74.4 MiB (13%)
    Default                                  : Yes
    Forced                                   : No
    
    Audio #2
    ID                                       : 3
    Format                                   : AC-3
    Format/Info                              : Audio Coding 3
    Mode extension                           : CM (complete main)
    Format settings, Endianness              : Big
    Codec ID                                 : A_AC3
    Duration                                 : 23mn 12s
    Bit rate mode                            : Constant
    Bit rate                                 : 448 Kbps
    Channel count                            : 2 channels
    Channel positions                        : Front: L R
    Sampling rate                            : 48.0 KHz
    Bit depth                                : 16 bits
    Compression mode                         : Lossy
    Stream size                              : 74.4 MiB (13%)
    Default                                  : No
    Forced                                   : No
    
    Text #1
    ID                                       : 4
    Format                                   : PGS
    Muxing mode                              : zlib
    Codec ID                                 : S_HDMV/PGS
    Codec ID/Info                            : The same subtitle format used on BDs/HD-DVDs
    Default                                  : No
    Forced                                   : No
    
    Text #2
    ID                                       : 5
    Format                                   : PGS
    Muxing mode                              : zlib
    Codec ID                                 : S_HDMV/PGS
    Codec ID/Info                            : The same subtitle format used on BDs/HD-DVDs
    Default                                  : No
    Forced                                   : No
    1080p AC-3
    Code:
    
    Format                                   : Matroska
    Format version                           : Version 2
    File size                                : 1.49 GiB
    Duration                                 : 23mn 11s
    Overall bit rate                         : 9 166 Kbps
    Movie name                               : Aesthetica.of.a.Rogue.Hero.Complete.01.German.DL.AC3.1080p.BluRay.x264.AST4u
    Encoded date                             : UTC 2015-08-22 06:50:10
    Writing application                      : DVDFab 9.2.0.9
    Writing library                          : libebml v0.7.8 + libmatroska v0.8.1
    
    Video
    ID                                       : 1
    Format                                   : AVC
    Format/Info                              : Advanced Video Codec
    Format profile                           : [email protected]
    Format settings, CABAC                   : Yes
    Format settings, ReFrames                : 2 frames
    Codec ID                                 : V_MPEG4/ISO/AVC
    Duration                                 : 23mn 11s
    Bit rate                                 : 8 502 Kbps
    Width                                    : 1 920 pixels
    Height                                   : 1 080 pixels
    Display aspect ratio                     : 16:9
    Frame rate mode                          : Constant
    Frame rate                               : 23.976 fps
    Color space                              : YUV
    Chroma subsampling                       : 4:2:0
    Bit depth                                : 8 bits
    Scan type                                : Progressive
    Bits/(Pixel*Frame)                       : 0.171
    Stream size                              : 1.35 GiB (91%)
    Writing library                          : x264 core 142
    Encoding settings                        : cabac=1 / ref=1 / deblock=1:-1:-1 / analyse=0x3:0 / me=hex / subme=5 / psy=0 / mixed_ref=0 / me_range=16 / chroma_me=1 / trellis=0 / 8x8dct=1 / cqm=0 / deadzone=21,11 / fast_pskip=1 / chroma_qp_offset=0 / threads=8 / lookahead_threads=2 / sliced_threads=0 / nr=0 / decimate=1 / interlaced=0 / bluray_compat=0 / constrained_intra=0 / bframes=2 / b_pyramid=0 / b_adapt=1 / b_bias=0 / direct=1 / weightb=1 / open_gop=0 / weightp=0 / keyint=24 / keyint_min=13 / scenecut=40 / intra_refresh=0 / rc=2pass / mbtree=0 / bitrate=8502 / ratetol=1.0 / qcomp=0.60 / qpmin=0 / qpmax=69 / qpstep=4 / cplxblur=20.0 / qblur=0.5 / ip_ratio=1.40 / pb_ratio=1.30 / aq=1:1.00
    Default                                  : Yes
    Forced                                   : No
    Color primaries                          : BT.709
    Transfer characteristics                 : BT.709
    Matrix coefficients                      : BT.709
    
    Audio #1
    ID                                       : 2
    Format                                   : AC-3
    Format/Info                              : Audio Coding 3
    Mode extension                           : CM (complete main)
    Format settings, Endianness              : Big
    Codec ID                                 : A_AC3
    Duration                                 : 23mn 11s
    Bit rate mode                            : Constant
    Bit rate                                 : 320 Kbps
    Channel count                            : 2 channels
    Channel positions                        : Front: L R
    Sampling rate                            : 48.0 KHz
    Bit depth                                : 16 bits
    Compression mode                         : Lossy
    Stream size                              : 53.1 MiB (3%)
    Language                                 : German
    Default                                  : Yes
    Forced                                   : No
    
    Audio #2
    ID                                       : 3
    Format                                   : AC-3
    Format/Info                              : Audio Coding 3
    Mode extension                           : CM (complete main)
    Format settings, Endianness              : Big
    Codec ID                                 : A_AC3
    Duration                                 : 23mn 11s
    Bit rate mode                            : Constant
    Bit rate                                 : 320 Kbps
    Channel count                            : 2 channels
    Channel positions                        : Front: L R
    Sampling rate                            : 48.0 KHz
    Bit depth                                : 16 bits
    Compression mode                         : Lossy
    Stream size                              : 53.1 MiB (3%)
    Language                                 : Japanese
    Default                                  : No
    Forced                                   : No
    
    Text #1
    ID                                       : 4
    Format                                   : VobSub
    Codec ID                                 : S_VOBSUB
    Codec ID/Info                            : The same subtitle format used on DVDs
    Language                                 : German
    Default                                  : No
    Forced                                   : No
    
    Text #2
    ID                                       : 5
    Format                                   : VobSub
    Codec ID                                 : S_VOBSUB
    Codec ID/Info                            : The same subtitle format used on DVDs
    Language                                 : German
    Default                                  : No
    Forced                                   : No
    
    Menu
    00:00:00.000                             : en:(01)00:00:00:000
    00:02:48.168                             : en:(02)00:02:48:168
    00:09:46.586                             : en:(03)00:09:46:586
    00:21:41.300                             : en:(04)00:21:41:300
    00:23:11.390                             : en:(05)00:23:11:390
    1080p DTS-HD
    Code:
    
    Format                                   : Matroska
    Format version                           : Version 4 / Version 2
    File size                                : 1.58 GiB
    Duration                                 : 23mn 12s
    Overall bit rate                         : 9 739 Kbps
    Encoded date                             : UTC 2015-02-17 13:42:59
    Writing application                      : mkvmerge v7.4.0 ('Circles') 64bit built on Dec 12 2014 12:19:56
    Writing library                          : libebml v1.3.0 + libmatroska v1.4.1
    _STATISTICS_WRITING_APP                  : mkvmerge v7.4.0 ('Circles') 64bit built on Dec 12 2014 12:19:56
    _STATISTICS_WRITING_DATE_UTC             : 2015-02-17 13:42:59
    _STATISTICS_TAGS                         : BPS DURATION NUMBER_OF_FRAMES NUMBER_OF_BYTES
    DURATION                                 : 00:22:31.725000000
    NUMBER_OF_FRAMES                         : 496
    NUMBER_OF_BYTES                          : 2477184
    
    Video
    ID                                       : 1
    Format                                   : AVC
    Format/Info                              : Advanced Video Codec
    Format profile                           : [email protected]
    Format settings, CABAC                   : Yes
    Format settings, ReFrames                : 4 frames
    Codec ID                                 : V_MPEG4/ISO/AVC
    Duration                                 : 23mn 12s
    Bit rate                                 : 6 527 Kbps
    Width                                    : 1 920 pixels
    Height                                   : 1 080 pixels
    Display aspect ratio                     : 16:9
    Frame rate mode                          : Constant
    Frame rate                               : 23.976 fps
    Color space                              : YUV
    Chroma subsampling                       : 4:2:0
    Bit depth                                : 8 bits
    Scan type                                : Progressive
    Bits/(Pixel*Frame)                       : 0.131
    Stream size                              : 1.06 GiB (67%)
    Writing library                          : x264 core 140 r2377 1ca7bb9
    Encoding settings                        : cabac=1 / ref=4 / deblock=1:1:1 / analyse=0x3:0x113 / me=hex / subme=7 / psy=1 / psy_rd=1.00:0.00 / mixed_ref=1 / me_range=16 / chroma_me=1 / trellis=1 / 8x8dct=1 / cqm=0 / deadzone=21,11 / fast_pskip=1 / chroma_qp_offset=-2 / threads=6 / lookahead_threads=1 / sliced_threads=0 / nr=0 / decimate=1 / interlaced=0 / bluray_compat=0 / constrained_intra=0 / bframes=5 / b_pyramid=2 / b_adapt=1 / b_bias=0 / direct=1 / weightb=1 / open_gop=0 / weightp=2 / keyint=240 / keyint_min=23 / scenecut=40 / intra_refresh=0 / rc_lookahead=40 / rc=crf / mbtree=1 / crf=16.0 / qcomp=0.60 / qpmin=0 / qpmax=69 / qpstep=4 / vbv_maxrate=62500 / vbv_bufsize=78125 / crf_max=0.0 / nal_hrd=none / filler=0 / ip_ratio=1.40 / aq=1:0.60
    Default                                  : Yes
    Forced                                   : No
    
    Audio #1
    ID                                       : 2
    Format                                   : DTS
    Format/Info                              : Digital Theater Systems
    Mode                                     : 16
    Format settings, Endianness              : Big
    Codec ID                                 : A_DTS
    Duration                                 : 23mn 12s
    Bit rate mode                            : Constant
    Bit rate                                 : 1 509 Kbps
    Channel count                            : 2 channels
    Channel positions                        : Front: L R
    Sampling rate                            : 48.0 KHz
    Bit depth                                : 16 bits
    Compression mode                         : Lossy
    Stream size                              : 251 MiB (15%)
    Default                                  : Yes
    Forced                                   : No
    
    Audio #2
    ID                                       : 3
    Format                                   : DTS
    Format/Info                              : Digital Theater Systems
    Mode                                     : 16
    Format settings, Endianness              : Big
    Codec ID                                 : A_DTS
    Duration                                 : 23mn 12s
    Bit rate mode                            : Constant
    Bit rate                                 : 1 509 Kbps
    Channel count                            : 2 channels
    Channel positions                        : Front: L R
    Sampling rate                            : 48.0 KHz
    Bit depth                                : 24 bits
    Compression mode                         : Lossy
    Stream size                              : 251 MiB (15%)
    Default                                  : No
    Forced                                   : No
    
    Text #1
    ID                                       : 4
    Format                                   : PGS
    Muxing mode                              : zlib
    Codec ID                                 : S_HDMV/PGS
    Codec ID/Info                            : The same subtitle format used on BDs/HD-DVDs
    Default                                  : Yes
    Forced                                   : No
    
    Text #2
    ID                                       : 5
    Format                                   : PGS
    Muxing mode                              : zlib
    Codec ID                                 : S_HDMV/PGS
    Codec ID/Info                            : The same subtitle format used on BDs/HD-DVDs
    Default                                  : No
    Forced                                   : No




    Geschützter Bereich - Bedanke dich beim Poster, um den Bereich sehen zu können
    Hier erfährst Du wie Du Dich bedanken kannst oder werde jetzt Premium Mitglied ab einer Spende von 5€ und erhalte sofortigen Zugriff auf den Downloadbereich!


    [Links sind nur für registrierte und aktivierte Nutzer sichtbar. Klicke hier um dich zu registrieren.]
    !!!Alle Anliegen bezüglich Uploads werden nur mit direktem Threadlink zum Angebot bearbeitet!!!

    Re-Uploadanfragen nur per PN - Ihr könnt mir auch Listen schicken

    Re-Uploads folgen nach Anfrage meist am Wochenende

    [Links sind nur für registrierte und aktivierte Nutzer sichtbar. Klicke hier um dich zu registrieren.] | [Links sind nur für registrierte und aktivierte Nutzer sichtbar. Klicke hier um dich zu registrieren.] | >[Links sind nur für registrierte und aktivierte Nutzer sichtbar. Klicke hier um dich zu registrieren.]<
    [Links sind nur für registrierte und aktivierte Nutzer sichtbar. Klicke hier um dich zu registrieren.]

  2. 109 Benutzer sagen Danke:

    Anzeigen

    -tomcat- (19. August 2016),1Ranger (3. September 2015),AcE1507 (18. November 2015),Aisha (19. June 2016),Akatsuki (27. September 2015),Anileak (27. November 2015),AnimeGuy69 (3. September 2015),Asuka Langley (1. September 2015),baldur1989 (31. December 2015),Baschti1989 (26. July 2016),beckiiyy1 (30. August 2015),Benjiro (25. August 2015),Bl00dyRaven (24. April 2016),BlackIron (18. October 2015),BlackPhoenix (30. August 2015),Bloodrevenge (13. October 2015),bra1nbug94 (9. September 2015),Bruglin (13. October 2015),Bunchy (30. August 2015),bushidokingz (25. August 2015),chopper23 (24. August 2015),ChriisP (8. November 2015),Cloover (22. August 2016),Coji (18. August 2016),Conopas (4. May 2016),Cooky1988 (26. August 2015),cooliero (16. September 2015),Daimyo Tokugawa (16. September 2015),Demichi (30. December 2015),DetektivConanDE (26. August 2015),dreimer (4. October 2015),dr_fist (14. January 2016),ElfenLied (30. August 2015),elta92 (31. January 2016),enfii (24. August 2015),Fox Faram (23. November 2015),Fynal (26. August 2015),Ghostraven (29. September 2015),hisoka suzuya (29. August 2015),Hobbitgraf (27. July 2016),hundekuchen (12. September 2015),Hyro (20. July 2016),Icke (12. October 2015),Intege (26. October 2015),jesan6 (24. November 2015),juckenkratzen (6. March 2016),Kaffee333 (26. July 2016),kaiste (24. July 2016),Kaito_O (24. November 2015),Kaktusmensch (18. September 2015),killer7977 (25. September 2015),Kinasix (24. August 2015),Kirdock (27. July 2016),krasserGaul (24. August 2015),LB31 (10. September 2015),livia84 (30. December 2015),LordBacon1 (7. August 2016),Lowtz (2. November 2015),Magikarp (23. September 2015),manuell123 (30. August 2016),markusdamon5 (15. September 2016),maze8888 (7. September 2015),McZeRo (21. June 2016),merb (21. December 2015),midnighter (30. September 2015),Modell_Thomas (1. March 2016),Mosh (12. September 2016),Mr.Shit (2. September 2015),Natsu008 (20. May 2016),Newz2014 (12. May 2016),nightstick (30. August 2015),OokamiHoro (1. September 2016),parad0xr (15. September 2015),peniku8 (27. December 2015),prinzvegeta (1. September 2015),Ratzu (27. December 2015),Razel86 (14. September 2015),Razyy (5. April 2016),realmadridcf (16. December 2015),Reaper1 (28. September 2015),Regi (21. February 2016),rettz (23. December 2015),Rittai (24. April 2016),Ronae (13. August 2016),ruffy1989 (26. July 2016),Ryuichiro (29. August 2015),RyuLelouch (3. November 2015),san1n (7. May 2016),Sandy7580 (26. July 2016),Satiini (31. October 2015),Sesshoumaru (13. March 2016),Shinigami1337 (18. October 2015),Skian (1. August 2016),Sylux (23. September 2015),Tarlysin (9. October 2015),Tekk (26. July 2016),tohotono1987 (26. August 2015),Traenchen (5. May 2016),Traxolator (7. January 2016),treffgarnix (23. September 2016),Tzi (25. August 2015),Venriss (18. October 2015),Virgel (16. March 2016),VoidOfGalaxy (24. August 2015),Wakaba (18. March 2016),Watashisan (23. August 2016),xXBaaMXx (18. August 2016),Yishar (22. August 2016),zockerfreund (24. July 2016)

  3. #2
    High Quality Anime Avatar von Uploading123
    Registriert seit
    Mar 2013
    Beiträge
    1.009
    Punkte
    44.135
    Errungenschaften:
    TomodachisTagger Amateur25000 ErfahrungspunkteHikikomoriKapitän

    Aesthetica of a Rogue Hero [Ger-Jap-Dub][Ger-Sub][AC3][1080p][BluRay][x264] - AST4u


    Aesthetica.of.a.Rogue.Hero.COMPLETE.German.DL.AC3. 1080p.BluRay.x264-AST4u



    .:Beschreibung:.
    Akatsuki Ousawa hat den gefürchteten Dämonenkönig besiegt. Die Welt Alazzard feiert ihn deswegen als Helden. Doch Akatsuki will nicht bleiben, er ist nämlich ein Weltenreisender. Ohne das Wissen des Königshauses von Alazzard, nimmt Akatsuki die Tochter des Dämonenkönigs mit sich in seine Welt. Doch dies hat weitreichende Konsequenzen...

    .:Info:.
    Größe: 20348.05 MB
    Laufzeit: 24
    Format: .mkv
    Video Stream: BD
    Video Codec: MPEG-4 H.264 / AVC
    Audio Stream: Dolby Digital 2.0
    Sprache/n: GER, JPN
    Genre: Animeserie
    Episodenanzahl: 12/12 + 7/7 OVA

    .:NFO:.
    Spoiler
    Code:
    ID : 1
    Format : AVC
    Format/Info : Advanced Video Codec
    Format-Profil : [email protected]
    Format-Einstellungen für CABAC : Ja
    Format-Einstellungen für ReFrames : 4 frames
    Codec-ID : V_MPEG4/ISO/AVC
    Dauer : 23min
    Bitrate : 2 932 Kbps
    Breite : 1 920 Pixel
    Höhe : 1 080 Pixel
    Bildseitenverhältnis : 16:9
    Modus der Bildwiederholungsrate : konstant
    Bildwiederholungsrate : 23,976 FPS
    ColorSpace : YUV
    ChromaSubsampling : 4:2:0
    BitDepth/String : 8 bits
    Scantyp : progressiv
    Bits/(Pixel*Frame) : 0.059
    Stream-Größe : 487 MiB (75%)
    verwendete Encoder-Bibliothek : x264 core 142 r2479 dd79a61
    Kodierungseinstellungen : cabac=1 / ref=4 / deblock=1:1:1 / analyse=0x3:0x133 / me=umh / subme=10 / psy=1 / psy_rd=0.40:0.00 / mixed_ref=1 / me_range=24 / chroma_me=1 / trellis=2 / 8x8dct=1 / cqm=0 / deadzone=21,11 / fast_pskip=1 / chroma_qp_offset=-2 / threads=12 / lookahead_threads=3 / sliced_threads=0 / nr=0 / decimate=1 / interlaced=0 / bluray_compat=0 / constrained_intra=0 / bframes=10 / b_pyramid=2 / b_adapt=2 / b_bias=0 / direct=3 / weightb=1 / open_gop=0 / weightp=2 / keyint=240 / keyint_min=24 / scenecut=40 / intra_refresh=0 / rc_lookahead=60 / rc=crf / mbtree=1 / crf=18.0 / qcomp=0.60 / qpmin=0 / qpmax=69 / qpstep=4 / vbv_maxrate=62500 / vbv_bufsize=78125 / crf_max=0.0 / nal_hrd=none / filler=0 / ip_ratio=1.40 / aq=1:0.60
    Sprache : Japanisch
    Default : Ja
    Forced : Nein
    colour_primaries : BT.709
    transfer_characteristics : BT.709
    matrix_coefficients : BT.709
    
    Audio #1
    ID : 2
    Format : AC-3
    Format/Info : Audio Coding 3
    Format_Settings_ModeExtension : CM (complete main)
    Format-Einstellungen für Endianess : Big
    Codec-ID : A_AC3
    Dauer : 23min
    Bitraten-Modus : konstant
    Bitrate : 448 Kbps
    Kanäle : 2 Kanäle
    Kanal-Positionen : Front: L R
    Samplingrate : 48,0 KHz
    BitDepth/String : 16 bits
    Video Verzögerung : -83ms
    Stream-Größe : 74,4 MiB (11%)
    Titel : AC3 2.0
    Sprache : Deutsch
    Default : Ja
    Forced : Nein
    
    Audio #2
    ID : 3
    Format : AC-3
    Format/Info : Audio Coding 3
    Format_Settings_ModeExtension : CM (complete main)
    Format-Einstellungen für Endianess : Big
    Codec-ID : A_AC3
    Dauer : 23min
    Bitraten-Modus : konstant
    Bitrate : 448 Kbps
    Kanäle : 2 Kanäle
    Kanal-Positionen : Front: L R
    Samplingrate : 48,0 KHz
    BitDepth/String : 16 bits
    Video Verzögerung : -83ms
    Stream-Größe : 74,4 MiB (11%)
    Titel : AC3 2.0
    Sprache : Japanisch
    Default : Nein
    Forced : Nein
    
    Text #1
    ID : 4
    Format : PGS
    Muxing-Modus : zlib
    Codec-ID : S_HDMV/PGS
    Codec-ID/Info : The same subtitle format used on BDs/HD-DVDs
    Titel : FORCED PGS
    Sprache : Deutsch
    Default : Ja
    Forced : Nein
    
    Text #2
    ID : 5
    Format : PGS
    Muxing-Modus : zlib
    Codec-ID : S_HDMV/PGS
    Codec-ID/Info : The same subtitle format used on BDs/HD-DVDs
    Titel : FULL PGS
    Sprache : Deutsch
    Default : Nein
    Forced : Nein


    Mirrors kompatibel

    .:Uploaded.net:.
    Geschützter Bereich - Bedanke dich beim Poster, um den Bereich sehen zu können
    Hier erfährst Du wie Du Dich bedanken kannst oder werde jetzt Premium Mitglied ab einer Spende von 5€ und erhalte sofortigen Zugriff auf den Downloadbereich!

    .:Share-online.biz:.
    Geschützter Bereich - Bedanke dich beim Poster, um den Bereich sehen zu können
    Hier erfährst Du wie Du Dich bedanken kannst oder werde jetzt Premium Mitglied ab einer Spende von 5€ und erhalte sofortigen Zugriff auf den Downloadbereich!


  4. 45 Benutzer sagen Danke:

    3in2te1n (18. November 2015),Angelous (18. September 2015),B4c4rd1 (3. September 2015),Baschti1989 (26. July 2016),bayerle92 (9. September 2015),Benjiro (25. August 2015),BlackIron (16. September 2015),BlackLotus (26. September 2015),Cande (23. August 2015),Darth Affe (23. August 2015),DarthToast (23. August 2015),Der Doctor (24. August 2015),dragonking87 (14. October 2015),E08k (25. August 2015),ElfenLied (27. February 2016),enfii (23. August 2015),Extraneis (20. January 2016),Kaffee333 (26. July 2016),Kiba06 (3. October 2015),killer7977 (25. September 2015),LordBacon1 (7. August 2016),Lowtz (2. November 2015),Lusionem2939 (16. March 2016),midnighter (30. September 2015),Mr.Shit (28. August 2015),Nanashi (20. September 2015),neron86 (25. August 2015),Reaper41992 (17. June 2016),Regi (26. July 2016),Rin58 (29. November 2015),Sandy7580 (26. July 2016),SerienStream (30. August 2015),Sesshoumaru (18. March 2016),Sw33p (21. September 2015),Tarlysin (5. March 2016),tigerhai (10. January 2016),tohotono1987 (26. August 2015),Tzi (24. August 2015),T§sseract (20. July 2016),White_Anubis (26. May 2016),Wides (24. August 2015),WolfsBlade (30. August 2015),Wölfchen (23. August 2015),Xers (2. February 2016),xifaxufu (15. November 2015)

  5. #3
    United we Stand Avatar von 00Ryuji00
    Registriert seit
    Oct 2012
    Beiträge
    3.902
    Punkte
    100.220
    Errungenschaften:
    TomodachisGang LeaderHikikomoriTagger Amateur50000 Erfahrungspunkte

    AW: Hagure Yuusha no Estetica + Special [Ger-Jap-Dub][Ger-Sub][AC3/DTS-HD][720p/1080p][BluRay] - AST4u

    Update: Dateien auf Wunsch wieder online.
    !!!Alle Anliegen bezüglich Uploads werden nur mit direktem Threadlink zum Angebot bearbeitet!!!

    Re-Uploadanfragen nur per PN - Ihr könnt mir auch Listen schicken

    Re-Uploads folgen nach Anfrage meist am Wochenende

    [Links sind nur für registrierte und aktivierte Nutzer sichtbar. Klicke hier um dich zu registrieren.] | [Links sind nur für registrierte und aktivierte Nutzer sichtbar. Klicke hier um dich zu registrieren.] | >[Links sind nur für registrierte und aktivierte Nutzer sichtbar. Klicke hier um dich zu registrieren.]<
    [Links sind nur für registrierte und aktivierte Nutzer sichtbar. Klicke hier um dich zu registrieren.]

Lesezeichen

Berechtigungen

  • Neue Themen erstellen: Nein
  • Themen beantworten: Nein
  • Anhänge hochladen: Nein
  • Beiträge bearbeiten: Nein
  •  

1 2 3 4 5 6 7 8 9 10 11 12 13 14 15 16 17 18 19 20 21 22 23 24 25 26 27 28 29 30 31 32 33 34 35 36 37 38 39 40 41 42 43 44 45 46 47 48 49 50 51 52 53 54 55 56 57 58 59 60 61 62 63 64 65 66 67 68 69 70 71 72 73 74 75 76 77 78 79 80 81 82 83 84 85 86 87 88 89 90 91 92 93 94 95 96 97 98 99 100 101 102 103 104 105 106 107 108 109 110 111 112 113 114 115 116 117 118 119 120 121 122 123 124 125 126 127 128 129 130 131 132 133 134 135 136 137 138 139 140 141 142 143 144 145 146 147 148 149 150 151 152 153 154 155 156 157 158