Ergebnis 1 bis 9 von 9

Thema: Hellsing Ultimate + The Dawn [Re-Cut][Ger-Jap-Eng-Dub][Ger-Eng-Sub][AC3/DTS-HD][720p/1080p][BluRay]-00Ryuji00

Dieser Thread wurde durchschnittlich mit 5 Sternen bewertet, wobei 1 Stern die schlechteste und 5 Sterne die beste Bewertung ist. Es haben insgesamt 2 Mitglieder eine Bewertung abgegeben.

  1. #1
    United we Stand Avatar von 00Ryuji00
    Registriert seit
    Oct 2012
    Beiträge
    3.896
    Punkte
    99.519
    Errungenschaften:
    TomodachisGang LeaderHikikomoriTagger Amateur50000 Erfahrungspunkte

    Hellsing Ultimate + The Dawn [Re-Cut][Ger-Jap-Eng-Dub][Ger-Eng-Sub][AC3/DTS-HD][720p/1080p][BluRay]-00Ryuji00


    Hellsing (2006)
    Hellsing Ultimate
    Hellsing Ultimate OVA
    Hellsing: The Dawn
    Hellsing Ultimate: The Dawn






    Kurzbeschreibung:
    Zitat Zitat von AniSearch.com

    Hellsing Ultimate:

    Die moderne Welt sieht sich einer alten, grauen Welt gegenüber. Vampire, vor allem die Freaks, töten und terrorisieren die Bewohner Englands. Zwei Orden kämpfen gegen sie und gegen sich, der protestantische Ritterorden Hellsing mit ihrem geknechteten Vampir Alucard und der Vatikan mit seinen Regeneratoren. Diesmal aber hat es die Hellsing-Organisation mit einem weitaus härteren Gegner zu tun: Die Organisation Millenium.

    Hellsing Ultimate zeigt Kapitel aus dem Manga, die nicht in der TV-Serie gezeigt wurden. Um den Anfang trotzdem nicht zu verpassen, wurde OVA 1 gezeichnet, die den Anfang mit Seras Victoria und dem Regenerator zeigt. Die OVA wurde ganz im Stile des Mangas gezeichnet.

    The Dawn:

    Hellsing: The Dawn lehnt sich an den gleichnamigen Manga an und erzählt die Vorgeschichte zu Hellsing. Es tobt der Zweite Weltkrieg und die Nationalsozialisten züchten im Untergrund eine Armee von Ghouls heran, die ihnen letztlich doch noch den Sieg bringen sollen. Die Organisation HELLSING nimmt sich der Bedrohung durch die Untoten an und schickt dazu ihren besten Mann: den jungen Walter C. Dornez, genannt "Todesengel".


    Releaseinfo: Bei der Re-Cut-Version wurden Farben, Kontraste,
    CGI-Effekte etc. neu überarbeitet und ist auch Un-Cut.
    Alle 10 Teile wurden von Nipponart lizenziert.
    Nähere Informationen zur Re-Cut-Version findet ihr [Links sind nur für registrierte und aktivierte Nutzer sichtbar. Klicke hier um dich zu registrieren.].


    Spieldauer: 49min
    Genre: Action
    Nebengenres: Action, Fantasy, Horror, Mystery, Übermäßige Gewaltdarstellung
    Jahr: 2006-2012
    Sprache: Deutsch, Englisch, Japanisch
    Untertitel: Deutsch, Englisch
    Größe pro Folge: ~1.56 GiB ~3.43 GiB ~4.70 GiB ~258 MiB ~640 MiB ~979 MiB
    Episodenanzahl: 10/10 + 3/3
    Format: MKV
    Auflösung: 720p (16:9), 1080p (16:9)
    Videocodec: x264 (AVC)
    Audiocodec: AC-3, DTS
    Releasegruppe: 00Ryuji00
    Hoster: Share-Online, Uploaded

    Note: Kein Eng-Dub in The Dawn enthalten


    MediaInfo
    Hellsing Ultimate 720p AC3
    Code:
    
    Format                                   : Matroska
    Format version                           : Version 4 / Version 2
    File size                                : 1.56 GiB
    Duration                                 : 50mn 19s
    Overall bit rate                         : 4 446 Kbps
    Movie name                               : Hellsing Ultimate OVA I [EngGerJapDub][EngGerSub][00Ryuji00][Re-Cut][AC3][720p][Bluray]
    Encoded date                             : UTC 2015-06-23 20:49:08
    Writing application                      : mkvmerge v7.8.0 ('River Man') 64bit built on Mar 27 2015 16:31:37
    Writing library                          : libebml v1.3.1 + libmatroska v1.4.2
    Attachements                             : RotisWTF.ttf / estre.ttf / jesaya free.ttf
    _STATISTICS_WRITING_APP                  : mkvmerge v7.8.0 ('River Man') 64bit built on Mar 27 2015 16:31:37
    _STATISTICS_WRITING_DATE_UTC             : 2015-06-23 20:49:08
    _STATISTICS_TAGS                         : BPS DURATION NUMBER_OF_FRAMES NUMBER_OF_BYTES
    DURATION                                 : 00:50:18.015000000
    NUMBER_OF_FRAMES                         : 72360
    NUMBER_OF_BYTES                          : 1092900184
    
    Video
    ID                                       : 1
    Format                                   : AVC
    Format/Info                              : Advanced Video Codec
    Format profile                           : [email protected]
    Format settings, CABAC                   : Yes
    Format settings, ReFrames                : 12 frames
    Codec ID                                 : V_MPEG4/ISO/AVC
    Duration                                 : 50mn 19s
    Bit rate                                 : 2 821 Kbps
    Width                                    : 1 280 pixels
    Height                                   : 720 pixels
    Display aspect ratio                     : 16:9
    Frame rate mode                          : Constant
    Frame rate                               : 23.976 fps
    Color space                              : YUV
    Chroma subsampling                       : 4:2:0
    Bit depth                                : 8 bits
    Scan type                                : Progressive
    Bits/(Pixel*Frame)                       : 0.128
    Stream size                              : 1 015 MiB (63%)
    Title                                    : 720p 8-Bit by00Ryuji00
    Writing library                          : x264 core 146 r2538 121396c
    Encoding settings                        : cabac=1 / ref=12 / deblock=1:-1:-1 / analyse=0x3:0x133 / me=umh / subme=10 / psy=1 / psy_rd=1.00:0.15 / mixed_ref=1 / me_range=24 / chroma_me=1 / trellis=2 / 8x8dct=1 / cqm=0 / deadzone=21,11 / fast_pskip=1 / chroma_qp_offset=-3 / threads=12 / lookahead_threads=2 / sliced_threads=0 / nr=0 / decimate=1 / interlaced=0 / bluray_compat=0 / constrained_intra=0 / bframes=9 / b_pyramid=2 / b_adapt=2 / b_bias=0 / direct=3 / weightb=1 / open_gop=0 / weightp=2 / keyint=250 / keyint_min=23 / scenecut=40 / intra_refresh=0 / rc_lookahead=60 / rc=crf / mbtree=1 / crf=13.5 / qcomp=0.60 / qpmin=0 / qpmax=69 / qpstep=4 / ip_ratio=1.40 / aq=1:1.00
    Language                                 : German
    Default                                  : Yes
    Forced                                   : No
    
    Audio #1
    ID                                       : 2
    Format                                   : AC-3
    Format/Info                              : Audio Coding 3
    Mode extension                           : CM (complete main)
    Format settings, Endianness              : Big
    Codec ID                                 : A_AC3
    Duration                                 : 50mn 19s
    Bit rate mode                            : Constant
    Bit rate                                 : 448 Kbps
    Channel(s)                               : 6 channels
    Channel positions                        : Front: L C R, Side: L R, LFE
    Sampling rate                            : 48.0 KHz
    Compression mode                         : Lossy
    Stream size                              : 161 MiB (10%)
    Title                                    : AC3 5.1
    Language                                 : German
    Default                                  : Yes
    Forced                                   : No
    
    Audio #2
    ID                                       : 3
    Format                                   : AC-3
    Format/Info                              : Audio Coding 3
    Mode extension                           : CM (complete main)
    Format settings, Endianness              : Big
    Codec ID                                 : A_AC3
    Duration                                 : 50mn 19s
    Bit rate mode                            : Constant
    Bit rate                                 : 448 Kbps
    Channel(s)                               : 6 channels
    Channel positions                        : Front: L C R, Side: L R, LFE
    Sampling rate                            : 48.0 KHz
    Compression mode                         : Lossy
    Stream size                              : 161 MiB (10%)
    Title                                    : AC3 5.1
    Language                                 : Japanese
    Default                                  : No
    Forced                                   : No
    
    Audio #3
    ID                                       : 4
    Format                                   : AC-3
    Format/Info                              : Audio Coding 3
    Mode extension                           : CM (complete main)
    Format settings, Endianness              : Big
    Codec ID                                 : A_AC3
    Duration                                 : 50mn 19s
    Bit rate mode                            : Constant
    Bit rate                                 : 640 Kbps
    Channel(s)                               : 6 channels
    Channel positions                        : Front: L C R, Side: L R, LFE
    Sampling rate                            : 48.0 KHz
    Compression mode                         : Lossy
    Stream size                              : 230 MiB (14%)
    Title                                    : AC3 5.1
    Language                                 : English
    Default                                  : No
    Forced                                   : No
    
    Text #1
    ID                                       : 5
    Format                                   : ASS
    Codec ID                                 : S_TEXT/ASS
    Codec ID/Info                            : Advanced Sub Station Alpha
    Compression mode                         : Lossless
    Title                                    : ASS
    Language                                 : German
    Default                                  : No
    Forced                                   : No
    
    Text #2
    ID                                       : 6
    Format                                   : UTF-8
    Codec ID                                 : S_TEXT/UTF8
    Codec ID/Info                            : UTF-8 Plain Text
    Title                                    : SRT
    Language                                 : German
    Default                                  : No
    Forced                                   : No
    
    Text #3
    ID                                       : 7
    Format                                   : PGS
    Muxing mode                              : zlib
    Codec ID                                 : S_HDMV/PGS
    Codec ID/Info                            : Picture based subtitle format used on BDs/HD-DVDs
    Title                                    : PGS
    Language                                 : German
    Default                                  : No
    Forced                                   : No
    
    Text #4
    ID                                       : 8
    Format                                   : ASS
    Codec ID                                 : S_TEXT/ASS
    Codec ID/Info                            : Advanced Sub Station Alpha
    Compression mode                         : Lossless
    Title                                    : ASS
    Language                                 : English
    Default                                  : No
    Forced                                   : No
    
    Text #5
    ID                                       : 9
    Format                                   : UTF-8
    Codec ID                                 : S_TEXT/UTF8
    Codec ID/Info                            : UTF-8 Plain Text
    Title                                    : SRT
    Language                                 : English
    Default                                  : No
    Forced                                   : No
    
    


    Hellsing Ultimate 1080p AC3
    Code:
    
    Format                                   : Matroska
    Format version                           : Version 4 / Version 2
    File size                                : 3.43 GiB
    Duration                                 : 50mn 19s
    Overall bit rate                         : 9 747 Kbps
    Movie name                               : Hellsing Ultimate OVA I [EngGerJapDub][EngGerSub][00Ryuji00][Re-Cut][AC3][1080p][Bluray]
    Encoded date                             : UTC 2015-06-23 20:42:21
    Writing application                      : mkvmerge v7.8.0 ('River Man') 64bit built on Mar 27 2015 16:31:37
    Writing library                          : libebml v1.3.1 + libmatroska v1.4.2
    Attachements                             : RotisWTF.ttf / estre.ttf / jesaya free.ttf
    _STATISTICS_WRITING_APP                  : mkvmerge v7.8.0 ('River Man') 64bit built on Mar 27 2015 16:31:37
    _STATISTICS_WRITING_DATE_UTC             : 2015-06-23 20:42:21
    _STATISTICS_TAGS                         : BPS DURATION NUMBER_OF_FRAMES NUMBER_OF_BYTES
    DURATION                                 : 00:50:17.952000000
    NUMBER_OF_FRAMES                         : 94311
    NUMBER_OF_BYTES                          : 169005312
    
    Video
    ID                                       : 1
    Format                                   : AVC
    Format/Info                              : Advanced Video Codec
    Format profile                           : [email protected]
    Format settings, CABAC                   : Yes
    Format settings, ReFrames                : 4 frames
    Codec ID                                 : V_MPEG4/ISO/AVC
    Duration                                 : 50mn 19s
    Bit rate                                 : 8 017 Kbps
    Width                                    : 1 920 pixels
    Height                                   : 1 080 pixels
    Display aspect ratio                     : 16:9
    Frame rate mode                          : Constant
    Frame rate                               : 23.976 fps
    Color space                              : YUV
    Chroma subsampling                       : 4:2:0
    Bit depth                                : 8 bits
    Scan type                                : Progressive
    Bits/(Pixel*Frame)                       : 0.161
    Stream size                              : 2.82 GiB (82%)
    Title                                    : 1080p 8-Bit by00Ryuji00
    Writing library                          : x264 core 133 r2334 a3ac64b
    Encoding settings                        : cabac=1 / ref=4 / deblock=1:-1:-1 / analyse=0x3:0x133 / me=umh / subme=10 / psy=1 / psy_rd=1.00:0.15 / mixed_ref=1 / me_range=24 / chroma_me=1 / trellis=2 / 8x8dct=1 / cqm=0 / deadzone=21,11 / fast_pskip=1 / chroma_qp_offset=-3 / threads=12 / lookahead_threads=2 / sliced_threads=0 / nr=0 / decimate=1 / interlaced=0 / bluray_compat=0 / constrained_intra=0 / bframes=8 / b_pyramid=2 / b_adapt=2 / b_bias=0 / direct=3 / weightb=1 / open_gop=0 / weightp=2 / keyint=250 / keyint_min=23 / scenecut=40 / intra_refresh=0 / rc_lookahead=60 / rc=crf / mbtree=1 / crf=13.5 / qcomp=0.60 / qpmin=0 / qpmax=69 / qpstep=4 / ip_ratio=1.40 / aq=1:1.00
    Language                                 : German
    Default                                  : Yes
    Forced                                   : No
    
    Audio #1
    ID                                       : 2
    Format                                   : AC-3
    Format/Info                              : Audio Coding 3
    Mode extension                           : CM (complete main)
    Format settings, Endianness              : Big
    Codec ID                                 : A_AC3
    Duration                                 : 50mn 19s
    Bit rate mode                            : Constant
    Bit rate                                 : 448 Kbps
    Channel(s)                               : 6 channels
    Channel positions                        : Front: L C R, Side: L R, LFE
    Sampling rate                            : 48.0 KHz
    Compression mode                         : Lossy
    Stream size                              : 161 MiB (5%)
    Title                                    : AC3 5.1
    Language                                 : German
    Default                                  : Yes
    Forced                                   : No
    
    Audio #2
    ID                                       : 3
    Format                                   : AC-3
    Format/Info                              : Audio Coding 3
    Mode extension                           : CM (complete main)
    Format settings, Endianness              : Big
    Codec ID                                 : A_AC3
    Duration                                 : 50mn 19s
    Bit rate mode                            : Constant
    Bit rate                                 : 448 Kbps
    Channel(s)                               : 6 channels
    Channel positions                        : Front: L C R, Side: L R, LFE
    Sampling rate                            : 48.0 KHz
    Compression mode                         : Lossy
    Stream size                              : 161 MiB (5%)
    Title                                    : AC3 5.1
    Language                                 : Japanese
    Default                                  : No
    Forced                                   : No
    
    Audio #3
    ID                                       : 4
    Format                                   : AC-3
    Format/Info                              : Audio Coding 3
    Mode extension                           : CM (complete main)
    Format settings, Endianness              : Big
    Codec ID                                 : A_AC3
    Duration                                 : 50mn 19s
    Bit rate mode                            : Constant
    Bit rate                                 : 640 Kbps
    Channel(s)                               : 6 channels
    Channel positions                        : Front: L C R, Side: L R, LFE
    Sampling rate                            : 48.0 KHz
    Compression mode                         : Lossy
    Stream size                              : 230 MiB (7%)
    Title                                    : AC3 5.1
    Language                                 : English
    Default                                  : No
    Forced                                   : No
    
    Text #1
    ID                                       : 5
    Format                                   : ASS
    Codec ID                                 : S_TEXT/ASS
    Codec ID/Info                            : Advanced Sub Station Alpha
    Compression mode                         : Lossless
    Title                                    : ASS
    Language                                 : German
    Default                                  : No
    Forced                                   : No
    
    Text #2
    ID                                       : 6
    Format                                   : UTF-8
    Codec ID                                 : S_TEXT/UTF8
    Codec ID/Info                            : UTF-8 Plain Text
    Title                                    : SRT
    Language                                 : German
    Default                                  : No
    Forced                                   : No
    
    Text #3
    ID                                       : 7
    Format                                   : PGS
    Muxing mode                              : zlib
    Codec ID                                 : S_HDMV/PGS
    Codec ID/Info                            : Picture based subtitle format used on BDs/HD-DVDs
    Title                                    : PGS
    Language                                 : German
    Default                                  : No
    Forced                                   : No
    
    Text #4
    ID                                       : 8
    Format                                   : ASS
    Codec ID                                 : S_TEXT/ASS
    Codec ID/Info                            : Advanced Sub Station Alpha
    Compression mode                         : Lossless
    Title                                    : ASS
    Language                                 : English
    Default                                  : No
    Forced                                   : No
    
    Text #5
    ID                                       : 9
    Format                                   : UTF-8
    Codec ID                                 : S_TEXT/UTF8
    Codec ID/Info                            : UTF-8 Plain Text
    Title                                    : SRT
    Language                                 : English
    Default                                  : No
    Forced                                   : No
    
    


    Hellsing Ultimate 1080p DTS-HD
    Code:
    
    Format                                   : Matroska
    Format version                           : Version 4 / Version 2
    File size                                : 4.70 GiB
    Duration                                 : 50mn 19s
    Overall bit rate mode                    : Variable
    Overall bit rate                         : 13.4 Mbps
    Movie name                               : Hellsing Ultimate OVA I [EngGerJapDub][EngGerSub][00Ryuji00][Re-Cut][DTS-HD][1080p][Bluray]
    Encoded date                             : UTC 2015-03-26 13:22:47
    Writing application                      : mkvmerge v7.5.0 ('Glass Culture') 64bit built on Jan  4 2015 16:48:44
    Writing library                          : libebml v1.3.1 + libmatroska v1.4.2
    Attachements                             : RotisWTF.ttf / estre.ttf / jesaya free.ttf
    _STATISTICS_WRITING_APP                  : mkvmerge v7.5.0 ('Glass Culture') 64bit built on Jan  4 2015 16:48:44
    _STATISTICS_WRITING_DATE_UTC             : 2015-03-26 13:22:47
    _STATISTICS_TAGS                         : BPS DURATION NUMBER_OF_FRAMES NUMBER_OF_BYTES
    DURATION                                 : 00:47:11.790000000
    NUMBER_OF_FRAMES                         : 470
    NUMBER_OF_BYTES                          : 16702
    
    Video
    ID                                       : 1
    Format                                   : AVC
    Format/Info                              : Advanced Video Codec
    Format profile                           : [email protected]
    Format settings, CABAC                   : Yes
    Format settings, ReFrames                : 4 frames
    Codec ID                                 : V_MPEG4/ISO/AVC
    Duration                                 : 50mn 19s
    Width                                    : 1 920 pixels
    Height                                   : 1 080 pixels
    Display aspect ratio                     : 16:9
    Frame rate mode                          : Constant
    Frame rate                               : 23.976 fps
    Color space                              : YUV
    Chroma subsampling                       : 4:2:0
    Bit depth                                : 8 bits
    Scan type                                : Progressive
    Title                                    : 1080p 8-Bit by00Ryuji00
    Writing library                          : x264 core 133 r2334 a3ac64b
    Encoding settings                        : cabac=1 / ref=4 / deblock=1:-1:-1 / analyse=0x3:0x133 / me=umh / subme=10 / psy=1 / psy_rd=1.00:0.15 / mixed_ref=1 / me_range=24 / chroma_me=1 / trellis=2 / 8x8dct=1 / cqm=0 / deadzone=21,11 / fast_pskip=1 / chroma_qp_offset=-3 / threads=12 / lookahead_threads=2 / sliced_threads=0 / nr=0 / decimate=1 / interlaced=0 / bluray_compat=0 / constrained_intra=0 / bframes=8 / b_pyramid=2 / b_adapt=2 / b_bias=0 / direct=3 / weightb=1 / open_gop=0 / weightp=2 / keyint=250 / keyint_min=23 / scenecut=40 / intra_refresh=0 / rc_lookahead=60 / rc=crf / mbtree=1 / crf=13.5 / qcomp=0.60 / qpmin=0 / qpmax=69 / qpstep=4 / ip_ratio=1.40 / aq=1:1.00
    Language                                 : German
    Default                                  : Yes
    Forced                                   : No
    
    Audio #1
    ID                                       : 2
    Format                                   : DTS
    Format/Info                              : Digital Theater Systems
    Format profile                           : MA / Core
    Mode                                     : 16
    Format settings, Endianness              : Big
    Codec ID                                 : A_DTS
    Duration                                 : 50mn 19s
    Bit rate mode                            : Variable
    Bit rate                                 : Unknown / 1 509 Kbps
    Channel(s)                               : 6 channels
    Channel positions                        : Front: L C R, Side: L R, LFE
    Sampling rate                            : 48.0 KHz
    Bit depth                                : 24 bits
    Compression mode                         : Lossless / Lossy
    Title                                    : DTS-HD 5.1
    Language                                 : German
    Default                                  : Yes
    Forced                                   : No
    
    Audio #2
    ID                                       : 3
    Format                                   : DTS
    Format/Info                              : Digital Theater Systems
    Format profile                           : MA / Core
    Mode                                     : 16
    Format settings, Endianness              : Big
    Codec ID                                 : A_DTS
    Duration                                 : 50mn 19s
    Bit rate mode                            : Variable
    Bit rate                                 : Unknown / 1 509 Kbps
    Channel(s)                               : 6 channels
    Channel positions                        : Front: L C R, Side: L R, LFE
    Sampling rate                            : 48.0 KHz
    Bit depth                                : 24 bits
    Compression mode                         : Lossless / Lossy
    Title                                    : DTS-HD 5.1
    Language                                 : Japanese
    Default                                  : No
    Forced                                   : No
    
    Audio #3
    ID                                       : 4
    Format                                   : AC-3
    Format/Info                              : Audio Coding 3
    Mode extension                           : CM (complete main)
    Format settings, Endianness              : Big
    Codec ID                                 : A_AC3
    Duration                                 : 50mn 19s
    Bit rate mode                            : Constant
    Bit rate                                 : 640 Kbps
    Channel(s)                               : 6 channels
    Channel positions                        : Front: L C R, Side: L R, LFE
    Sampling rate                            : 48.0 KHz
    Compression mode                         : Lossy
    Stream size                              : 230 MiB (5%)
    Title                                    : AC3 5.1
    Language                                 : English
    Default                                  : No
    Forced                                   : No
    
    Text #1
    ID                                       : 5
    Format                                   : ASS
    Codec ID                                 : S_TEXT/ASS
    Codec ID/Info                            : Advanced Sub Station Alpha
    Compression mode                         : Lossless
    Title                                    : ASS
    Language                                 : German
    Default                                  : No
    Forced                                   : No
    
    Text #2
    ID                                       : 6
    Format                                   : UTF-8
    Codec ID                                 : S_TEXT/UTF8
    Codec ID/Info                            : UTF-8 Plain Text
    Title                                    : SRT
    Language                                 : German
    Default                                  : No
    Forced                                   : No
    
    Text #3
    ID                                       : 7
    Format                                   : PGS
    Muxing mode                              : zlib
    Codec ID                                 : S_HDMV/PGS
    Codec ID/Info                            : Picture based subtitle format used on BDs/HD-DVDs
    Title                                    : PGS
    Language                                 : German
    Default                                  : No
    Forced                                   : No
    
    Text #4
    ID                                       : 8
    Format                                   : ASS
    Codec ID                                 : S_TEXT/ASS
    Codec ID/Info                            : Advanced Sub Station Alpha
    Compression mode                         : Lossless
    Title                                    : ASS
    Language                                 : English
    Default                                  : No
    Forced                                   : No
    
    Text #5
    ID                                       : 9
    Format                                   : UTF-8
    Codec ID                                 : S_TEXT/UTF8
    Codec ID/Info                            : UTF-8 Plain Text
    Title                                    : SRT
    Language                                 : English
    Default                                  : No
    Forced                                   : No
    
    


    The Dawn 720p AC3
    Code:
    
    Format                                   : Matroska
    Format version                           : Version 4 / Version 2
    File size                                : 258 MiB
    Duration                                 : 9mn 6s
    Overall bit rate                         : 3 962 Kbps
    Movie name                               :  Hellsing Ultimate OVA - The Dawn I [GerJapDub][EngGerSub][00Ryuji00][Re-Cut][AC3][720p][Bluray]
    Encoded date                             : UTC 2016-02-03 17:21:18
    Writing application                      : mkvmerge v7.8.0 ('River Man') 64bit built on Mar 27 2015 16:31:37
    Writing library                          : libebml v1.3.1 + libmatroska v1.4.2
    Attachements                             : ARCENA.ttf / Brianne_s_hand_1.ttf / DFMrg7.ttc / dokchamp.ttf / RotisWTF.ttf
    DURATION                                 : 00:09:06.505000000
    NUMBER_OF_FRAMES                         : 13103
    NUMBER_OF_BYTES                          : 204019267
    _STATISTICS_WRITING_APP                  : mkvmerge v7.8.0 ('River Man') 64bit built on Mar 27 2015 16:31:37
    _STATISTICS_WRITING_DATE_UTC             : 2016-02-03 17:21:18
    _STATISTICS_TAGS                         : BPS DURATION NUMBER_OF_FRAMES NUMBER_OF_BYTES
    
    Video
    ID                                       : 1
    Format                                   : AVC
    Format/Info                              : Advanced Video Codec
    Format profile                           : [email protected]
    Format settings, CABAC                   : Yes
    Format settings, ReFrames                : 12 frames
    Codec ID                                 : V_MPEG4/ISO/AVC
    Duration                                 : 9mn 6s
    Bit rate                                 : 2 987 Kbps
    Width                                    : 1 280 pixels
    Height                                   : 720 pixels
    Display aspect ratio                     : 16:9
    Frame rate mode                          : Constant
    Frame rate                               : 23.976 fps
    Color space                              : YUV
    Chroma subsampling                       : 4:2:0
    Bit depth                                : 8 bits
    Scan type                                : Progressive
    Bits/(Pixel*Frame)                       : 0.135
    Stream size                              : 195 MiB (75%)
    Title                                    : 720p 8-Bit by00Ryuji00
    Writing library                          : x264 core 146 r2538 121396c
    Encoding settings                        : cabac=1 / ref=12 / deblock=1:0:0 / analyse=0x3:0x133 / me=umh / subme=10 / psy=1 / psy_rd=1.00:0.00 / mixed_ref=1 / me_range=24 / chroma_me=1 / trellis=2 / 8x8dct=1 / cqm=0 / deadzone=21,11 / fast_pskip=1 / chroma_qp_offset=-2 / threads=12 / lookahead_threads=2 / sliced_threads=0 / nr=0 / decimate=1 / interlaced=0 / bluray_compat=0 / constrained_intra=0 / bframes=9 / b_pyramid=2 / b_adapt=2 / b_bias=0 / direct=3 / weightb=1 / open_gop=0 / weightp=2 / keyint=250 / keyint_min=23 / scenecut=40 / intra_refresh=0 / rc_lookahead=60 / rc=crf / mbtree=1 / crf=13.5 / qcomp=0.60 / qpmin=0 / qpmax=69 / qpstep=4 / ip_ratio=1.40 / aq=1:1.00
    Language                                 : German
    Default                                  : Yes
    Forced                                   : No
    
    Audio #1
    ID                                       : 2
    Format                                   : AC-3
    Format/Info                              : Audio Coding 3
    Mode extension                           : CM (complete main)
    Format settings, Endianness              : Big
    Codec ID                                 : A_AC3
    Duration                                 : 9mn 6s
    Bit rate mode                            : Constant
    Bit rate                                 : 448 Kbps
    Channel(s)                               : 6 channels
    Channel positions                        : Front: L C R, Side: L R, LFE
    Sampling rate                            : 48.0 KHz
    Compression mode                         : Lossy
    Stream size                              : 29.2 MiB (11%)
    Title                                    : AC3 5.1
    Language                                 : German
    Default                                  : Yes
    Forced                                   : No
    
    Audio #2
    ID                                       : 3
    Format                                   : AC-3
    Format/Info                              : Audio Coding 3
    Mode extension                           : CM (complete main)
    Format settings, Endianness              : Big
    Codec ID                                 : A_AC3
    Duration                                 : 9mn 6s
    Bit rate mode                            : Constant
    Bit rate                                 : 448 Kbps
    Channel(s)                               : 2 channels
    Channel positions                        : Front: L R
    Sampling rate                            : 48.0 KHz
    Compression mode                         : Lossy
    Stream size                              : 29.2 MiB (11%)
    Title                                    : AC3 2.0
    Language                                 : Japanese
    Default                                  : No
    Forced                                   : No
    
    Text #1
    ID                                       : 4
    Format                                   : ASS
    Codec ID                                 : S_TEXT/ASS
    Codec ID/Info                            : Advanced Sub Station Alpha
    Compression mode                         : Lossless
    Title                                    : FULL ASS
    Language                                 : German
    Default                                  : No
    Forced                                   : No
    
    Text #2
    ID                                       : 5
    Format                                   : UTF-8
    Codec ID                                 : S_TEXT/UTF8
    Codec ID/Info                            : UTF-8 Plain Text
    Title                                    : FULL SRT
    Language                                 : German
    Default                                  : No
    Forced                                   : No
    
    Text #3
    ID                                       : 6
    Format                                   : PGS
    Muxing mode                              : zlib
    Codec ID                                 : S_HDMV/PGS
    Codec ID/Info                            : Picture based subtitle format used on BDs/HD-DVDs
    Title                                    : FULL PGS
    Language                                 : German
    Default                                  : No
    Forced                                   : No
    
    Text #4
    ID                                       : 7
    Format                                   : ASS
    Codec ID                                 : S_TEXT/ASS
    Codec ID/Info                            : Advanced Sub Station Alpha
    Compression mode                         : Lossless
    Title                                    : FULL ASS
    Language                                 : English
    Default                                  : No
    Forced                                   : No
    
    Text #5
    ID                                       : 8
    Format                                   : UTF-8
    Codec ID                                 : S_TEXT/UTF8
    Codec ID/Info                            : UTF-8 Plain Text
    Title                                    : FULL SRT
    Language                                 : English
    Default                                  : No
    Forced                                   : No
    
    


    The Dawn 1080p AC3
    Code:
    
    Format                                   : Matroska
    Format version                           : Version 4 / Version 2
    File size                                : 640 MiB
    Duration                                 : 9mn 6s
    Overall bit rate                         : 9 817 Kbps
    Movie name                               :  Hellsing Ultimate OVA - The Dawn I [GerJapDub][EngGerSub][00Ryuji00][Re-Cut][AC3][1080p][Bluray]
    Encoded date                             : UTC 2016-02-03 17:17:07
    Writing application                      : mkvmerge v7.8.0 ('River Man') 64bit built on Mar 27 2015 16:31:37
    Writing library                          : libebml v1.3.1 + libmatroska v1.4.2
    Attachements                             : ARCENA.ttf / Brianne_s_hand_1.ttf / DFMrg7.ttc / dokchamp.ttf / RotisWTF.ttf
    DURATION                                 : 00:09:06.528000000
    NUMBER_OF_FRAMES                         : 17079
    NUMBER_OF_BYTES                          : 30605568
    _STATISTICS_WRITING_APP                  : mkvmerge v7.8.0 ('River Man') 64bit built on Mar 27 2015 16:31:37
    _STATISTICS_WRITING_DATE_UTC             : 2016-02-03 17:17:07
    _STATISTICS_TAGS                         : BPS DURATION NUMBER_OF_FRAMES NUMBER_OF_BYTES
    
    Video
    ID                                       : 1
    Format                                   : AVC
    Format/Info                              : Advanced Video Codec
    Format profile                           : [email protected]
    Format settings, CABAC                   : Yes
    Format settings, ReFrames                : 4 frames
    Codec ID                                 : V_MPEG4/ISO/AVC
    Duration                                 : 9mn 6s
    Bit rate                                 : 8 726 Kbps
    Width                                    : 1 920 pixels
    Height                                   : 1 080 pixels
    Display aspect ratio                     : 16:9
    Frame rate mode                          : Constant
    Frame rate                               : 23.976 fps
    Color space                              : YUV
    Chroma subsampling                       : 4:2:0
    Bit depth                                : 8 bits
    Scan type                                : Progressive
    Bits/(Pixel*Frame)                       : 0.176
    Stream size                              : 569 MiB (89%)
    Title                                    : 1080p 8-Bit by00Ryuji00
    Writing library                          : x264 core 146 r2538 121396c
    Encoding settings                        : cabac=1 / ref=4 / deblock=1:0:0 / analyse=0x3:0x133 / me=umh / subme=10 / psy=1 / psy_rd=1.00:0.00 / mixed_ref=1 / me_range=24 / chroma_me=1 / trellis=2 / 8x8dct=1 / cqm=0 / deadzone=21,11 / fast_pskip=1 / chroma_qp_offset=-2 / threads=12 / lookahead_threads=2 / sliced_threads=0 / nr=0 / decimate=1 / interlaced=0 / bluray_compat=0 / constrained_intra=0 / bframes=8 / b_pyramid=2 / b_adapt=2 / b_bias=0 / direct=3 / weightb=1 / open_gop=0 / weightp=2 / keyint=250 / keyint_min=23 / scenecut=40 / intra_refresh=0 / rc_lookahead=60 / rc=crf / mbtree=1 / crf=13.5 / qcomp=0.60 / qpmin=0 / qpmax=69 / qpstep=4 / ip_ratio=1.40 / aq=1:1.00
    Language                                 : German
    Default                                  : Yes
    Forced                                   : No
    
    Audio #1
    ID                                       : 2
    Format                                   : AC-3
    Format/Info                              : Audio Coding 3
    Mode extension                           : CM (complete main)
    Format settings, Endianness              : Big
    Codec ID                                 : A_AC3
    Duration                                 : 9mn 6s
    Bit rate mode                            : Constant
    Bit rate                                 : 448 Kbps
    Channel(s)                               : 6 channels
    Channel positions                        : Front: L C R, Side: L R, LFE
    Sampling rate                            : 48.0 KHz
    Compression mode                         : Lossy
    Stream size                              : 29.2 MiB (5%)
    Title                                    : AC3 5.1
    Language                                 : German
    Default                                  : Yes
    Forced                                   : No
    
    Audio #2
    ID                                       : 3
    Format                                   : AC-3
    Format/Info                              : Audio Coding 3
    Mode extension                           : CM (complete main)
    Format settings, Endianness              : Big
    Codec ID                                 : A_AC3
    Duration                                 : 9mn 6s
    Bit rate mode                            : Constant
    Bit rate                                 : 448 Kbps
    Channel(s)                               : 2 channels
    Channel positions                        : Front: L R
    Sampling rate                            : 48.0 KHz
    Compression mode                         : Lossy
    Stream size                              : 29.2 MiB (5%)
    Title                                    : AC3 2.0
    Language                                 : Japanese
    Default                                  : No
    Forced                                   : No
    
    Text #1
    ID                                       : 4
    Format                                   : ASS
    Codec ID                                 : S_TEXT/ASS
    Codec ID/Info                            : Advanced Sub Station Alpha
    Compression mode                         : Lossless
    Title                                    : FULL ASS
    Language                                 : German
    Default                                  : No
    Forced                                   : No
    
    Text #2
    ID                                       : 5
    Format                                   : UTF-8
    Codec ID                                 : S_TEXT/UTF8
    Codec ID/Info                            : UTF-8 Plain Text
    Title                                    : FULL SRT
    Language                                 : German
    Default                                  : No
    Forced                                   : No
    
    Text #3
    ID                                       : 6
    Format                                   : PGS
    Muxing mode                              : zlib
    Codec ID                                 : S_HDMV/PGS
    Codec ID/Info                            : Picture based subtitle format used on BDs/HD-DVDs
    Title                                    : FULL PGS
    Language                                 : German
    Default                                  : No
    Forced                                   : No
    
    Text #4
    ID                                       : 7
    Format                                   : ASS
    Codec ID                                 : S_TEXT/ASS
    Codec ID/Info                            : Advanced Sub Station Alpha
    Compression mode                         : Lossless
    Title                                    : FULL ASS
    Language                                 : English
    Default                                  : No
    Forced                                   : No
    
    Text #5
    ID                                       : 8
    Format                                   : UTF-8
    Codec ID                                 : S_TEXT/UTF8
    Codec ID/Info                            : UTF-8 Plain Text
    Title                                    : FULL SRT
    Language                                 : English
    Default                                  : No
    Forced                                   : No
    
    


    The Dawn 1080p DTS-HD
    Code:
    
    Format                                   : Matroska
    Format version                           : Version 4 / Version 2
    File size                                : 979 MiB
    Duration                                 : 9mn 6s
    Overall bit rate mode                    : Variable
    Overall bit rate                         : 15.0 Mbps
    Movie name                               :  Hellsing Ultimate OVA - The Dawn I [GerJapDub][EngGerSub][00Ryuji00][Re-Cut][DTS-HD][1080p][Bluray]
    Encoded date                             : UTC 2016-02-03 17:06:05
    Writing application                      : mkvmerge v7.8.0 ('River Man') 64bit built on Mar 27 2015 16:31:37
    Writing library                          : libebml v1.3.1 + libmatroska v1.4.2
    Attachements                             : ARCENA.ttf / Brianne_s_hand_1.ttf / DFMrg7.ttc / dokchamp.ttf / RotisWTF.ttf
    DURATION                                 : 00:08:30.770000000
    NUMBER_OF_FRAMES                         : 146
    NUMBER_OF_BYTES                          : 4603
    _STATISTICS_WRITING_APP                  : mkvmerge v7.8.0 ('River Man') 64bit built on Mar 27 2015 16:31:37
    _STATISTICS_WRITING_DATE_UTC             : 2016-02-03 17:06:05
    _STATISTICS_TAGS                         : BPS DURATION NUMBER_OF_FRAMES NUMBER_OF_BYTES
    
    Video
    ID                                       : 1
    Format                                   : AVC
    Format/Info                              : Advanced Video Codec
    Format profile                           : [email protected]
    Format settings, CABAC                   : Yes
    Format settings, ReFrames                : 4 frames
    Codec ID                                 : V_MPEG4/ISO/AVC
    Duration                                 : 9mn 6s
    Width                                    : 1 920 pixels
    Height                                   : 1 080 pixels
    Display aspect ratio                     : 16:9
    Frame rate mode                          : Constant
    Frame rate                               : 23.976 fps
    Color space                              : YUV
    Chroma subsampling                       : 4:2:0
    Bit depth                                : 8 bits
    Scan type                                : Progressive
    Title                                    : 1080p 8-Bit by00Ryuji00
    Writing library                          : x264 core 146 r2538 121396c
    Encoding settings                        : cabac=1 / ref=4 / deblock=1:0:0 / analyse=0x3:0x133 / me=umh / subme=10 / psy=1 / psy_rd=1.00:0.00 / mixed_ref=1 / me_range=24 / chroma_me=1 / trellis=2 / 8x8dct=1 / cqm=0 / deadzone=21,11 / fast_pskip=1 / chroma_qp_offset=-2 / threads=12 / lookahead_threads=2 / sliced_threads=0 / nr=0 / decimate=1 / interlaced=0 / bluray_compat=0 / constrained_intra=0 / bframes=8 / b_pyramid=2 / b_adapt=2 / b_bias=0 / direct=3 / weightb=1 / open_gop=0 / weightp=2 / keyint=250 / keyint_min=23 / scenecut=40 / intra_refresh=0 / rc_lookahead=60 / rc=crf / mbtree=1 / crf=13.5 / qcomp=0.60 / qpmin=0 / qpmax=69 / qpstep=4 / ip_ratio=1.40 / aq=1:1.00
    Language                                 : German
    Default                                  : Yes
    Forced                                   : No
    
    Audio #1
    ID                                       : 2
    Format                                   : DTS
    Format/Info                              : Digital Theater Systems
    Format profile                           : MA / Core
    Mode                                     : 16
    Format settings, Endianness              : Big
    Codec ID                                 : A_DTS
    Duration                                 : 9mn 6s
    Bit rate mode                            : Variable
    Bit rate                                 : Unknown / 1 509 Kbps
    Channel(s)                               : 6 channels
    Channel positions                        : Front: L C R, Side: L R, LFE
    Sampling rate                            : 48.0 KHz
    Bit depth                                : 24 bits
    Compression mode                         : Lossless / Lossy
    Title                                    : DTS-HD 5.1
    Language                                 : German
    Default                                  : Yes
    Forced                                   : No
    
    Audio #2
    ID                                       : 3
    Format                                   : DTS
    Format/Info                              : Digital Theater Systems
    Format profile                           : MA / Core
    Mode                                     : 16
    Format settings, Endianness              : Big
    Codec ID                                 : A_DTS
    Duration                                 : 9mn 6s
    Bit rate mode                            : Variable
    Bit rate                                 : Unknown / 1 509 Kbps
    Channel(s)                               : 2 channels
    Channel positions                        : Front: L R
    Sampling rate                            : 48.0 KHz
    Bit depth                                : 24 bits
    Compression mode                         : Lossless / Lossy
    Title                                    : DTS-HD 2.0
    Language                                 : Japanese
    Default                                  : No
    Forced                                   : No
    
    Text #1
    ID                                       : 4
    Format                                   : ASS
    Codec ID                                 : S_TEXT/ASS
    Codec ID/Info                            : Advanced Sub Station Alpha
    Compression mode                         : Lossless
    Title                                    : FULL ASS
    Language                                 : German
    Default                                  : No
    Forced                                   : No
    
    Text #2
    ID                                       : 5
    Format                                   : UTF-8
    Codec ID                                 : S_TEXT/UTF8
    Codec ID/Info                            : UTF-8 Plain Text
    Title                                    : FULL SRT
    Language                                 : German
    Default                                  : No
    Forced                                   : No
    
    Text #3
    ID                                       : 6
    Format                                   : PGS
    Muxing mode                              : zlib
    Codec ID                                 : S_HDMV/PGS
    Codec ID/Info                            : Picture based subtitle format used on BDs/HD-DVDs
    Title                                    : FULL PGS
    Language                                 : German
    Default                                  : No
    Forced                                   : No
    
    Text #4
    ID                                       : 7
    Format                                   : ASS
    Codec ID                                 : S_TEXT/ASS
    Codec ID/Info                            : Advanced Sub Station Alpha
    Compression mode                         : Lossless
    Title                                    : FULL ASS
    Language                                 : English
    Default                                  : No
    Forced                                   : No
    
    Text #5
    ID                                       : 8
    Format                                   : UTF-8
    Codec ID                                 : S_TEXT/UTF8
    Codec ID/Info                            : UTF-8 Plain Text
    Title                                    : FULL SRT
    Language                                 : English
    Default                                  : No
    Forced                                   : No
    
    






    Geschützter Bereich - Bedanke dich beim Poster, um den Bereich sehen zu können
    Hier erfährst Du wie Du Dich bedanken kannst oder werde jetzt Premium Mitglied ab einer Spende von 5€ und erhalte sofortigen Zugriff auf den Downloadbereich!

    [Links sind nur für registrierte und aktivierte Nutzer sichtbar. Klicke hier um dich zu registrieren.]
    Geändert von 00Ryuji00 (26. March 2015 um 07:18 Uhr)
    !!!Alle Anliegen bezüglich Uploads werden nur mit direktem Threadlink zum Angebot bearbeitet!!!

    Re-Uploadanfragen nur per PN - Ihr könnt mir auch Listen schicken

    Re-Uploads erfolgen meist innerhalb 24h, kann aber auch bis zu 7 Tage dauern

    [Links sind nur für registrierte und aktivierte Nutzer sichtbar. Klicke hier um dich zu registrieren.] | [Links sind nur für registrierte und aktivierte Nutzer sichtbar. Klicke hier um dich zu registrieren.] | >[Links sind nur für registrierte und aktivierte Nutzer sichtbar. Klicke hier um dich zu registrieren.]<
    [Links sind nur für registrierte und aktivierte Nutzer sichtbar. Klicke hier um dich zu registrieren.]

  2. 355 Benutzer sagen Danke:

    Anzeigen

    1Ranger (21. November 2015),2jide (15. May 2015),Ace360 (31. January 2016),Aikesh (13. October 2015),Akatsuki (27. June 2015),Akio (18. December 2015),alecander (29. January 2015),Alecith (20. December 2015),alexrr7 (2. November 2016),Aluaran (21. September 2015),AlucardGER (16. December 2015),anakinxXx (6. October 2015),Androkai (16. May 2015),andyb90 (11. February 2016),anime_lover (24. December 2015),anno_nami (29. October 2015),Anon (3. December 2015),ansyeiraso (27. February 2015),Anuy (9. July 2016),ApCeLlonDinG (25. December 2015),aquarius (22. March 2015),Ardock (25. February 2016),arginator (13. February 2016),Argl (20. July 2015),atha87 (18. September 2016),Axel87 (28. March 2015),Ayaka (16. November 2015),azzrah0815 (14. November 2015),Baumstumpf93 (22. March 2015),bayerle92 (19. April 2015),Bazinga97 (22. November 2015),Behind you! (4. February 2016),Benjiro (4. July 2015),BlackWidow (28. January 2016),bleach-master (19. December 2015),blitzman1977 (24. December 2015),Bloodyair (17. February 2016),Bloodymight (25. April 2016),blumentob (25. August 2016),brunsdumm (18. December 2015),Bunyos (11. December 2015),C3M-O- (15. February 2016),Camper23 (20. September 2015),caruz (24. March 2015),ChobitsRave (14. December 2015),chopper23 (20. September 2015),chr1570ph3r (3. December 2015),ChristianLake (27. January 2015),CKSI (4. October 2015),Clankinator (28. September 2016),Coji (21. September 2015),Conmar (11. March 2016),Conopas (18. April 2015),Countermonk (6. February 2016),CrmnlBT (10. February 2016),Cronix (18. October 2015),Crucher92 (14. February 2016),CrystalBT (14. December 2015),Cy_Baer (19. December 2015),dadoc91 (5. December 2015),Daichi85 (3. July 2015),Damasta (12. January 2016),damn10 (11. November 2015),DanDan (26. June 2015),darkangel92 (30. April 2016),darkzed (29. December 2015),DarthToast (20. September 2015),data_ghoul (1. July 2015),Demon (25. August 2015),deofration (17. October 2015),Der Doctor (11. February 2015),derEisige (2. June 2016),despotar (3. November 2015),Dester007 (27. June 2015),Dexter121 (26. March 2015),diablofan2 (22. March 2015),dionys (19. April 2015),disney (23. January 2016),Donquixote (9. May 2015),Draagul (7. February 2016),dreambird1973 (19. December 2015),Dreieckhard (28. January 2015),dRmEDzGER (20. July 2015),edz0r (5. February 2015),egon1212 (8. August 2015),El Senna (6. April 2015),El_Locco (30. September 2015),Enirito (11. May 2015),Er4s3r (21. December 2015),etter (13. April 2015),Expert2506 (25. January 2016),fak0r (23. November 2015),farmerjoe (27. January 2015),Feindsender (11. May 2015),Filbo11 (15. April 2015),FireFlame (29. June 2015),Firefly (3. May 2015),FIRST--LAW--FANTASY (19. November 2015),Fishbowl (11. July 2015),FlagSFX (20. December 2015),Flaid (2. April 2015),flaw1337 (26. September 2015),Flint (27. January 2015),Flyer (26. June 2015),folgar (1. February 2015),Fox Faram (21. September 2015),frankra (30. January 2016),FrankyxD (14. August 2015),fratzeyo (28. July 2016),funkythong (23. February 2015),Gamerforce360 (8. February 2015),garcia (16. May 2015),gbergmann (29. January 2015),GhostHunterD_inactive (15. March 2015),Ghostraven (20. September 2015),glasklar (17. March 2015),Goki.Grokus (5. February 2015),Gott Enel (22. August 2016),Grimmjow (20. July 2015),Grinchi (1. January 2016),Grodenidor (12. October 2015),Gromm (31. January 2016),GutiHaz_14 (30. September 2015),Haatho7 (31. January 2015),Habimon (28. September 2015),Haftiabi Tefflondon (5. June 2016),haltdiefresse (27. June 2015),haniko_inactive (5. February 2015),Haxz0r (18. June 2015),herrwefer (10. January 2016),HerzogZepar (10. February 2015),Hirs_E_Fruit (21. September 2015),Hixx (6. April 2015),Hobbitgraf (2. April 2016),Holzmodem (23. February 2016),HorstEvers (21. June 2015),hunter4320 (7. February 2016),hyper (22. March 2015),InFaerno (8. January 2016),InSaNe.CodeZ (8. May 2015),inzane_inactive (1. April 2015),ippo (6. February 2016),J0key (21. April 2015),JackyMono (19. February 2016),Jaggx_inactive (31. January 2015),Jamaz (14. February 2015),jetjojo (30. December 2015),Johanno (27. March 2016),JoleenLovesMina (18. November 2015),Jukka (30. October 2015),k-r-u-l-l (27. May 2016),Kaan- (22. April 2016),kaiste (8. April 2016),kaitokid187 (13. April 2016),Kaktusmensch (31. July 2015),Kaldo (24. September 2015),KaneTheMagic (14. November 2015),Kaori (15. April 2015),Keiler (4. August 2016),keko335 (14. February 2016),keku (26. June 2015),killer7977 (9. January 2016),kinghol (18. April 2015),Kippei (12. March 2016),Kira7 (27. December 2015),Kirak (22. March 2015),Kirdock (17. January 2016),KiritoMazayo (25. April 2015),Knuddelbearli (27. February 2015),KnutHunter (10. February 2016),koax (14. June 2015),koax123 (26. February 2015),krasserGaul (26. December 2015),krokojo (22. December 2015),Kupan (5. January 2016),KyojinZeo (21. October 2015),Kyuubi90 (18. December 2015),Lautrerbomber (4. May 2016),LawrenceKraft (23. December 2015),Leetroll (29. June 2015),Llyrell (24. March 2015),LOGAN13 (13. August 2015),LorenorZorro (25. October 2015),lucky_mer (19. December 2015),LukeNative (30. June 2015),Lusionem2939 (19. January 2016),lutiju (10. September 2015),macis2013 (20. December 2015),mad.dog84 (15. April 2015),madmax916sps (26. April 2015),manninator (18. December 2015),ManunaM (16. May 2015),marcoj90 (13. May 2015),markusdamon5 (22. September 2016),Maskulin (13. July 2016),masta.ace (20. September 2015),MaTRiiX (26. December 2015),McBass212 (19. February 2015),mcfronta_inactive (2. May 2015),MCRFG (22. September 2015),Megamani (24. November 2016),Mehrz (7. May 2016),Memati53 (18. August 2015),Metaller777 (11. May 2015),midnighter (28. January 2015),Mightyberg (14. October 2016),minimalistix (27. January 2015),Mirouke_inactive (28. June 2015),misterdsl (19. August 2015),Mitchell (4. April 2015),mOlDaViA (28. January 2016),Monkey (9. June 2016),Monkey_D._Luffy (4. January 2016),Mr.Shit (24. March 2015),MrSuicideSheeep (10. July 2015),n3l0S (22. January 2016),nabou (14. April 2015),nbody (5. February 2016),NeefBenriya (15. September 2016),nemo (22. February 2015),Nexas (3. April 2015),Nezumiko (23. October 2015),nicole832 (27. June 2016),Nifelheim (14. March 2015),Nijazi2000 (29. March 2016),nixdaok (30. September 2015),norby (28. January 2015),nuggl (20. December 2015),Nuk-Schnuk_inactive (17. July 2015),Nyan (19. December 2015),Nyarlathothep (21. September 2015),Nzxt0815 (17. March 2015),o0PKey0o (6. April 2015),Oddy94 (7. January 2016),Okarin (10. July 2015),omega (5. October 2015),onepiecefreak (1. September 2015),ottang (1. October 2015),Petie (24. September 2016),pflaffy (13. February 2015),pimpanse (10. May 2015),Pitou (1. May 2016),Porco (8. February 2016),Postal-Dude (21. April 2016),pp95 (3. August 2015),pressure (2. April 2015),punk95 (28. February 2015),Raychan (8. April 2015),re.tischi (2. February 2016),rekiznuh1 (31. January 2016),Rekke (28. January 2015),Renxir (4. March 2015),Repcak (7. April 2016),riku14466 (17. March 2016),RIMey (2. December 2016),Rin58 (29. November 2015),risobp (9. February 2016),rMio_inactive (25. March 2015),rudizone (31. March 2016),RuFFy19 (7. October 2016),Ryota (8. August 2015),sackjunge (27. March 2016),Saiga (6. October 2015),Sairenji (28. February 2015),Sam Diamond (4. February 2015),Samiki (20. December 2015),sanjiblubb (30. September 2015),SantaKlaus (5. February 2016),schmolz (14. May 2015),Scorns (20. January 2016),Scrappedmaster (12. January 2016),Scruffy (27. January 2016),Seishin (10. May 2015),Sephi66 (20. February 2015),shadow2442 (13. November 2015),Shadow7525 (2. January 2016),Shikur0 (24. April 2015),Shinigami1337 (18. October 2015),Shinosenshi (14. September 2015),Shinu Luna (14. December 2015),Shir0ku (25. July 2015),Shirayah (9. February 2016),shokinn (10. January 2016),shorteh (12. April 2015),Shugyosha (21. February 2015),Shut-_-Up (1. February 2015),Silversurfer1402 (10. October 2015),Sinmson (25. March 2015),Skully_88 (17. September 2015),smaik (6. March 2016),Smasher25 (2. April 2015),Smiths (27. May 2016),SmokingTea (21. December 2015),Snake_at_web (11. February 2015),Sonicslash (15. November 2015),SONNYxq (20. April 2015),Speedy1887 (21. January 2016),Speznat (12. October 2015),spielmacher9 (21. December 2015),Spittfaia (25. April 2015),sponkyplayer (10. September 2015),sportfreak tim (1. August 2015),Spotix (12. May 2015),srobee (20. September 2016),Subroutine (10. May 2015),sudeku (4. February 2016),sunnlo (19. February 2016),Sway (27. March 2015),Sylux (28. January 2016),syncity (21. May 2016),SystemS (10. August 2016),syth (23. March 2016),Talerius (2. September 2016),Tana-kun (3. December 2015),Tarlysin (28. January 2015),TastyCrysis (11. January 2016),ter_Kapitalist (26. September 2015),thanathan85 (14. January 2016),TheOne0815 (1. August 2016),TheTestzilla (19. December 2015),Tibscha (30. April 2015),tikay (21. September 2015),TorbenSonnenStern (19. October 2016),torusso12 (16. February 2015),toscha (30. April 2015),TrUnkO (13. June 2015),Tschu23 (16. March 2015),Tsu (6. November 2015),turyal (28. November 2015),Tzi (6. February 2016),tzuio (13. July 2015),ultrasn0w (30. September 2015),V1rU5 (9. August 2016),VatosLocos (31. August 2015),vegito1990 (23. September 2015),Victor2901 (2. April 2015),vista.ag (15. March 2016),Volki002 (12. September 2015),wasweisich (7. January 2016),Watashisan (31. March 2015),Windwusel (3. April 2015),winni2000 (5. October 2015),Wolfcore (3. March 2015),WolfsBlade (28. August 2015),Wölfchen (23. February 2015),xdricixd (3. February 2016),xelli_inactive (2. May 2015),XenoX (30. March 2016),Xers (2. January 2016),xSpitfire93x (2. January 2016),zamza21 (15. February 2015),Zarroc1 (14. May 2016),zockerboy (23. April 2015),zockerfreund (17. July 2016)

  3. #2
    United we Stand Avatar von 00Ryuji00
    Registriert seit
    Oct 2012
    Beiträge
    3.896
    Punkte
    99.519
    Errungenschaften:
    TomodachisGang LeaderHikikomoriTagger Amateur50000 Erfahrungspunkte

    AW: Hellsing Ultimate OVA [Eng-Ger-Jap-Dub] [Eng-Ger-Sub] [Re-Cut] [1080p] [Bluray]

    Update: OVA II hinzugefügt.
    !!!Alle Anliegen bezüglich Uploads werden nur mit direktem Threadlink zum Angebot bearbeitet!!!

    Re-Uploadanfragen nur per PN - Ihr könnt mir auch Listen schicken

    Re-Uploads erfolgen meist innerhalb 24h, kann aber auch bis zu 7 Tage dauern

    [Links sind nur für registrierte und aktivierte Nutzer sichtbar. Klicke hier um dich zu registrieren.] | [Links sind nur für registrierte und aktivierte Nutzer sichtbar. Klicke hier um dich zu registrieren.] | >[Links sind nur für registrierte und aktivierte Nutzer sichtbar. Klicke hier um dich zu registrieren.]<
    [Links sind nur für registrierte und aktivierte Nutzer sichtbar. Klicke hier um dich zu registrieren.]

  4. 3 Benutzer sagen Danke:

    darkzed (29. December 2015),Filbo11 (15. April 2015),Goki.Grokus (13. February 2015)

  5. #3
    United we Stand Avatar von 00Ryuji00
    Registriert seit
    Oct 2012
    Beiträge
    3.896
    Punkte
    99.519
    Errungenschaften:
    TomodachisGang LeaderHikikomoriTagger Amateur50000 Erfahrungspunkte

    AW: Hellsing Ultimate OVA [Eng-Ger-Jap-Dub] [Eng-Ger-Sub] [Re-Cut] [1080p] [Bluray]

    Update: OVA I & II gegen neue Encodes mit ~2 GB weniger Dateigröße ausgetauscht. OVA III hinzugefügt.
    !!!Alle Anliegen bezüglich Uploads werden nur mit direktem Threadlink zum Angebot bearbeitet!!!

    Re-Uploadanfragen nur per PN - Ihr könnt mir auch Listen schicken

    Re-Uploads erfolgen meist innerhalb 24h, kann aber auch bis zu 7 Tage dauern

    [Links sind nur für registrierte und aktivierte Nutzer sichtbar. Klicke hier um dich zu registrieren.] | [Links sind nur für registrierte und aktivierte Nutzer sichtbar. Klicke hier um dich zu registrieren.] | >[Links sind nur für registrierte und aktivierte Nutzer sichtbar. Klicke hier um dich zu registrieren.]<
    [Links sind nur für registrierte und aktivierte Nutzer sichtbar. Klicke hier um dich zu registrieren.]

  6. 3 Benutzer sagen Danke:

    Filbo11 (15. April 2015),Mr.Shit (19. December 2015),Shikur0 (24. April 2015)

  7. #4
    United we Stand Avatar von 00Ryuji00
    Registriert seit
    Oct 2012
    Beiträge
    3.896
    Punkte
    99.519
    Errungenschaften:
    TomodachisGang LeaderHikikomoriTagger Amateur50000 Erfahrungspunkte

    AW: Hellsing Ultimate OVA [Eng-Ger-Jap-Dub] [Eng-Ger-Sub] [Re-Cut] [1080p] [Bluray]

    Update: Alle OVA's wegen gravierende Encode-Fehler ausgetauscht (Laggs bei Schussszenen). Ein Entschuldigung von mir an alle, die sich das Release bereits mehrfach heruntergeladen haben :/.
    !!!Alle Anliegen bezüglich Uploads werden nur mit direktem Threadlink zum Angebot bearbeitet!!!

    Re-Uploadanfragen nur per PN - Ihr könnt mir auch Listen schicken

    Re-Uploads erfolgen meist innerhalb 24h, kann aber auch bis zu 7 Tage dauern

    [Links sind nur für registrierte und aktivierte Nutzer sichtbar. Klicke hier um dich zu registrieren.] | [Links sind nur für registrierte und aktivierte Nutzer sichtbar. Klicke hier um dich zu registrieren.] | >[Links sind nur für registrierte und aktivierte Nutzer sichtbar. Klicke hier um dich zu registrieren.]<
    [Links sind nur für registrierte und aktivierte Nutzer sichtbar. Klicke hier um dich zu registrieren.]

  8. 1 Benutzer sagt Danke:

    Filbo11 (15. April 2015)

  9. #5
    United we Stand Avatar von 00Ryuji00
    Registriert seit
    Oct 2012
    Beiträge
    3.896
    Punkte
    99.519
    Errungenschaften:
    TomodachisGang LeaderHikikomoriTagger Amateur50000 Erfahrungspunkte

    AW: Hellsing Ultimate OVA [Eng-Ger-Jap-Dub] [Eng-Ger-Sub] [Re-Cut] [1080p] [Bluray]

    Update: OVA IV hinzugefügt.
    !!!Alle Anliegen bezüglich Uploads werden nur mit direktem Threadlink zum Angebot bearbeitet!!!

    Re-Uploadanfragen nur per PN - Ihr könnt mir auch Listen schicken

    Re-Uploads erfolgen meist innerhalb 24h, kann aber auch bis zu 7 Tage dauern

    [Links sind nur für registrierte und aktivierte Nutzer sichtbar. Klicke hier um dich zu registrieren.] | [Links sind nur für registrierte und aktivierte Nutzer sichtbar. Klicke hier um dich zu registrieren.] | >[Links sind nur für registrierte und aktivierte Nutzer sichtbar. Klicke hier um dich zu registrieren.]<
    [Links sind nur für registrierte und aktivierte Nutzer sichtbar. Klicke hier um dich zu registrieren.]

  10. 2 Benutzer sagen Danke:

    Filbo11 (15. April 2015),gbergmann (15. April 2015)

  11. #6
    United we Stand Avatar von 00Ryuji00
    Registriert seit
    Oct 2012
    Beiträge
    3.896
    Punkte
    99.519
    Errungenschaften:
    TomodachisGang LeaderHikikomoriTagger Amateur50000 Erfahrungspunkte

    AW: Hellsing Ultimate OVA [Eng-Ger-Jap-Dub][Eng-Ger-Sub][Re-Cut][AC3/DTS-HD][720p/1080p][Bluray]

    Update: 720p-AC3 Version & 1080p-AC3 Version hinzugefügt.
    !!!Alle Anliegen bezüglich Uploads werden nur mit direktem Threadlink zum Angebot bearbeitet!!!

    Re-Uploadanfragen nur per PN - Ihr könnt mir auch Listen schicken

    Re-Uploads erfolgen meist innerhalb 24h, kann aber auch bis zu 7 Tage dauern

    [Links sind nur für registrierte und aktivierte Nutzer sichtbar. Klicke hier um dich zu registrieren.] | [Links sind nur für registrierte und aktivierte Nutzer sichtbar. Klicke hier um dich zu registrieren.] | >[Links sind nur für registrierte und aktivierte Nutzer sichtbar. Klicke hier um dich zu registrieren.]<
    [Links sind nur für registrierte und aktivierte Nutzer sichtbar. Klicke hier um dich zu registrieren.]

  12. 5 Benutzer sagen Danke:

    Filbo11 (25. June 2015),Goki.Grokus (5. August 2015),k-r-u-l-l (27. May 2016),Silversurfer1402 (13. October 2015),thereverend (26. June 2015)

  13. #7
    United we Stand Avatar von 00Ryuji00
    Registriert seit
    Oct 2012
    Beiträge
    3.896
    Punkte
    99.519
    Errungenschaften:
    TomodachisGang LeaderHikikomoriTagger Amateur50000 Erfahrungspunkte

    AW: Hellsing Ultimate OVA [Eng-Ger-Jap-Dub][Eng-Ger-Sub][Re-Cut][AC3/DTS-HD][720p/1080p][Bluray]-00Ryuji00

    Update: Re-Upload aller Dateien und OVA 5-7 hinzugefügt.
    !!!Alle Anliegen bezüglich Uploads werden nur mit direktem Threadlink zum Angebot bearbeitet!!!

    Re-Uploadanfragen nur per PN - Ihr könnt mir auch Listen schicken

    Re-Uploads erfolgen meist innerhalb 24h, kann aber auch bis zu 7 Tage dauern

    [Links sind nur für registrierte und aktivierte Nutzer sichtbar. Klicke hier um dich zu registrieren.] | [Links sind nur für registrierte und aktivierte Nutzer sichtbar. Klicke hier um dich zu registrieren.] | >[Links sind nur für registrierte und aktivierte Nutzer sichtbar. Klicke hier um dich zu registrieren.]<
    [Links sind nur für registrierte und aktivierte Nutzer sichtbar. Klicke hier um dich zu registrieren.]

  14. 8 Benutzer sagen Danke:

    Akio (18. December 2015),Filbo11 (20. September 2015),gbergmann (26. September 2015),k-r-u-l-l (27. May 2016),Mr.Shit (19. December 2015),nabou (25. September 2015),norby (21. September 2015),Silversurfer1402 (13. October 2015)

  15. #8
    United we Stand Avatar von 00Ryuji00
    Registriert seit
    Oct 2012
    Beiträge
    3.896
    Punkte
    99.519
    Errungenschaften:
    TomodachisGang LeaderHikikomoriTagger Amateur50000 Erfahrungspunkte

    AW: Hellsing Ultimate [Re-Cut][Eng-Ger-Jap-Dub][Eng-Ger-Sub][AC3/DTS-HD][720p/1080p][Bluray]-00Ryuji00

    Update: OVA 8 & 9 hinzugefügt.
    !!!Alle Anliegen bezüglich Uploads werden nur mit direktem Threadlink zum Angebot bearbeitet!!!

    Re-Uploadanfragen nur per PN - Ihr könnt mir auch Listen schicken

    Re-Uploads erfolgen meist innerhalb 24h, kann aber auch bis zu 7 Tage dauern

    [Links sind nur für registrierte und aktivierte Nutzer sichtbar. Klicke hier um dich zu registrieren.] | [Links sind nur für registrierte und aktivierte Nutzer sichtbar. Klicke hier um dich zu registrieren.] | >[Links sind nur für registrierte und aktivierte Nutzer sichtbar. Klicke hier um dich zu registrieren.]<
    [Links sind nur für registrierte und aktivierte Nutzer sichtbar. Klicke hier um dich zu registrieren.]

  16. 6 Benutzer sagen Danke:

    Expert2506 (25. January 2016),gbergmann (19. December 2015),k-r-u-l-l (27. May 2016),nabou (1. January 2016),norby (18. December 2015),Scrappedmaster (12. January 2016)

  17. #9
    United we Stand Avatar von 00Ryuji00
    Registriert seit
    Oct 2012
    Beiträge
    3.896
    Punkte
    99.519
    Errungenschaften:
    TomodachisGang LeaderHikikomoriTagger Amateur50000 Erfahrungspunkte

    AW: Hellsing Ultimate + The Dawn [Re-Cut][Eng-Ger-Jap-Dub][Eng-Ger-Sub][AC3/DTS-HD][720p/1080p][BluRay]-00Ryuji00

    Update: OVA 10 & The Dawn hinzugefügt. Release damit vollständig.

    Ein herzliches Dankeschön an @[Links sind nur für registrierte und aktivierte Nutzer sichtbar. Klicke hier um dich zu registrieren.], der mir mit den japanischen DTS-Spuren für The Dawn ausgeholfen hat.
    !!!Alle Anliegen bezüglich Uploads werden nur mit direktem Threadlink zum Angebot bearbeitet!!!

    Re-Uploadanfragen nur per PN - Ihr könnt mir auch Listen schicken

    Re-Uploads erfolgen meist innerhalb 24h, kann aber auch bis zu 7 Tage dauern

    [Links sind nur für registrierte und aktivierte Nutzer sichtbar. Klicke hier um dich zu registrieren.] | [Links sind nur für registrierte und aktivierte Nutzer sichtbar. Klicke hier um dich zu registrieren.] | >[Links sind nur für registrierte und aktivierte Nutzer sichtbar. Klicke hier um dich zu registrieren.]<
    [Links sind nur für registrierte und aktivierte Nutzer sichtbar. Klicke hier um dich zu registrieren.]

  18. 7 Benutzer sagen Danke:

    chopper23 (5. February 2016),gbergmann (24. February 2016),k-r-u-l-l (27. May 2016),KiritoMazayo (3. August 2016),SantaKlaus (5. February 2016),Scrappedmaster (14. February 2016),sunnlo (5. February 2016)

Lesezeichen

Berechtigungen

  • Neue Themen erstellen: Nein
  • Themen beantworten: Nein
  • Anhänge hochladen: Nein
  • Beiträge bearbeiten: Nein
  •  

1 2 3 4 5 6 7 8 9 10 11 12 13 14 15 16 17 18 19 20 21 22 23 24 25 26 27 28 29 30 31 32 33 34 35 36 37 38 39 40 41 42 43 44 45 46 47 48 49 50 51 52 53 54 55 56 57 58 59 60 61 62 63 64 65 66 67 68 69 70 71 72 73 74 75 76 77 78 79 80 81 82 83 84 85 86 87 88 89 90 91 92 93 94 95 96 97 98 99 100 101 102 103 104 105 106 107 108 109 110 111 112 113 114 115 116 117 118 119 120 121 122 123 124 125 126 127 128 129 130 131 132 133 134 135 136 137 138 139 140 141 142 143 144 145 146 147 148 149 150 151 152 153 154 155 156 157 158