Ergebnis 1 bis 2 von 2

Thema: High School DxD BorN + Special [Laufend][Ger-Jap-Dub][Ger-Sub][1080p-10Bit][BluRay] - FB

Dieser Thread wurde noch nicht bewertet. Bewerte ihn doch, wenn er dir gefällt!
  1. #1
    Uploader Avatar von Filbo11
    Registriert seit
    Jan 2015
    Beiträge
    931
    Punkte
    17.281
    Errungenschaften:
    TomodachisErste Gruppe1 Jahr registriertCreated Album picturesTagger First Class

    High School DxD BorN + Special [Laufend][Ger-Jap-Dub][Ger-Sub][1080p-10Bit][BluRay] - FB

    High School DxD BorN
    ハイスクールDxD BorN




    Beschreibung

    Der Okkultismus-Club reist in die Unterwelt zu Rias’ Bruder Lucifer, um dort ein hartes Training zu absolvieren. Allerdings geschehen in der Hölle noch andere unerwartete und überraschende Dinge, so wartet dort beispielsweise bereits die Chaos-Brigade, in der der Weiße Drache Mitglied ist, auf Issei und seine Freunde.

    Format: mkv
    Dauer: ca. 24 min
    Größe: ca. ~1,65 GB
    Sprache: Japanisch, Deutsch
    Untertitel: Deutsch
    Source: Japanische BD, Deutsche BD
    Releaser: [FB]
    Hoster: Uploaded.net & Share-Online.biz
    Passwort: byFilbo11


    Screenshots & Info

    Spoiler
    [Links sind nur für registrierte und aktivierte Nutzer sichtbar. Klicke hier um dich zu registrieren.]

    Code:
    General
    
    Complete name               : [FB] High School DxD BorN [01] (BD 1080p 10Bit x264 DTS PCM).mkv
    Format                      : Matroska
    Format version              : Version 4 / Version 2
    File size                   : 1.70 GiB
    Duration                    : 23 min
    Overall bit rate            : 10.3 Mb/s
    Movie name                  : [FB] High School DxD BorN [01] (BD 1080p 10Bit x264 DTS PCM)
    Encoded date                : UTC 2016-10-04 18:27:13
    Writing application         : mkvmerge v9.4.2 ('So High') 64bit
    Writing library             : libebml v1.3.4 + libmatroska v1.4.5
    
    Video
    ID                          : 1
    Format                      : AVC
    Format/Info                 : Advanced Video Codec
    Format profile              : High [email protected]
    Format settings, CABAC      : Yes
    Format settings, ReFrames   : 16 frames
    Codec ID                    : V_MPEG4/ISO/AVC
    Duration                    : 23 min
    Bit rate                    : 6 570 kb/s
    Width                       : 1 920 pixels
    Height                      : 1 080 pixels
    Display aspect ratio        : 16:9
    Frame rate mode             : Constant
    Frame rate                  : 23.976 (24000/1001) FPS
    Color space                 : YUV
    Chroma subsampling          : 4:2:0
    Bit depth                   : 10 bits
    Scan type                   : Progressive
    Bits/(Pixel*Frame)          : 0.132
    Stream size                 : 1.09 GiB (64%)
    Title                       : by Filbo11
    Writing library             : x264 core 148 r2692kMod 64f4e24
    Encoding settings           : cabac=1 / ref=16 / deblock=1:1:1 / analyse=0x3:0x133 / me=umh / subme=11 / psy=1 / fade_compensate=0.00 / psy_rd=0.40:0.10 / mixed_ref=1 / me_range=32 / chroma_me=1 / trellis=2 / 8x8dct=1 / cqm=0 / deadzone=21,11 / fast_pskip=0 / chroma_qp_offset=-3 / threads=6 / lookahead_threads=1 / sliced_threads=0 / nr=0 / decimate=0 / interlaced=0 / bluray_compat=0 / constrained_intra=0 / fgo=0 / bframes=16 / b_pyramid=2 / b_adapt=2 / b_bias=0 / direct=3 / weightb=1 / open_gop=0 / weightp=2 / keyint=250 / keyint_min=23 / scenecut=40 / intra_refresh=0 / rc_lookahead=60 / rc=crf / mbtree=1 / crf=16.0000 / qcomp=0.80 / qpmin=0 / qpmax=81 / qpstep=4 / ip_ratio=1.40 / aq=3:0.80
    Default                     : Yes
    Forced                      : Yes
    Color range                 : Limited
    Color primaries             : BT.709
    Transfer characteristics    : BT.709
    Matrix coefficients         : BT.709
    
    Audio #1
    ID                          : 2
    Format                      : DTS
    Format/Info                 : Digital Theater Systems
    Format profile              : MA / Core
    Mode                        : 16
    Format settings, Endianness : Big
    Codec ID                    : A_DTS
    Duration                    : 23 min
    Bit rate mode               : Variable / Constant
    Bit rate                    : 2 138 kb/s / 1 509 kb/s
    Channel(s)                  : 2 channels
    Channel positions           : Front: L R
    Sampling rate               : 48.0 kHz
    Frame rate                  : 93.750 FPS (512 spf)
    Bit depth                   : 24 bits
    Compression mode            : Lossless / Lossy
    Stream size                 : 362 MiB (21%)
    Language                    : German
    Default                     : Yes
    Forced                      : Yes
    
    Audio #2
    ID                          : 3
    Format                      : PCM
    Codec ID                    : A_PCM/INT/LIT
    Duration                    : 23 min
    Bit rate mode               : Constant
    Bit rate                    : 1 536 kb/s
    Channel(s)                  : 2 channels
    Sampling rate               : 48.0 kHz
    Frame rate                  : 32.001 FPS (1500 spf)
    Bit depth                   : 16 bits
    Stream size                 : 260 MiB (15%)
    Language                    : Japanese
    Default                     : No
    Forced                      : No
    
    Text
    ID                          : 4
    Format                      : PGS
    Muxing mode                 : zlib
    Codec ID                    : S_HDMV/PGS
    Codec ID/Info               : Picture based subtitle format used on BDs/HD-DVDs
    Duration                    : 23 min
    Bit rate                    : 17.4 kb/s
    Count of elements           : 1102
    Stream size                 : 2.95 MiB (0%)
    Title                       : full
    Language                    : German
    Default                     : No
    Forced                      : No
    
    Menu
    00:00:00.000                : en:Prologue
    00:02:57.177                : en:Opening
    00:04:27.267                : en:Part A
    00:13:38.818                : en:Eyecatch
    00:13:48.828                : en:Part B
    00:21:56.315                : en:Ending
    00:23:26.405                : en:Preview


    Alle Mirrors untereinander kompatibel
    Folgen einzeln ladbar
    Folge 6/12 online + 2/6 Special


    Download

    Geschützter Bereich - Bedanke dich beim Poster, um den Bereich sehen zu können
    Hier erfährst Du wie Du Dich bedanken kannst oder werde jetzt Premium Mitglied ab einer Spende von 5€ und erhalte sofortigen Zugriff auf den Downloadbereich!


    Geändert von Filbo11 (14. November 2016 um 18:00 Uhr) Grund: folge 4-6 hinzugefügt + 2 Special

    [Links sind nur für registrierte und aktivierte Nutzer sichtbar. Klicke hier um dich zu registrieren.]

    Ich wäre allen sehr dankbar, die mir gravierende Fehler in meinen Releases per PN melden

  2. 21 Benutzer sagen Danke:

    chris1989 (7. October 2016),cloud-strife20 (8. October 2016),curse2302 (8. October 2016),fratzeyo (20. November 2016),Ghostraven (7. October 2016),Gott Enel (7. October 2016),heikobaer (8. October 2016),Jimmy007 (15. November 2016),Jinnay (7. October 2016),Kalchi (7. October 2016),Larsinho (9. October 2016),LimeFire (1. December 2016),midnighter (8. October 2016),PaDDyHaase (9. October 2016),rinnegan93 (19. November 2016),Ronae (15. November 2016),Sekiryuutei (22. October 2016),Skully (24. November 2016),Sora (7. October 2016),Z3ntus (7. October 2016),zimbo201174 (15. November 2016)

  3. #2
    Uploader Avatar von Filbo11
    Registriert seit
    Jan 2015
    Beiträge
    931
    Punkte
    17.281
    Errungenschaften:
    TomodachisErste Gruppe1 Jahr registriertCreated Album picturesTagger First Class

    AW: High School DxD BorN + Special [Laufend][Ger-Jap-Dub][Ger-Sub][1080p-10Bit][BluRay] - FB

    folge 4-6 hinzugefügt + 2 Special

    [Links sind nur für registrierte und aktivierte Nutzer sichtbar. Klicke hier um dich zu registrieren.]

    Ich wäre allen sehr dankbar, die mir gravierende Fehler in meinen Releases per PN melden

Stichworte

Lesezeichen

Berechtigungen

  • Neue Themen erstellen: Nein
  • Themen beantworten: Nein
  • Anhänge hochladen: Nein
  • Beiträge bearbeiten: Nein
  •  

1 2 3 4 5 6 7 8 9 10 11 12 13 14 15 16 17 18 19 20 21 22 23 24 25 26 27 28 29 30 31 32 33 34 35 36 37 38 39 40 41 42 43 44 45 46 47 48 49 50 51 52 53 54 55 56 57 58 59 60 61 62 63 64 65 66 67 68 69 70 71 72 73 74 75 76 77 78 79 80 81 82 83 84 85 86 87 88 89 90 91 92 93 94 95 96 97 98 99 100 101 102 103 104 105 106 107 108 109 110 111 112 113 114 115 116 117 118 119 120 121 122 123 124 125 126 127 128 129 130 131 132 133 134 135 136 137 138 139 140 141 142 143 144 145 146 147 148 149 150 151 152 153 154 155 156 157 158