Ergebnis 1 bis 7 von 7

Thema: High School DxD New + Special [Ger-Jap-Dub][Ger-Sub][AC3/DTS][720p/1080p][BluRay] - FB

Dieser Thread wurde durchschnittlich mit 5 Sternen bewertet, wobei 1 Stern die schlechteste und 5 Sterne die beste Bewertung ist. Es haben insgesamt 1 Mitglieder eine Bewertung abgegeben.

  1. #1
    Uploader Avatar von Filbo11
    Registriert seit
    Jan 2015
    Beiträge
    931
    Punkte
    17.281
    Errungenschaften:
    TomodachisErste Gruppe1 Jahr registriertCreated Album picturesTagger First Class

    High School DxD New + Special [Ger-Jap-Dub][Ger-Sub][AC3/DTS][720p/1080p][BluRay] - FB

    High School DxD New
    ハイスクール DxD New
    High School DxD Season 2




    Handlung

    Das Leben als Dämon ist nicht ganz leicht. Zwar hat es Issei geschafft Phenex zu besiegen und seine Meisterin Rias Gremory aus seinen Händen zu befreien, doch um ein hochrangiger Dämon zu werden, muss er Pakte mit Menschen schließen und diese erfüllen. Aber neue Probleme sind schon im Anmarsch. Abgesandte der Kirche, Feind aller Dämonen, sind in der Stadt auf der Suche nach heiligen Waffen, die ihnen gestohlen wurden. Eine davon ist in den Händen des Exorzisten Freed Sellzen gelandet, der unseren Freunden schon einmal Probleme bereitet hat.

    Format: mkv
    Dauer: ca. 26 min
    Größe: ca. 620 MB [720p AC3] / 2,1 - 2,7 GB [1080p AC3] / 2,2 - 2,8 GB [1080p DTS]
    Sprache: Deutsch & Japanisch
    Untertitel: Deutsch
    Releaser: [FB]
    Hoster: Uploaded.net & Share-Online.biz
    Passwort: byFilbo11


    Screenshots & Info


    720p AC3
    [Links sind nur für registrierte und aktivierte Nutzer sichtbar. Klicke hier um dich zu registrieren.]

    Code:
    General
    
    Complete name               : [FB] High School DxD New [01v2] (BD 720p x264 AC3).mkv
    Format                      : Matroska
    Format version              : Version 4 / Version 2
    File size                   : 626 MiB
    Duration                    : 26mn 53s
    Overall bit rate            : 3 256 Kbps
    Movie name                  : [FB] High School DxD New [01v2]
    Encoded date                : UTC 2015-07-29 14:07:55
    Writing application         : mkvmerge v8.2.0 ('World of Adventure') 64bit
    Writing library             : libebml v1.3.1 + libmatroska v1.4.2
    Attachements                : Aller-Bold.ttf / Aller-Bold-Italic.ttf / Aller-Italic.ttf / Aller-Light.ttf / Aller-Light-Italic.ttf / Aller-Regular.ttf / amienne.ttf / A-Otf Kaisho Mcbk1 Pro.ttf / batang.ttc / calibrib.ttf / Calligraph421 BT.ttf / CARTOOND.TTF / Comfortaa-Bold.ttf / Comfortaa-Light.ttf / Comfortaa-Regular.ttf / Cronos Pro-Semibold.ttf / Cronos Pro-Semibold-Italic.ttf / estre.ttf / handsean.ttf / jesaya free.ttf / Mcgannahan.ttf / Myriad.ttf / rayshand-regular.ttf
    DURATION                    : 00:26:51.580000000
    NUMBER_OF_FRAMES            : 3697
    NUMBER_OF_BYTES             : 388871
    _STATISTICS_WRITING_APP     : mkvmerge v8.2.0 ('World of Adventure') 64bit
    _STATISTICS_WRITING_DATE_UT : 2015-07-29 14:07:55
    _STATISTICS_TAGS            : BPS DURATION NUMBER_OF_FRAMES NUMBER_OF_BYTES
    
    Video
    ID                          : 1
    Format                      : AVC
    Format/Info                 : Advanced Video Codec
    Format profile              : [email protected]
    Format settings, CABAC      : Yes
    Format settings, ReFrames   : 12 frames
    Codec ID                    : V_MPEG4/ISO/AVC
    Duration                    : 26mn 53s
    Bit rate                    : 2 295 Kbps
    Width                       : 1 280 pixels
    Height                      : 720 pixels
    Display aspect ratio        : 16:9
    Frame rate mode             : Constant
    Frame rate                  : 23.976 fps
    Color space                 : YUV
    Chroma subsampling          : 4:2:0
    Bit depth                   : 8 bits
    Scan type                   : Progressive
    Bits/(Pixel*Frame)          : 0.104
    Stream size                 : 441 MiB (70%)
    Title                       : by Filbo11
    Writing library             : x264 core 146 r2538 121396c
    Encoding settings           : cabac=1 / ref=12 / deblock=1:0:0 / analyse=0x3:0x113 / me=umh / subme=8 / psy=1 / psy_rd=1.00:0.00 / mixed_ref=1 / me_range=16 / chroma_me=1 / trellis=1 / 8x8dct=1 / cqm=0 / deadzone=21,11 / fast_pskip=1 / chroma_qp_offset=-2 / threads=6 / lookahead_threads=2 / sliced_threads=0 / nr=0 / decimate=1 / interlaced=0 / bluray_compat=0 / constrained_intra=0 / bframes=8 / b_pyramid=2 / b_adapt=2 / b_bias=0 / direct=3 / weightb=1 / open_gop=0 / weightp=2 / keyint=250 / keyint_min=23 / scenecut=40 / intra_refresh=0 / rc_lookahead=50 / rc=crf / mbtree=1 / crf=16.0 / qcomp=0.60 / qpmin=0 / qpmax=69 / qpstep=4 / ip_ratio=1.40 / aq=1:1.00
    Default                     : Yes
    Forced                      : No
    
    Audio #1
    ID                          : 2
    Format                      : AC-3
    Format/Info                 : Audio Coding 3
    Mode extension              : CM (complete main)
    Format settings, Endianness : Big
    Codec ID                    : A_AC3
    Duration                    : 26mn 53s
    Bit rate mode               : Constant
    Bit rate                    : 448 Kbps
    Channel(s)                  : 2 channels
    Channel positions           : Front: L R
    Sampling rate               : 48.0 KHz
    Compression mode            : Lossy
    Stream size                 : 86.2 MiB (14%)
    Language                    : German
    Default                     : Yes
    Forced                      : No
    
    Audio #2
    ID                          : 3
    Format                      : AC-3
    Format/Info                 : Audio Coding 3
    Mode extension              : CM (complete main)
    Format settings, Endianness : Big
    Codec ID                    : A_AC3
    Duration                    : 26mn 53s
    Bit rate mode               : Constant
    Bit rate                    : 448 Kbps
    Channel(s)                  : 2 channels
    Channel positions           : Front: L R
    Sampling rate               : 48.0 KHz
    Compression mode            : Lossy
    Stream size                 : 86.2 MiB (14%)
    Language                    : Japanese
    Default                     : No
    Forced                      : No
    
    Text #1
    ID                          : 4
    Format                      : ASS
    Codec ID                    : S_TEXT/ASS
    Codec ID/Info               : Advanced Sub Station Alpha
    Compression mode            : Lossless
    Title                       : OP & ED
    Language                    : German
    Default                     : Yes
    Forced                      : No
    
    Text #2
    ID                          : 5
    Format                      : ASS
    Codec ID                    : S_TEXT/ASS
    Codec ID/Info               : Advanced Sub Station Alpha
    Compression mode            : Lossless
    Title                       : full
    Language                    : German
    Default                     : No
    Forced                      : No
    
    Text #3
    ID                          : 6
    Format                      : PGS
    Muxing mode                 : zlib
    Codec ID                    : S_HDMV/PGS
    Codec ID/Info               : Picture based subtitle format used on BDs/HD-DVDs
    Title                       : full BD sub
    Language                    : German
    Default                     : No
    Forced                      : No
    
    Text #4
    ID                          : 7
    Format                      : PGS
    Muxing mode                 : zlib
    Codec ID                    : S_HDMV/PGS
    Codec ID/Info               : Picture based subtitle format used on BDs/HD-DVDs
    Title                       : OP & ED BD sub
    Language                    : German
    Default                     : No
    Forced                      : No
    
    Menu
    00:00:00.000                : en:Opening
    00:01:40.070                : en:Opening song
    00:03:09.840                : en:Part A
    00:13:50.450                : en:Part B
    00:25:08.460                : en:Ending
    00:26:35.610                : en:Preview


    1080p AC3
    [Links sind nur für registrierte und aktivierte Nutzer sichtbar. Klicke hier um dich zu registrieren.]

    Code:
    General
    
    Complete name               : [FB] High School DxD New [01v2] (BD 1080p x264 AC3).mkv
    Format                      : Matroska
    Format version              : Version 4 / Version 2
    File size                   : 2.14 GiB
    Duration                    : 26mn 53s
    Overall bit rate            : 11.4 Mbps
    Movie name                  : [FB] High School DxD New [01v2]
    Encoded date                : UTC 2015-08-01 19:58:21
    Writing application         : mkvmerge v8.2.0 ('World of Adventure') 64bit
    Writing library             : libebml v1.3.1 + libmatroska v1.4.2
    Attachements                : Aller-Bold.ttf / Aller-Bold-Italic.ttf / Aller-Italic.ttf / Aller-Light.ttf / Aller-Light-Italic.ttf / Aller-Regular.ttf / amienne.ttf / A-Otf Kaisho Mcbk1 Pro.ttf / batang.ttc / calibrib.ttf / Calligraph421 BT.ttf / CARTOOND.TTF / Comfortaa-Bold.ttf / Comfortaa-Light.ttf / Comfortaa-Regular.ttf / Cronos Pro-Semibold.ttf / Cronos Pro-Semibold-Italic.ttf / estre.ttf / handsean.ttf / jesaya free.ttf / Mcgannahan.ttf / Myriad.ttf / rayshand-regular.ttf
    DURATION                    : 00:26:51.580000000
    NUMBER_OF_FRAMES            : 3697
    NUMBER_OF_BYTES             : 380724
    _STATISTICS_WRITING_APP     : mkvmerge v8.2.0 ('World of Adventure') 64bit
    _STATISTICS_WRITING_DATE_UT : 2015-08-01 19:58:21
    _STATISTICS_TAGS            : BPS DURATION NUMBER_OF_FRAMES NUMBER_OF_BYTES
    
    Video
    ID                          : 1
    Format                      : AVC
    Format/Info                 : Advanced Video Codec
    Format profile              : [email protected]
    Format settings, CABAC      : Yes
    Format settings, ReFrames   : 4 frames
    Codec ID                    : V_MPEG4/ISO/AVC
    Duration                    : 26mn 53s
    Bit rate                    : 10.3 Mbps
    Width                       : 1 920 pixels
    Height                      : 1 080 pixels
    Display aspect ratio        : 16:9
    Frame rate mode             : Constant
    Frame rate                  : 23.976 fps
    Color space                 : YUV
    Chroma subsampling          : 4:2:0
    Bit depth                   : 8 bits
    Scan type                   : Progressive
    Bits/(Pixel*Frame)          : 0.207
    Stream size                 : 1.93 GiB (90%)
    Title                       : by Filbo11
    Writing library             : x264 core 146 r2538 121396c
    Encoding settings           : cabac=1 / ref=4 / deblock=1:0:0 / analyse=0x3:0x113 / me=umh / subme=8 / psy=1 / psy_rd=1.00:0.00 / mixed_ref=1 / me_range=16 / chroma_me=1 / trellis=1 / 8x8dct=1 / cqm=0 / deadzone=21,11 / fast_pskip=1 / chroma_qp_offset=-2 / threads=6 / lookahead_threads=2 / sliced_threads=0 / nr=0 / decimate=1 / interlaced=0 / bluray_compat=0 / constrained_intra=0 / bframes=8 / b_pyramid=2 / b_adapt=2 / b_bias=0 / direct=3 / weightb=1 / open_gop=0 / weightp=2 / keyint=250 / keyint_min=23 / scenecut=40 / intra_refresh=0 / rc_lookahead=50 / rc=crf / mbtree=1 / crf=16.0 / qcomp=0.60 / qpmin=0 / qpmax=69 / qpstep=4 / ip_ratio=1.40 / aq=1:1.00
    Default                     : Yes
    Forced                      : No
    
    Audio #1
    ID                          : 2
    Format                      : AC-3
    Format/Info                 : Audio Coding 3
    Mode extension              : CM (complete main)
    Format settings, Endianness : Big
    Codec ID                    : A_AC3
    Duration                    : 26mn 53s
    Bit rate mode               : Constant
    Bit rate                    : 448 Kbps
    Channel(s)                  : 2 channels
    Channel positions           : Front: L R
    Sampling rate               : 48.0 KHz
    Compression mode            : Lossy
    Stream size                 : 86.2 MiB (4%)
    Language                    : German
    Default                     : Yes
    Forced                      : No
    
    Audio #2
    ID                          : 3
    Format                      : AC-3
    Format/Info                 : Audio Coding 3
    Mode extension              : CM (complete main)
    Format settings, Endianness : Big
    Codec ID                    : A_AC3
    Duration                    : 26mn 53s
    Bit rate mode               : Constant
    Bit rate                    : 448 Kbps
    Channel(s)                  : 2 channels
    Channel positions           : Front: L R
    Sampling rate               : 48.0 KHz
    Compression mode            : Lossy
    Stream size                 : 86.2 MiB (4%)
    Language                    : Japanese
    Default                     : No
    Forced                      : No
    
    Text #1
    ID                          : 4
    Format                      : ASS
    Codec ID                    : S_TEXT/ASS
    Codec ID/Info               : Advanced Sub Station Alpha
    Compression mode            : Lossless
    Title                       : OP & ED
    Language                    : German
    Default                     : Yes
    Forced                      : No
    
    Text #2
    ID                          : 5
    Format                      : ASS
    Codec ID                    : S_TEXT/ASS
    Codec ID/Info               : Advanced Sub Station Alpha
    Compression mode            : Lossless
    Title                       : full
    Language                    : German
    Default                     : No
    Forced                      : No
    
    Text #3
    ID                          : 6
    Format                      : PGS
    Muxing mode                 : zlib
    Codec ID                    : S_HDMV/PGS
    Codec ID/Info               : Picture based subtitle format used on BDs/HD-DVDs
    Title                       : full BD sub
    Language                    : German
    Default                     : No
    Forced                      : No
    
    Text #4
    ID                          : 7
    Format                      : PGS
    Muxing mode                 : zlib
    Codec ID                    : S_HDMV/PGS
    Codec ID/Info               : Picture based subtitle format used on BDs/HD-DVDs
    Title                       : OP & ED BD sub
    Language                    : German
    Default                     : No
    Forced                      : No
    
    Menu
    00:00:00.000                : en:Opening
    00:01:40.070                : en:Opening song
    00:03:09.840                : en:Part A
    00:13:50.450                : en:Part B
    00:25:08.460                : en:Ending
    00:26:35.610                : en:Preview


    1080p DTS
    [Links sind nur für registrierte und aktivierte Nutzer sichtbar. Klicke hier um dich zu registrieren.]

    Code:
    General
    
    Complete name               : [FB] High School DxD New [01v2] (BD 1080p x264 DTS).mkv
    Format                      : Matroska
    Format version              : Version 4 / Version 2
    File size                   : 2.26 GiB
    Duration                    : 26mn 53s
    Overall bit rate            : 12.0 Mbps
    Movie name                  : [FB] High School DxD New [01v2]
    Encoded date                : UTC 2015-07-31 12:42:07
    Writing application         : mkvmerge v8.2.0 ('World of Adventure') 64bit
    Writing library             : libebml v1.3.1 + libmatroska v1.4.2
    Attachements                : Aller-Bold.ttf / Aller-Bold-Italic.ttf / Aller-Italic.ttf / Aller-Light.ttf / Aller-Light-Italic.ttf / Aller-Regular.ttf / amienne.ttf / A-Otf Kaisho Mcbk1 Pro.ttf / batang.ttc / calibrib.ttf / Calligraph421 BT.ttf / CARTOOND.TTF / Comfortaa-Bold.ttf / Comfortaa-Light.ttf / Comfortaa-Regular.ttf / Cronos Pro-Semibold.ttf / Cronos Pro-Semibold-Italic.ttf / estre.ttf / handsean.ttf / jesaya free.ttf / Mcgannahan.ttf / Myriad.ttf / rayshand-regular.ttf
    DURATION                    : 00:26:51.580000000
    NUMBER_OF_FRAMES            : 3697
    NUMBER_OF_BYTES             : 380724
    _STATISTICS_WRITING_APP     : mkvmerge v8.2.0 ('World of Adventure') 64bit
    _STATISTICS_WRITING_DATE_UT : 2015-07-31 12:42:07
    _STATISTICS_TAGS            : BPS DURATION NUMBER_OF_FRAMES NUMBER_OF_BYTES
    
    Video
    ID                          : 1
    Format                      : AVC
    Format/Info                 : Advanced Video Codec
    Format profile              : [email protected]
    Format settings, CABAC      : Yes
    Format settings, ReFrames   : 4 frames
    Codec ID                    : V_MPEG4/ISO/AVC
    Duration                    : 26mn 53s
    Bit rate                    : 10.3 Mbps
    Width                       : 1 920 pixels
    Height                      : 1 080 pixels
    Display aspect ratio        : 16:9
    Frame rate mode             : Constant
    Frame rate                  : 23.976 fps
    Color space                 : YUV
    Chroma subsampling          : 4:2:0
    Bit depth                   : 8 bits
    Scan type                   : Progressive
    Bits/(Pixel*Frame)          : 0.207
    Stream size                 : 1.93 GiB (85%)
    Title                       : by Filbo11
    Writing library             : x264 core 146 r2538 121396c
    Encoding settings           : cabac=1 / ref=4 / deblock=1:0:0 / analyse=0x3:0x113 / me=umh / subme=8 / psy=1 / psy_rd=1.00:0.00 / mixed_ref=1 / me_range=16 / chroma_me=1 / trellis=1 / 8x8dct=1 / cqm=0 / deadzone=21,11 / fast_pskip=1 / chroma_qp_offset=-2 / threads=6 / lookahead_threads=2 / sliced_threads=0 / nr=0 / decimate=1 / interlaced=0 / bluray_compat=0 / constrained_intra=0 / bframes=8 / b_pyramid=2 / b_adapt=2 / b_bias=0 / direct=3 / weightb=1 / open_gop=0 / weightp=2 / keyint=250 / keyint_min=23 / scenecut=40 / intra_refresh=0 / rc_lookahead=50 / rc=crf / mbtree=1 / crf=16.0 / qcomp=0.60 / qpmin=0 / qpmax=69 / qpstep=4 / ip_ratio=1.40 / aq=1:1.00
    Default                     : Yes
    Forced                      : No
    
    Audio #1
    ID                          : 2
    Format                      : DTS
    Format/Info                 : Digital Theater Systems
    Mode                        : 16
    Format settings, Endianness : Big
    Codec ID                    : A_DTS
    Duration                    : 26mn 53s
    Bit rate mode               : Constant
    Bit rate                    : 768 Kbps
    Channel(s)                  : 2 channels
    Channel positions           : Front: L R
    Sampling rate               : 48.0 KHz
    Bit depth                   : 16 bits
    Compression mode            : Lossy
    Stream size                 : 148 MiB (6%)
    Language                    : German
    Default                     : Yes
    Forced                      : No
    
    Audio #2
    ID                          : 3
    Format                      : DTS
    Format/Info                 : Digital Theater Systems
    Mode                        : 16
    Format settings, Endianness : Big
    Codec ID                    : A_DTS
    Duration                    : 26mn 53s
    Bit rate mode               : Constant
    Bit rate                    : 768 Kbps
    Channel(s)                  : 2 channels
    Channel positions           : Front: L R
    Sampling rate               : 48.0 KHz
    Bit depth                   : 16 bits
    Compression mode            : Lossy
    Stream size                 : 148 MiB (6%)
    Language                    : Japanese
    Default                     : No
    Forced                      : No
    
    Text #1
    ID                          : 4
    Format                      : ASS
    Codec ID                    : S_TEXT/ASS
    Codec ID/Info               : Advanced Sub Station Alpha
    Compression mode            : Lossless
    Title                       : OP & ED
    Language                    : German
    Default                     : Yes
    Forced                      : No
    
    Text #2
    ID                          : 5
    Format                      : ASS
    Codec ID                    : S_TEXT/ASS
    Codec ID/Info               : Advanced Sub Station Alpha
    Compression mode            : Lossless
    Title                       : full
    Language                    : German
    Default                     : No
    Forced                      : No
    
    Text #3
    ID                          : 6
    Format                      : PGS
    Muxing mode                 : zlib
    Codec ID                    : S_HDMV/PGS
    Codec ID/Info               : Picture based subtitle format used on BDs/HD-DVDs
    Title                       : full BD sub
    Language                    : German
    Default                     : No
    Forced                      : No
    
    Text #4
    ID                          : 7
    Format                      : PGS
    Muxing mode                 : zlib
    Codec ID                    : S_HDMV/PGS
    Codec ID/Info               : Picture based subtitle format used on BDs/HD-DVDs
    Title                       : OP & ED BD sub
    Language                    : German
    Default                     : No
    Forced                      : No
    
    Menu
    00:00:00.000                : en:Opening
    00:01:40.070                : en:Opening song
    00:03:09.840                : en:Part A
    00:13:50.450                : en:Part B
    00:25:08.460                : en:Ending
    00:26:35.610                : en:Preview


    720p AC3 Special
    Code:
    General
    
    Complete name               : [FB] High School DxD New [SP01] (BD 720p x264 AC3).mkv
    Format                      : Matroska
    Format version              : Version 4 / Version 2
    File size                   : 121 MiB
    Duration                    : 4mn 9s
    Overall bit rate            : 4 084 Kbps
    Movie name                  : [FB] High School DxD New [SP01]
    Encoded date                : UTC 2015-08-04 19:50:08
    Writing application         : mkvmerge v8.2.0 ('World of Adventure') 64bit
    Writing library             : libebml v1.3.1 + libmatroska v1.4.2
    DURATION                    : 00:03:54.067000000
    NUMBER_OF_FRAMES            : 180
    NUMBER_OF_BYTES             : 650266
    _STATISTICS_WRITING_APP     : mkvmerge v8.2.0 ('World of Adventure') 64bit
    _STATISTICS_WRITING_DATE_UT : 2015-08-04 19:50:08
    _STATISTICS_TAGS            : BPS DURATION NUMBER_OF_FRAMES NUMBER_OF_BYTES
    
    Video
    ID                          : 1
    Format                      : AVC
    Format/Info                 : Advanced Video Codec
    Format profile              : [email protected]
    Format settings, CABAC      : Yes
    Format settings, ReFrames   : 12 frames
    Codec ID                    : V_MPEG4/ISO/AVC
    Duration                    : 4mn 9s
    Bit rate                    : 3 107 Kbps
    Width                       : 1 280 pixels
    Height                      : 720 pixels
    Display aspect ratio        : 16:9
    Frame rate mode             : Constant
    Frame rate                  : 23.976 fps
    Color space                 : YUV
    Chroma subsampling          : 4:2:0
    Bit depth                   : 8 bits
    Scan type                   : Progressive
    Bits/(Pixel*Frame)          : 0.141
    Stream size                 : 92.3 MiB (76%)
    Title                       : by Filbo11
    Writing library             : x264 core 146 r2538 121396c
    Encoding settings           : cabac=1 / ref=12 / deblock=1:0:0 / analyse=0x3:0x113 / me=umh / subme=8 / psy=1 / psy_rd=1.00:0.00 / mixed_ref=1 / me_range=16 / chroma_me=1 / trellis=1 / 8x8dct=1 / cqm=0 / deadzone=21,11 / fast_pskip=1 / chroma_qp_offset=-2 / threads=6 / lookahead_threads=2 / sliced_threads=0 / nr=0 / decimate=1 / interlaced=0 / bluray_compat=0 / constrained_intra=0 / bframes=8 / b_pyramid=2 / b_adapt=2 / b_bias=0 / direct=3 / weightb=1 / open_gop=0 / weightp=2 / keyint=250 / keyint_min=23 / scenecut=40 / intra_refresh=0 / rc_lookahead=50 / rc=crf / mbtree=1 / crf=16.0 / qcomp=0.60 / qpmin=0 / qpmax=69 / qpstep=4 / ip_ratio=1.40 / aq=1:1.00
    Default                     : Yes
    Forced                      : No
    
    Audio #1
    ID                          : 2
    Format                      : AC-3
    Format/Info                 : Audio Coding 3
    Mode extension              : CM (complete main)
    Format settings, Endianness : Big
    Codec ID                    : A_AC3
    Duration                    : 4mn 9s
    Bit rate mode               : Constant
    Bit rate                    : 448 Kbps
    Channel(s)                  : 2 channels
    Channel positions           : Front: L R
    Sampling rate               : 48.0 KHz
    Compression mode            : Lossy
    Stream size                 : 13.3 MiB (11%)
    Language                    : German
    Default                     : Yes
    Forced                      : No
    
    Audio #2
    ID                          : 3
    Format                      : AC-3
    Format/Info                 : Audio Coding 3
    Mode extension              : CM (complete main)
    Format settings, Endianness : Big
    Codec ID                    : A_AC3
    Duration                    : 4mn 9s
    Bit rate mode               : Constant
    Bit rate                    : 448 Kbps
    Channel(s)                  : 2 channels
    Channel positions           : Front: L R
    Sampling rate               : 48.0 KHz
    Compression mode            : Lossy
    Stream size                 : 13.3 MiB (11%)
    Language                    : Japanese
    Default                     : No
    Forced                      : No
    
    Text #1
    ID                          : 4
    Format                      : PGS
    Muxing mode                 : zlib
    Codec ID                    : S_HDMV/PGS
    Codec ID/Info               : Picture based subtitle format used on BDs/HD-DVDs
    Language                    : German
    Default                     : Yes
    Forced                      : No
    
    Text #2
    ID                          : 5
    Format                      : PGS
    Muxing mode                 : zlib
    Codec ID                    : S_HDMV/PGS
    Codec ID/Info               : Picture based subtitle format used on BDs/HD-DVDs
    Title                       : full
    Language                    : German
    Default                     : No
    Forced                      : No


    1080p DTS Special
    Code:
    General
    Complete name               : [FB] High School DxD New [SP01] (BD 1080p x264 DTS).mkv
    Format                      : Matroska
    Format version              : Version 4 / Version 2
    File size                   : 354 MiB
    Duration                    : 4mn 9s
    Overall bit rate            : 11.9 Mbps
    Movie name                  : [FB] High School DxD New [SP01]
    Encoded date                : UTC 2015-08-04 19:44:28
    Writing application         : mkvmerge v8.2.0 ('World of Adventure') 64bit
    Writing library             : libebml v1.3.1 + libmatroska v1.4.2
    DURATION                    : 00:03:54.067000000
    NUMBER_OF_FRAMES            : 14
    NUMBER_OF_BYTES             : 46698
    _STATISTICS_WRITING_APP     : mkvmerge v8.2.0 ('World of Adventure') 64bit
    _STATISTICS_WRITING_DATE_UT : 2015-08-04 19:44:28
    _STATISTICS_TAGS            : BPS DURATION NUMBER_OF_FRAMES NUMBER_OF_BYTES
    
    Video
    ID                          : 1
    Format                      : AVC
    Format/Info                 : Advanced Video Codec
    Format profile              : [email protected]
    Format settings, CABAC      : Yes
    Format settings, ReFrames   : 4 frames
    Codec ID                    : V_MPEG4/ISO/AVC
    Duration                    : 4mn 9s
    Bit rate                    : 10.1 Mbps
    Width                       : 1 920 pixels
    Height                      : 1 080 pixels
    Display aspect ratio        : 16:9
    Frame rate mode             : Constant
    Frame rate                  : 23.976 fps
    Color space                 : YUV
    Chroma subsampling          : 4:2:0
    Bit depth                   : 8 bits
    Scan type                   : Progressive
    Bits/(Pixel*Frame)          : 0.204
    Stream size                 : 301 MiB (85%)
    Title                       : by Filbo11
    Writing library             : x264 core 146 r2538 121396c
    Encoding settings           : cabac=1 / ref=4 / deblock=1:0:0 / analyse=0x3:0x113 / me=umh / subme=8 / psy=1 / psy_rd=1.00:0.00 / mixed_ref=1 / me_range=16 / chroma_me=1 / trellis=1 / 8x8dct=1 / cqm=0 / deadzone=21,11 / fast_pskip=1 / chroma_qp_offset=-2 / threads=6 / lookahead_threads=2 / sliced_threads=0 / nr=0 / decimate=1 / interlaced=0 / bluray_compat=0 / constrained_intra=0 / bframes=8 / b_pyramid=2 / b_adapt=2 / b_bias=0 / direct=3 / weightb=1 / open_gop=0 / weightp=2 / keyint=250 / keyint_min=23 / scenecut=40 / intra_refresh=0 / rc_lookahead=50 / rc=crf / mbtree=1 / crf=16.0 / qcomp=0.60 / qpmin=0 / qpmax=69 / qpstep=4 / ip_ratio=1.40 / aq=1:1.00
    Default                     : Yes
    Forced                      : No
    
    Audio #1
    ID                          : 2
    Format                      : DTS
    Format/Info                 : Digital Theater Systems
    Mode                        : 16
    Format settings, Endianness : Big
    Codec ID                    : A_DTS
    Duration                    : 4mn 9s
    Bit rate mode               : Constant
    Bit rate                    : 768 Kbps
    Channel(s)                  : 2 channels
    Channel positions           : Front: L R
    Sampling rate               : 48.0 KHz
    Bit depth                   : 16 bits
    Compression mode            : Lossy
    Stream size                 : 22.8 MiB (6%)
    Language                    : German
    Default                     : Yes
    Forced                      : No
    
    Audio #2
    ID                          : 3
    Format                      : DTS
    Format/Info                 : Digital Theater Systems
    Mode                        : 16
    Format settings, Endianness : Big
    Codec ID                    : A_DTS
    Duration                    : 4mn 9s
    Bit rate mode               : Constant
    Bit rate                    : 768 Kbps
    Channel(s)                  : 2 channels
    Channel positions           : Front: L R
    Sampling rate               : 48.0 KHz
    Bit depth                   : 16 bits
    Compression mode            : Lossy
    Stream size                 : 22.8 MiB (6%)
    Language                    : Japanese
    Default                     : No
    Forced                      : No
    
    Text #1
    ID                          : 4
    Format                      : PGS
    Muxing mode                 : zlib
    Codec ID                    : S_HDMV/PGS
    Codec ID/Info               : Picture based subtitle format used on BDs/HD-DVDs
    Language                    : German
    Default                     : Yes
    Forced                      : No
    
    Text #2
    ID                          : 5
    Format                      : PGS
    Muxing mode                 : zlib
    Codec ID                    : S_HDMV/PGS
    Codec ID/Info               : Picture based subtitle format used on BDs/HD-DVDs
    Title                       : full
    Language                    : German
    Default                     : No
    Forced                      : No


    Alle Mirrors untereinander kompatibel
    Folgen einzeln ladbar
    Folge 12/12 online + 6/6 Special

    Ich bitte euch dieses Projekt von mir NICHT zu reuppen (keine Mirrors).


    Download

    Geschützter Bereich - Bedanke dich beim Poster, um den Bereich sehen zu können
    Hier erfährst Du wie Du Dich bedanken kannst oder werde jetzt Premium Mitglied ab einer Spende von 5€ und erhalte sofortigen Zugriff auf den Downloadbereich!


    Geändert von Filbo11 (5. October 2015 um 09:39 Uhr) Grund: folge 10, 11 & 12 1080p AC3 hinzugefügt

    [Links sind nur für registrierte und aktivierte Nutzer sichtbar. Klicke hier um dich zu registrieren.]

    Ich wäre allen sehr dankbar, die mir gravierende Fehler in meinen Releases per PN melden

  2. 183 Benutzer sagen Danke:

    Anzeigen

    1234Ace1234 (10. September 2015),acer25 (4. October 2015),Alex_13 (21. August 2015),Aluaran (7. July 2015),Alucard1412 (9. February 2016),AnimeGuy69 (14. August 2015),Anuy (11. July 2016),Asuka Langley (11. September 2015),B4c4rd1 (3. September 2015),BANDIMO (14. September 2015),basdi (10. February 2016),bayerle92 (9. September 2015),beckiiyy1 (4. October 2015),Benebastler (22. November 2015),Besen 48 (8. August 2015),BlackDragon333 (29. August 2015),BlackPhoenix (9. July 2015),BlackReaper (7. July 2015),blitzman1977 (7. July 2015),Brumme (10. October 2015),brunsdumm (5. August 2015),Buze (22. August 2015),Cande (10. August 2015),Chakuzza127 (9. January 2016),Chaosdragon (5. October 2015),Chillasedi (8. August 2015),chopper23 (14. July 2015),Cloud002 (19. July 2015),cooliero (30. September 2016),crowd (19. August 2015),curse2302 (7. July 2015),dacheff (18. August 2015),Darkweber40 (11. October 2015),Darkwowan (7. July 2015),Darth Affe (20. August 2016),DarthToast (11. September 2015),DBounce (8. January 2016),DedSec (7. October 2015),Der Doctor (15. August 2015),DerP0LE (8. October 2015),Direnbander (11. September 2015),dr_fist (11. November 2015),Ecel (8. July 2015),egon1212 (8. August 2015),ElfenLied (15. September 2015),enfii (9. July 2015),Enirito (4. December 2015),Exede (11. August 2015),FairySlay (17. October 2015),Feindsender (2. April 2016),Fireball207 (9. July 2015),Flint (23. December 2015),Flyer (9. July 2015),foxtrot (4. October 2015),freakwatcher (13. August 2015),Gatti1983 (9. August 2015),gdsatan (5. September 2015),Gebbi (4. August 2015),Ghostraven (1. August 2016),graythunder (11. March 2016),Guvi (18. August 2015),Haatho7 (18. October 2015),haftting (7. December 2015),hamel (25. July 2015),Hamsterr (21. July 2015),HappySuicide (30. May 2016),hausl (8. July 2015),helloplaya (23. July 2016),herrntod (11. October 2015),HorstEvers (6. September 2015),Hououin Kyouma (20. August 2015),HybridTech (24. July 2015),JCD (10. April 2016),jetjojo (25. October 2015),Jeycop (29. November 2015),Junns (31. March 2016),Kaan- (2. May 2016),keku (10. July 2015),kenschi (24. September 2016),KeXiuS (6. August 2015),killer7977 (25. September 2015),Kinasix (8. July 2015),kinghol (9. July 2015),Kirdock (9. April 2016),KuraikoSayo (6. April 2016),Kuso (23. June 2016),La-Jumper (27. February 2016),lfsxtreme (14. October 2016),louizz10 (4. October 2015),Lyres (12. October 2015),Mahlzeit (10. October 2015),mar3el (30. November 2015),Max13493 (8. July 2015),McZeRo (1. June 2016),meyer (16. August 2015),midnighter (7. July 2015),Miharu (4. October 2015),misterdsl (19. August 2015),Monkey (20. January 2016),Mr.Classic (28. October 2015),Multiking (14. April 2016),MX-sk (15. August 2015),mytamorph (6. August 2015),naban (9. October 2015),nanaki88 (12. May 2016),Necronomikon (3. November 2015),NeefBenriya (19. September 2016),neon (11. December 2015),Nephalis (16. January 2016),nixdaok (3. October 2015),noizmaker (15. July 2015),norby (3. October 2015),Nyarlathothep (9. September 2015),Pipsargen (9. October 2015),Praxas (7. July 2015),PrinzDarknis (6. May 2016),Pure (24. August 2015),qsywax (12. August 2015),Ramirez (5. October 2015),Rauca_inactive (10. July 2015),Raziel (17. September 2015),Regi (16. February 2016),riezik (13. July 2015),Rin58 (17. September 2015),rinnegan93 (12. November 2016),rofler86 (6. August 2015),Ronae (16. August 2015),Roxas-chan (2. October 2015),RuFFy19 (9. March 2016),ruffy1989 (23. November 2015),RyuLelouch (3. November 2015),SandStein (19. October 2015),saron (15. October 2015),Sasuke (4. February 2016),sativa (19. December 2015),schaluppe (19. January 2016),Schumi2405 (13. October 2015),Schweigi (1. August 2015),Scrappedmaster (15. January 2016),Seishin (9. October 2015),Sekiryuutei (23. April 2016),shawn10398 (16. September 2015),Shinigami1337 (25. May 2016),Shinu Luna (21. November 2015),shorteh (10. September 2015),Sildurias (1. November 2015),SilverSurferGT.de (25. November 2015),Simon Jack (11. August 2015),Skeletti (16. October 2015),Skelot (24. September 2016),Smasher25 (29. February 2016),Smitecrawler (20. March 2016),snapster (16. September 2015),songucku (5. August 2015),SONNYxq (13. July 2015),Spotix (17. October 2015),staxru (31. July 2016),Stoneman (6. February 2016),Sylux (25. September 2015),TakashiKudo (10. July 2016),Tana-kun (3. December 2015),Tarlysin (13. July 2015),Tevion32 (1. February 2016),th3cr0w (3. January 2016),The Killer for Two (18. June 2016),thomas (31. December 2015),Tobi-idoT (9. July 2016),tohotono1987 (26. August 2015),TrUnkO (11. July 2015),Tzi (18. August 2015),Virgel (28. June 2016),visor (27. August 2015),VoidOfGalaxy (17. August 2015),Wides (9. July 2015),Windwusel (26. December 2015),WolfsBlade (30. August 2015),Xerx3s (4. May 2016),xhellsingx (15. October 2015),xRei (26. September 2016),xXBaaMXx (9. January 2016),Zetsu (31. October 2015),Zuckerpuppe (6. September 2015)

  3. #2
    Uploader Avatar von Filbo11
    Registriert seit
    Jan 2015
    Beiträge
    931
    Punkte
    17.281
    Errungenschaften:
    TomodachisErste Gruppe1 Jahr registriertCreated Album picturesTagger First Class

    AW: High School DxD New [Ger-Jap-Dub][Ger-Sub][DTS][1080p][BluRay]

    folge 2 hinzugefügt

    Info: folge 3 ist schon in arbeit und kommt dann morgen abend

    [Links sind nur für registrierte und aktivierte Nutzer sichtbar. Klicke hier um dich zu registrieren.]

    Ich wäre allen sehr dankbar, die mir gravierende Fehler in meinen Releases per PN melden

  4. 2 Benutzer sagen Danke:

    Virgel (28. June 2016),Wides (9. July 2015)

  5. #3
    Uploader Avatar von Filbo11
    Registriert seit
    Jan 2015
    Beiträge
    931
    Punkte
    17.281
    Errungenschaften:
    TomodachisErste Gruppe1 Jahr registriertCreated Album picturesTagger First Class

    AW: High School DxD New [Ger-Jap-Dub][Ger-Sub][DTS][1080p][BluRay]

    folge 3 hinzugefügt

    [Links sind nur für registrierte und aktivierte Nutzer sichtbar. Klicke hier um dich zu registrieren.]

    Ich wäre allen sehr dankbar, die mir gravierende Fehler in meinen Releases per PN melden

  6. 1 Benutzer sagt Danke:

    Virgel (28. June 2016)

  7. #4
    Uploader Avatar von Filbo11
    Registriert seit
    Jan 2015
    Beiträge
    931
    Punkte
    17.281
    Errungenschaften:
    TomodachisErste Gruppe1 Jahr registriertCreated Album picturesTagger First Class

    AW: High School DxD New [Ger-Jap-Dub][Ger-Sub][AC3/DTS][720p/1080p][BluRay]

    folge 4 in 1080p AC3 & DTS hinzugefügt + 2 Special

    folge 4, 5 & 6 720p kommt wenn ich folge 5 & 6 in 1080p online habe
    Geändert von Filbo11 (5. August 2015 um 01:59 Uhr)

    [Links sind nur für registrierte und aktivierte Nutzer sichtbar. Klicke hier um dich zu registrieren.]

    Ich wäre allen sehr dankbar, die mir gravierende Fehler in meinen Releases per PN melden

  8. 3 Benutzer sagen Danke:

    jetjojo (24. October 2015),songucku (5. August 2015),Virgel (28. June 2016)

  9. #5
    Uploader Avatar von Filbo11
    Registriert seit
    Jan 2015
    Beiträge
    931
    Punkte
    17.281
    Errungenschaften:
    TomodachisErste Gruppe1 Jahr registriertCreated Album picturesTagger First Class

    AW: High School DxD New +Special [Ger-Jap-Dub][Ger-Sub][AC3/DTS][720p/1080p][BluRay]

    folge 5 & 6 1080p AC3 & DTS hinzugefügt

    Die Folge 5 hat nur die Subs von der Blu-Ray, denn die Subs von Pantsu, die ich als Vorlage benutze, dort das Timing nicht hinhaut, werde ich versuchen es alles noch mal neu zu timen aber ich kann nicht sagen wann und wie lange es dauert, die fertig zubekommen.

    [Links sind nur für registrierte und aktivierte Nutzer sichtbar. Klicke hier um dich zu registrieren.]

    Ich wäre allen sehr dankbar, die mir gravierende Fehler in meinen Releases per PN melden

  10. 1 Benutzer sagt Danke:

    Virgel (28. June 2016)

  11. #6
    Uploader Avatar von Filbo11
    Registriert seit
    Jan 2015
    Beiträge
    931
    Punkte
    17.281
    Errungenschaften:
    TomodachisErste Gruppe1 Jahr registriertCreated Album picturesTagger First Class

    AW: High School DxD New +Special [Ger-Jap-Dub][Ger-Sub][AC3/DTS][720p/1080p][BluRay]

    folge 7, 8 & 9 1080p DTS + SPecial 3 & 4 1080p DTS hinzugefügt

    bei folge 7 (nur mit BD sub) gibt es das gleiche probleme wie bei folge 5.

    die 720p und 1080p AC3 folgen in kürze verfügbar

    e/

    folge 7, 8 & 9 720p & 1080p AC3 + SPecial 3 & 4 720p AC3 hinzugefügt
    Geändert von Filbo11 (7. September 2015 um 16:06 Uhr)

    [Links sind nur für registrierte und aktivierte Nutzer sichtbar. Klicke hier um dich zu registrieren.]

    Ich wäre allen sehr dankbar, die mir gravierende Fehler in meinen Releases per PN melden

  12. 2 Benutzer sagen Danke:

    jetjojo (25. October 2015),Virgel (28. June 2016)

  13. #7
    Uploader Avatar von Filbo11
    Registriert seit
    Jan 2015
    Beiträge
    931
    Punkte
    17.281
    Errungenschaften:
    TomodachisErste Gruppe1 Jahr registriertCreated Album picturesTagger First Class

    AW: High School DxD New +Special [Ger-Jap-Dub][Ger-Sub][AC3/DTS][720p/1080p][BluRay] - FB

    folge 10, 11 & 12 + Special 5 & 6 hinzugefügt somit komplett

    bei folge 11 (nur mit BD sub) gibt es das gleiche Problem wie bei folge 5 & 7.

    1080p AC3 wird morgen oder am Montag online sein

    [Links sind nur für registrierte und aktivierte Nutzer sichtbar. Klicke hier um dich zu registrieren.]

    Ich wäre allen sehr dankbar, die mir gravierende Fehler in meinen Releases per PN melden

  14. 2 Benutzer sagen Danke:

    jetjojo (24. October 2015),Virgel (28. June 2016)

Stichworte

Lesezeichen

Berechtigungen

  • Neue Themen erstellen: Nein
  • Themen beantworten: Nein
  • Anhänge hochladen: Nein
  • Beiträge bearbeiten: Nein
  •  

1 2 3 4 5 6 7 8 9 10 11 12 13 14 15 16 17 18 19 20 21 22 23 24 25 26 27 28 29 30 31 32 33 34 35 36 37 38 39 40 41 42 43 44 45 46 47 48 49 50 51 52 53 54 55 56 57 58 59 60 61 62 63 64 65 66 67 68 69 70 71 72 73 74 75 76 77 78 79 80 81 82 83 84 85 86 87 88 89 90 91 92 93 94 95 96 97 98 99 100 101 102 103 104 105 106 107 108 109 110 111 112 113 114 115 116 117 118 119 120 121 122 123 124 125 126 127 128 129 130 131 132 133 134 135 136 137 138 139 140 141 142 143 144 145 146 147 148 149 150 151 152 153 154 155 156 157 158