Ergebnis 1 bis 2 von 2

Thema: Hyakka Ryouran: Samurai Bride - Samurai Girls 2 + Special (S2) [Ger-Jap-Dub][Ger-Sub][1080p][BluRay] - TvR

Dieser Thread wurde noch nicht bewertet. Bewerte ihn doch, wenn er dir gefällt!
  1. #1
    United we Stand Avatar von 00Ryuji00
    Registriert seit
    Oct 2012
    Beiträge
    3.902
    Punkte
    100.019
    Errungenschaften:
    TomodachisGang LeaderHikikomoriTagger Amateur50000 Erfahrungspunkte

    Hyakka Ryouran: Samurai Bride - Samurai Girls 2 + Special (S2) [Ger-Jap-Dub][Ger-Sub][1080p][BluRay] - TvR

    Hyakka Ryouran: Samurai Bride
    百花繚乱 サムライブライド
    Samurai Bride
    Samurai Girls 2: Samurai Bride



    Kurzbeschreibung:
    Dies ist die zweite Staffel von Hyakka Ryouran.

    Wir schreiben das 21. Jahrhundert. Das Tokugawa Shogunat hat nie seine Macht verloren und Japan blieb ein vom Rest der Welt abgeschotteter Staat. Nachdem Muneakira zusammen mit seinen Samurai Masters Japan vor dem Untergang beschützen konnte, ging jener fort, um zu trainieren. Als er ein halbes Jahr später wieder zurückkehrt, muss er sich nun zusammen mit seinen Freunden erneut fürchterlichen Gegnern entgegenstellen, die sich selbst als „Dark Samurais“ bezeichnen. Das Problem dabei: Juubeis zweites Ich ist verschwunden.
    Sprache: Deutsch, Japanisch
    Untertitel: Deutsch
    Spieldauer: ~ 24min
    Größe: ~ 1,1-1,2GB + 120MB
    Episodenanzahl: 12/12 + 6/6
    Format: .mkv
    Auflösung: 1080p (1916x1080, 16:9)
    Codec: x264, DTS/AC-3
    Gruppe: TvR
    Hoster: Uploaded, Share-Online

    Datei-Info.:
    Spoiler
    Staffel
    Code:
    Format                                   : Matroska
    Format version                           : Version 4 / Version 2
    File size                                : 1.15 GiB
    Duration                                 : 23mn 43s
    Overall bit rate                         : 6 936 Kbps
    Encoded date                             : UTC 2015-01-14 09:14:30
    Writing application                      : mkvmerge v7.5.0 ('Glass Culture') 64bit built on Jan  4 2015 16:48:44
    Writing library                          : libebml v1.3.1 + libmatroska v1.4.2
    Attachment                               : Yes
    
    Video
    ID                                       : 1
    Format                                   : AVC
    Format/Info                              : Advanced Video Codec
    Format profile                           : [email protected]
    Format settings, CABAC                   : Yes
    Format settings, ReFrames                : 4 frames
    Codec ID                                 : V_MPEG4/ISO/AVC
    Duration                                 : 23mn 43s
    Bit rate                                 : 5 950 Kbps
    Width                                    : 1 916 pixels
    Height                                   : 1 080 pixels
    Display aspect ratio                     : 16:9
    Frame rate mode                          : Constant
    Frame rate                               : 23.976 fps
    Color space                              : YUV
    Chroma subsampling                       : 4:2:0
    Bit depth                                : 8 bits
    Scan type                                : Progressive
    Bits/(Pixel*Frame)                       : 0.120
    Stream size                              : 990 MiB (84%)
    Title                                    : Samurai Girls 2: Samurai Bride - S02E01 - Maid Café
    Writing library                          : x264 core 138 r2358 9e941d1
    Encoding settings                        : cabac=1 / ref=4 / deblock=1:-1:-1 / analyse=0x3:0x113 / me=umh / subme=10 / psy=1 / psy_rd=1.20:0.00 / mixed_ref=1 / me_range=32 / chroma_me=1 / trellis=2 / 8x8dct=1 / cqm=0 / deadzone=21,11 / fast_pskip=1 / chroma_qp_offset=-2 / threads=12 / lookahead_threads=1 / sliced_threads=0 / nr=0 / decimate=0 / interlaced=0 / bluray_compat=0 / constrained_intra=0 / bframes=5 / b_pyramid=2 / b_adapt=2 / b_bias=0 / direct=3 / weightb=1 / open_gop=0 / weightp=2 / keyint=240 / keyint_min=23 / scenecut=40 / intra_refresh=0 / rc_lookahead=50 / rc=2pass / mbtree=1 / bitrate=5950 / ratetol=1.0 / qcomp=0.80 / qpmin=10 / qpmax=51 / qpstep=4 / cplxblur=20.0 / qblur=0.5 / vbv_maxrate=38000 / vbv_bufsize=38000 / nal_hrd=none / ip_ratio=1.20 / aq=1:0.60
    Language                                 : English
    Default                                  : Yes
    Forced                                   : No
    
    Audio #1
    ID                                       : 2
    Format                                   : DTS
    Format/Info                              : Digital Theater Systems
    Mode                                     : 16
    Format settings, Endianness              : Big
    Codec ID                                 : A_DTS
    Duration                                 : 23mn 43s
    Bit rate mode                            : Constant
    Bit rate                                 : 768 Kbps
    Channel count                            : 2 channels
    Channel positions                        : Front: L R
    Sampling rate                            : 48.0 KHz
    Bit depth                                : 24 bits
    Compression mode                         : Lossy
    Stream size                              : 130 MiB (11%)
    Title                                    : DTS 2.0 @ 768 kbps
    Language                                 : German
    Default                                  : Yes
    Forced                                   : No
    
    Audio #2
    ID                                       : 3
    Format                                   : AC-3
    Format/Info                              : Audio Coding 3
    Mode extension                           : CM (complete main)
    Format settings, Endianness              : Big
    Codec ID                                 : A_AC3
    Duration                                 : 23mn 43s
    Bit rate mode                            : Constant
    Bit rate                                 : 192 Kbps
    Channel count                            : 2 channels
    Channel positions                        : Front: L R
    Sampling rate                            : 48.0 KHz
    Bit depth                                : 16 bits
    Compression mode                         : Lossy
    Stream size                              : 32.6 MiB (3%)
    Title                                    : AC3 2.0 @ 192 kbps
    Language                                 : Japanese
    Default                                  : No
    Forced                                   : No
    
    Text #1
    ID                                       : 4
    Format                                   : PGS
    Muxing mode                              : zlib
    Codec ID                                 : S_HDMV/PGS
    Codec ID/Info                            : The same subtitle format used on BDs/HD-DVDs
    Title                                    : Forced PGS
    Language                                 : German
    Default                                  : Yes
    Forced                                   : Yes
    
    Text #2
    ID                                       : 5
    Format                                   : VobSub
    Muxing mode                              : zlib
    Codec ID                                 : S_VOBSUB
    Codec ID/Info                            : The same subtitle format used on DVDs
    Title                                    : Forced VobSub
    Language                                 : German
    Default                                  : No
    Forced                                   : Yes
    
    Text #3
    ID                                       : 6
    Format                                   : PGS
    Muxing mode                              : zlib
    Codec ID                                 : S_HDMV/PGS
    Codec ID/Info                            : The same subtitle format used on BDs/HD-DVDs
    Default                                  : No
    Forced                                   : No
    
    Text #4
    ID                                       : 7
    Format                                   : VobSub
    Muxing mode                              : zlib
    Codec ID                                 : S_VOBSUB
    Codec ID/Info                            : The same subtitle format used on DVDs
    Title                                    : Full VobSub
    Language                                 : German
    Default                                  : No
    Forced                                   : No
    
    Menu
    00:00:00.000                             : en:00:00:00.000
    00:09:22.061                             : en:00:09:22.061
    00:21:34.543                             : en:00:21:34.543
    00:23:11.390                             : en:00:23:11.390
    
    OVA
    Code:
    Format                                   : Matroska
    Format version                           : Version 4 / Version 2
    File size                                : 125 MiB
    Duration                                 : 2mn 44s
    Overall bit rate                         : 6 365 Kbps
    Encoded date                             : UTC 2015-01-14 09:14:15
    Writing application                      : mkvmerge v7.5.0 ('Glass Culture') 64bit built on Jan  4 2015 16:48:44
    Writing library                          : libebml v1.3.1 + libmatroska v1.4.2
    Attachment                               : Yes
    
    Video
    ID                                       : 1
    Format                                   : AVC
    Format/Info                              : Advanced Video Codec
    Format profile                           : [email protected]
    Format settings, CABAC                   : Yes
    Format settings, ReFrames                : 4 frames
    Codec ID                                 : V_MPEG4/ISO/AVC
    Duration                                 : 2mn 44s
    Bit rate                                 : 5 419 Kbps
    Width                                    : 1 916 pixels
    Height                                   : 1 080 pixels
    Display aspect ratio                     : 16:9
    Frame rate mode                          : Constant
    Frame rate                               : 23.976 fps
    Color space                              : YUV
    Chroma subsampling                       : 4:2:0
    Bit depth                                : 8 bits
    Scan type                                : Progressive
    Bits/(Pixel*Frame)                       : 0.109
    Stream size                              : 103 MiB (83%)
    Title                                    : Samurai Girls 2: Samurai Bride - S00E14 - Samurai Bride OVA 1 Sasuke und Musashi gehen baden
    Writing library                          : x264 core 138 r2358 9e941d1
    Encoding settings                        : cabac=1 / ref=4 / deblock=1:-1:-1 / analyse=0x3:0x113 / me=umh / subme=10 / psy=1 / psy_rd=1.20:0.00 / mixed_ref=1 / me_range=32 / chroma_me=1 / trellis=2 / 8x8dct=1 / cqm=0 / deadzone=21,11 / fast_pskip=1 / chroma_qp_offset=-2 / threads=12 / lookahead_threads=1 / sliced_threads=0 / nr=0 / decimate=0 / interlaced=0 / bluray_compat=0 / constrained_intra=0 / bframes=5 / b_pyramid=2 / b_adapt=2 / b_bias=0 / direct=3 / weightb=1 / open_gop=0 / weightp=2 / keyint=240 / keyint_min=23 / scenecut=40 / intra_refresh=0 / rc_lookahead=50 / rc=2pass / mbtree=1 / bitrate=5419 / ratetol=1.0 / qcomp=0.80 / qpmin=10 / qpmax=51 / qpstep=4 / cplxblur=20.0 / qblur=0.5 / vbv_maxrate=38000 / vbv_bufsize=38000 / nal_hrd=none / ip_ratio=1.20 / aq=1:0.60
    Language                                 : English
    Default                                  : Yes
    Forced                                   : No
    Color primaries                          : BT.709
    Transfer characteristics                 : BT.709
    Matrix coefficients                      : BT.709
    
    Audio #1
    ID                                       : 2
    Format                                   : DTS
    Format/Info                              : Digital Theater Systems
    Mode                                     : 16
    Format settings, Endianness              : Big
    Codec ID                                 : A_DTS
    Duration                                 : 2mn 44s
    Bit rate mode                            : Constant
    Bit rate                                 : 768 Kbps
    Channel count                            : 2 channels
    Channel positions                        : Front: L R
    Sampling rate                            : 48.0 KHz
    Bit depth                                : 24 bits
    Compression mode                         : Lossy
    Stream size                              : 15.0 MiB (12%)
    Title                                    : DTS 2.0 @ 768 kbps
    Language                                 : German
    Default                                  : Yes
    Forced                                   : No
    
    Audio #2
    ID                                       : 3
    Format                                   : AC-3
    Format/Info                              : Audio Coding 3
    Mode extension                           : CM (complete main)
    Format settings, Endianness              : Big
    Codec ID                                 : A_AC3
    Duration                                 : 2mn 44s
    Bit rate mode                            : Constant
    Bit rate                                 : 192 Kbps
    Channel count                            : 2 channels
    Channel positions                        : Front: L R
    Sampling rate                            : 48.0 KHz
    Bit depth                                : 16 bits
    Compression mode                         : Lossy
    Stream size                              : 3.76 MiB (3%)
    Title                                    : AC3 2.0 @ 192 kbps
    Language                                 : Japanese
    Default                                  : No
    Forced                                   : No
    
    Text #1
    ID                                       : 4
    Format                                   : PGS
    Muxing mode                              : zlib
    Codec ID                                 : S_HDMV/PGS
    Codec ID/Info                            : The same subtitle format used on BDs/HD-DVDs
    Title                                    : Forced PGS
    Language                                 : German
    Default                                  : Yes
    Forced                                   : Yes
    
    Text #2
    ID                                       : 5
    Format                                   : VobSub
    Muxing mode                              : zlib
    Codec ID                                 : S_VOBSUB
    Codec ID/Info                            : The same subtitle format used on DVDs
    Title                                    : Forced VobSub
    Language                                 : German
    Default                                  : No
    Forced                                   : Yes
    
    Text #3
    ID                                       : 6
    Format                                   : PGS
    Muxing mode                              : zlib
    Codec ID                                 : S_HDMV/PGS
    Codec ID/Info                            : The same subtitle format used on BDs/HD-DVDs
    Default                                  : No
    Forced                                   : No
    
    Text #4
    ID                                       : 7
    Format                                   : VobSub
    Muxing mode                              : zlib
    Codec ID                                 : S_VOBSUB
    Codec ID/Info                            : The same subtitle format used on DVDs
    Title                                    : Full VobSub
    Language                                 : German
    Default                                  : No
    Forced                                   : No
    




    Geschützter Bereich - Bedanke dich beim Poster, um den Bereich sehen zu können
    Hier erfährst Du wie Du Dich bedanken kannst oder werde jetzt Premium Mitglied ab einer Spende von 5€ und erhalte sofortigen Zugriff auf den Downloadbereich!
    Geändert von 00Ryuji00 (25. May 2016 um 13:36 Uhr)
    !!!Alle Anliegen bezüglich Uploads werden nur mit direktem Threadlink zum Angebot bearbeitet!!!

    Re-Uploadanfragen nur per PN - Ihr könnt mir auch Listen schicken

    Re-Uploads erfolgen meist innerhalb 24h, kann aber auch bis zu 7 Tage dauern

    [Links sind nur für registrierte und aktivierte Nutzer sichtbar. Klicke hier um dich zu registrieren.] | [Links sind nur für registrierte und aktivierte Nutzer sichtbar. Klicke hier um dich zu registrieren.] | >[Links sind nur für registrierte und aktivierte Nutzer sichtbar. Klicke hier um dich zu registrieren.]<
    [Links sind nur für registrierte und aktivierte Nutzer sichtbar. Klicke hier um dich zu registrieren.]

  2. 38 Benutzer sagen Danke:

    -tomcat- (9. August 2016),1Ranger (21. February 2016),Asuka Langley (16. July 2015),Belbo (7. August 2016),Bubblefish717 (14. October 2016),Bunyos (9. August 2016),chopper23 (8. August 2016),Creed008_inactive (29. July 2015),Darth Affe (14. November 2016),Ghostraven (27. September 2015),Gold_93 (21. February 2016),Kalchi (8. August 2016),knanime (18. August 2016),Lux49 (24. May 2016),Magikarp (17. October 2016),Manfred28 (8. August 2016),markusdamon5 (22. September 2016),MegaMacX (27. March 2016),MutationACE (31. August 2016),Nijazi2000 (4. September 2016),NLHTeddyNLH (29. September 2015),Otonashi Yuzuru (7. December 2015),Reaper41992 (17. June 2016),Ronae (12. August 2016),Scorns (16. May 2016),Shinon.Kagura (20. August 2016),SONNYxq (8. August 2016),Superzorro (10. August 2016),Sylux (28. January 2016),SystemS (10. August 2016),TheYoAsakura (7. September 2016),tompace (13. August 2016),Tschu23 (21. August 2016),Virgel (16. July 2015),Xidor (25. September 2015),xXBaaMXx (18. August 2016),Zarroc1 (23. July 2016),zoe#449 (4. October 2016)

  3. #2
    United we Stand Avatar von 00Ryuji00
    Registriert seit
    Oct 2012
    Beiträge
    3.902
    Punkte
    100.019
    Errungenschaften:
    TomodachisGang LeaderHikikomoriTagger Amateur50000 Erfahrungspunkte

    AW: Hyakka Ryouran: Samurai Bride - Samurai Girls 2 + Special (S2) [Ger-Jap-Dub][Ger-Sub][1080p][BluRay] - TvR

    Update: Dateien auf Wunsch wieder online.
    !!!Alle Anliegen bezüglich Uploads werden nur mit direktem Threadlink zum Angebot bearbeitet!!!

    Re-Uploadanfragen nur per PN - Ihr könnt mir auch Listen schicken

    Re-Uploads erfolgen meist innerhalb 24h, kann aber auch bis zu 7 Tage dauern

    [Links sind nur für registrierte und aktivierte Nutzer sichtbar. Klicke hier um dich zu registrieren.] | [Links sind nur für registrierte und aktivierte Nutzer sichtbar. Klicke hier um dich zu registrieren.] | >[Links sind nur für registrierte und aktivierte Nutzer sichtbar. Klicke hier um dich zu registrieren.]<
    [Links sind nur für registrierte und aktivierte Nutzer sichtbar. Klicke hier um dich zu registrieren.]

Lesezeichen

Berechtigungen

  • Neue Themen erstellen: Nein
  • Themen beantworten: Nein
  • Anhänge hochladen: Nein
  • Beiträge bearbeiten: Nein
  •  

1 2 3 4 5 6 7 8 9 10 11 12 13 14 15 16 17 18 19 20 21 22 23 24 25 26 27 28 29 30 31 32 33 34 35 36 37 38 39 40 41 42 43 44 45 46 47 48 49 50 51 52 53 54 55 56 57 58 59 60 61 62 63 64 65 66 67 68 69 70 71 72 73 74 75 76 77 78 79 80 81 82 83 84 85 86 87 88 89 90 91 92 93 94 95 96 97 98 99 100 101 102 103 104 105 106 107 108 109 110 111 112 113 114 115 116 117 118 119 120 121 122 123 124 125 126 127 128 129 130 131 132 133 134 135 136 137 138 139 140 141 142 143 144 145 146 147 148 149 150 151 152 153 154 155 156 157 158