Ergebnis 1 bis 3 von 3

Thema: Hyakka Ryouran: Samurai Girls + Special (S1) [Ger-Jap-Dub][Ger-Sub][1080p][BluRay] - TvR

Dieser Thread wurde noch nicht bewertet. Bewerte ihn doch, wenn er dir gefällt!
  1. #1
    United we Stand Avatar von 00Ryuji00
    Registriert seit
    Oct 2012
    Beiträge
    3.902
    Punkte
    99.909
    Errungenschaften:
    TomodachisGang LeaderHikikomoriTagger Amateur50000 Erfahrungspunkte

    Hyakka Ryouran: Samurai Girls + Special (S1) [Ger-Jap-Dub][Ger-Sub][1080p][BluRay] - TvR

    Hyakka Ryouran: Samurai Girls
    百花繚乱 サムライガールズ
    Samurai Girls



    Kurzbeschreibung:
    Wir schreiben das 21. Jahrhundert. Das Tokugawa Shogunat hat nie seine Macht verloren und Japan blieb ein vom Rest der Welt abgeschotteter Staat. An einer Schule für Kinder aus Militärfamilien sorgt der Schülerrat für die Unterdrückung aller rebellischen Elemente. Die Schülerinnen Yukimura Sanada und Matabei Goto kämpfen gegen die herrschenden Mitglieder des Schülerrates, bei denen es sich fast nur um Mädchen handelt, wie etwa Sen Tokugawa oder Hanzou Hattori. Der 16-jährige Muneakira Yagyuu sowie die Schülerin Juubei Yagyuu versuchen nun zwischen den Fronten zu bestehen.
    Sprache: Deutsch, Japanisch
    Untertitel: Deutsch
    Spieldauer: ~ 24min
    Größe: ~ 1,1-1,8GB + 120MB
    Episodenanzahl: 12/12 + 6/6
    Format: .mkv
    Auflösung: 1080p (1920x1080, 16:9)
    Codec: x264, DTS/AC-3
    Gruppe: TvR
    Hoster: Uploaded, Share-Online

    Datei-Info.:
    Spoiler
    Staffel
    Code:
    Format                                   : Matroska
    Format version                           : Version 2
    File size                                : 1.09 GiB
    Duration                                 : 23mn 10s
    Overall bit rate mode                    : Variable
    Overall bit rate                         : 6 738 Kbps
    Encoded date                             : UTC 2012-07-13 15:53:02
    Writing application                      : mkvmerge v3.4.0 ('Rapunzel') gebaut am May 15 2010 09:38:20
    Writing library                          : libebml v0.8.0 + libmatroska v0.9.0
    Attachment                               : Yes / Yes / Yes
    
    Video
    ID                                       : 1
    Format                                   : AVC
    Format/Info                              : Advanced Video Codec
    Format profile                           : [email protected]
    Format settings, CABAC                   : Yes
    Format settings, ReFrames                : 4 frames
    Codec ID                                 : V_MPEG4/ISO/AVC
    Duration                                 : 23mn 10s
    Nominal bit rate                         : 4 865 Kbps
    Width                                    : 1 920 pixels
    Height                                   : 1 080 pixels
    Display aspect ratio                     : 16:9
    Frame rate mode                          : Constant
    Frame rate                               : 23.976 fps
    Color space                              : YUV
    Chroma subsampling                       : 4:2:0
    Bit depth                                : 8 bits
    Scan type                                : Progressive
    Bits/(Pixel*Frame)                       : 0.098
    Title                                    : Samurai Girls - S01E01 - Der erste Kuss
    Writing library                          : x264 core 125 r2200 999b753
    Encoding settings                        : cabac=1 / ref=4 / deblock=1:-1:-1 / analyse=0x3:0x113 / me=umh / subme=10 / psy=1 / psy_rd=1.20:0.00 / mixed_ref=1 / me_range=32 / chroma_me=1 / trellis=2 / 8x8dct=1 / cqm=0 / deadzone=21,11 / fast_pskip=1 / chroma_qp_offset=-2 / threads=6 / lookahead_threads=1 / sliced_threads=0 / nr=0 / decimate=0 / interlaced=0 / bluray_compat=0 / constrained_intra=0 / bframes=5 / b_pyramid=2 / b_adapt=2 / b_bias=0 / direct=3 / weightb=1 / open_gop=0 / weightp=2 / keyint=240 / keyint_min=23 / scenecut=40 / intra_refresh=0 / rc_lookahead=50 / rc=2pass / mbtree=1 / bitrate=4865 / ratetol=1.0 / qcomp=0.80 / qpmin=10 / qpmax=51 / qpstep=4 / cplxblur=20.0 / qblur=0.5 / ip_ratio=1.20 / aq=1:0.60
    Language                                 : Japanese
    Default                                  : Yes
    Forced                                   : No
    
    Audio #1
    ID                                       : 2
    Format                                   : DTS
    Format/Info                              : Digital Theater Systems
    Format profile                           : MA / Core
    Mode                                     : 16
    Format settings, Endianness              : Big
    Codec ID                                 : A_DTS
    Duration                                 : 23mn 10s
    Bit rate mode                            : Variable
    Bit rate                                 : Unknown / 1 509 Kbps
    Channel count                            : 2 channels
    Channel positions                        : Front: L R
    Sampling rate                            : 48.0 KHz
    Bit depth                                : 16 bits
    Compression mode                         : Lossless / Lossy
    Title                                    : DTS-HD MA 2.0
    Language                                 : German
    Default                                  : Yes
    Forced                                   : No
    
    Audio #2
    ID                                       : 3
    Format                                   : AC-3
    Format/Info                              : Audio Coding 3
    Mode extension                           : CM (complete main)
    Format settings, Endianness              : Big
    Codec ID                                 : A_AC3
    Duration                                 : 23mn 10s
    Bit rate mode                            : Constant
    Bit rate                                 : 192 Kbps
    Channel count                            : 2 channels
    Channel positions                        : Front: L R
    Sampling rate                            : 48.0 KHz
    Bit depth                                : 16 bits
    Compression mode                         : Lossy
    Stream size                              : 31.8 MiB (3%)
    Title                                    : AC3 2.0 @ 192kbps
    Language                                 : Japanese
    Default                                  : No
    Forced                                   : No
    
    Text #1
    ID                                       : 4
    Format                                   : ASS
    Codec ID                                 : S_TEXT/ASS
    Codec ID/Info                            : Advanced Sub Station Alpha
    Compression mode                         : Lossless
    Title                                    : Forced ASS
    Language                                 : German
    Default                                  : Yes
    Forced                                   : Yes
    
    Text #2
    ID                                       : 5
    Format                                   : UTF-8
    Codec ID                                 : S_TEXT/UTF8
    Codec ID/Info                            : UTF-8 Plain Text
    Title                                    : Forced SRT
    Language                                 : German
    Default                                  : No
    Forced                                   : No
    
    Text #3
    ID                                       : 6
    Format                                   : ASS
    Codec ID                                 : S_TEXT/ASS
    Codec ID/Info                            : Advanced Sub Station Alpha
    Compression mode                         : Lossless
    Title                                    : Full ASS
    Language                                 : German
    Default                                  : No
    Forced                                   : No
    
    Menu
    00:00:00.000                             : en:Prolog
    00:02:11.113                             : en:Opening
    00:03:42.088                             : en:Main
    00:21:40.060                             : en:Ending
    
    OVA
    Code:
    Format                                   : Matroska
    Format version                           : Version 2
    File size                                : 121 MiB
    Duration                                 : 2mn 58s
    Overall bit rate                         : 5 694 Kbps
    Encoded date                             : UTC 2012-07-13 15:24:42
    Writing application                      : mkvmerge v3.4.0 ('Rapunzel') gebaut am May 15 2010 09:38:20
    Writing library                          : libebml v0.8.0 + libmatroska v0.9.0
    Attachment                               : Yes / Yes / Yes / Yes
    
    Video
    ID                                       : 1
    Format                                   : AVC
    Format/Info                              : Advanced Video Codec
    Format profile                           : [email protected]
    Format settings, CABAC                   : Yes
    Format settings, ReFrames                : 4 frames
    Codec ID                                 : V_MPEG4/ISO/AVC
    Duration                                 : 2mn 58s
    Bit rate                                 : 5 119 Kbps
    Width                                    : 1 920 pixels
    Height                                   : 1 080 pixels
    Display aspect ratio                     : 16:9
    Frame rate mode                          : Constant
    Frame rate                               : 23.976 fps
    Color space                              : YUV
    Chroma subsampling                       : 4:2:0
    Bit depth                                : 8 bits
    Scan type                                : Progressive
    Bits/(Pixel*Frame)                       : 0.103
    Stream size                              : 110 MiB (91%)
    Title                                    : Samurai Girls - S00E01 - OVA 01 - Jubei hat zwei Probleme
    Writing library                          : x264 core 125 r2200 999b753
    Encoding settings                        : cabac=1 / ref=4 / deblock=1:-1:-1 / analyse=0x3:0x113 / me=umh / subme=10 / psy=1 / psy_rd=1.20:0.00 / mixed_ref=1 / me_range=32 / chroma_me=1 / trellis=2 / 8x8dct=1 / cqm=0 / deadzone=21,11 / fast_pskip=1 / chroma_qp_offset=-2 / threads=6 / lookahead_threads=1 / sliced_threads=0 / nr=0 / decimate=0 / interlaced=0 / bluray_compat=0 / constrained_intra=0 / bframes=5 / b_pyramid=2 / b_adapt=2 / b_bias=0 / direct=3 / weightb=1 / open_gop=0 / weightp=2 / keyint=240 / keyint_min=23 / scenecut=40 / intra_refresh=0 / rc_lookahead=50 / rc=2pass / mbtree=1 / bitrate=5119 / ratetol=1.0 / qcomp=0.80 / qpmin=10 / qpmax=51 / qpstep=4 / cplxblur=20.0 / qblur=0.5 / ip_ratio=1.20 / aq=1:0.60
    Language                                 : Japanese
    Default                                  : Yes
    Forced                                   : No
    
    Audio #1
    ID                                       : 2
    Format                                   : AC-3
    Format/Info                              : Audio Coding 3
    Mode extension                           : CM (complete main)
    Format settings, Endianness              : Big
    Codec ID                                 : A_AC3
    Duration                                 : 2mn 58s
    Bit rate mode                            : Constant
    Bit rate                                 : 192 Kbps
    Channel count                            : 2 channels
    Channel positions                        : Front: L R
    Sampling rate                            : 48.0 KHz
    Bit depth                                : 16 bits
    Compression mode                         : Lossy
    Stream size                              : 4.08 MiB (3%)
    Title                                    : AC3 2.0 @ 192 kbps
    Language                                 : German
    Default                                  : Yes
    Forced                                   : No
    
    Audio #2
    ID                                       : 3
    Format                                   : AC-3
    Format/Info                              : Audio Coding 3
    Mode extension                           : CM (complete main)
    Format settings, Endianness              : Big
    Codec ID                                 : A_AC3
    Duration                                 : 2mn 58s
    Bit rate mode                            : Constant
    Bit rate                                 : 192 Kbps
    Channel count                            : 2 channels
    Channel positions                        : Front: L R
    Sampling rate                            : 48.0 KHz
    Bit depth                                : 16 bits
    Compression mode                         : Lossy
    Stream size                              : 4.08 MiB (3%)
    Title                                    : AC3 2.0 @ 192 kbps
    Language                                 : Japanese
    Default                                  : No
    Forced                                   : No
    
    Text #1
    ID                                       : 4
    Format                                   : ASS
    Codec ID                                 : S_TEXT/ASS
    Codec ID/Info                            : Advanced Sub Station Alpha
    Compression mode                         : Lossless
    Title                                    : Forced ASS
    Language                                 : German
    Default                                  : Yes
    Forced                                   : Yes
    
    Text #2
    ID                                       : 5
    Format                                   : UTF-8
    Codec ID                                 : S_TEXT/UTF8
    Codec ID/Info                            : UTF-8 Plain Text
    Title                                    : Forced SRT
    Language                                 : German
    Default                                  : No
    Forced                                   : No
    
    Text #3
    ID                                       : 6
    Format                                   : ASS
    Codec ID                                 : S_TEXT/ASS
    Codec ID/Info                            : Advanced Sub Station Alpha
    Compression mode                         : Lossless
    Title                                    : Full ASS
    Language                                 : German
    Default                                  : No
    Forced                                   : No
    




    Geschützter Bereich - Bedanke dich beim Poster, um den Bereich sehen zu können
    Hier erfährst Du wie Du Dich bedanken kannst oder werde jetzt Premium Mitglied ab einer Spende von 5€ und erhalte sofortigen Zugriff auf den Downloadbereich!
    !!!Alle Anliegen bezüglich Uploads werden nur mit direktem Threadlink zum Angebot bearbeitet!!!

    Re-Uploadanfragen nur per PN - Ihr könnt mir auch Listen schicken

    Re-Uploads erfolgen meist innerhalb 24h, kann aber auch bis zu 7 Tage dauern

    [Links sind nur für registrierte und aktivierte Nutzer sichtbar. Klicke hier um dich zu registrieren.] | [Links sind nur für registrierte und aktivierte Nutzer sichtbar. Klicke hier um dich zu registrieren.] | >[Links sind nur für registrierte und aktivierte Nutzer sichtbar. Klicke hier um dich zu registrieren.]<
    [Links sind nur für registrierte und aktivierte Nutzer sichtbar. Klicke hier um dich zu registrieren.]

  2. 57 Benutzer sagen Danke:

    Anzeigen

    -tomcat- (9. August 2016),1Ranger (10. August 2016),AcE1507 (12. October 2015),Alucard1412 (1. February 2016),andii (19. June 2016),Asuka Langley (16. July 2015),Belbo (7. August 2016),chL420 (3. October 2016),chopper23 (8. August 2016),Creed008_inactive (29. July 2015),Darth Affe (14. November 2016),etter (19. November 2015),Filbo11 (8. July 2015),fullmetal1995 (5. June 2016),Ghostraven (27. September 2015),Gold_93 (20. February 2016),Haruka (22. July 2015),IQcrack (23. March 2016),jey (7. July 2016),Kaan- (13. June 2016),Kaktusmensch (30. September 2015),Kalchi (8. August 2016),koax123 (13. April 2016),Leopon (23. March 2016),Lux49 (24. May 2016),Magikarp (17. October 2016),Manfred28 (8. August 2016),markusdamon5 (22. September 2016),MegaMacX (27. March 2016),MutationACE (31. August 2016),Newz2014 (25. April 2016),Nijazi2000 (4. September 2016),NLHTeddyNLH (29. September 2015),Otonashi Yuzuru (7. December 2015),Ovaron (29. February 2016),Petie (24. September 2016),Reaper41992 (17. June 2016),Regi (5. June 2016),Ryu1988 (12. May 2016),schubway (29. December 2015),Schumi2405 (22. December 2015),Scorns (16. May 2016),Shinon.Kagura (20. August 2016),Shirobaka (1. July 2016),slotty16 (20. December 2015),SONNYxq (8. August 2016),Superzorro (10. August 2016),Sylux (28. January 2016),SystemS (10. August 2016),Tama (18. July 2016),TheYoAsakura (7. September 2016),tompace (13. August 2016),Traenchen (17. July 2016),Tschu23 (21. August 2016),Windwusel (11. February 2016),Zaiphel (26. July 2016),zoe#449 (5. June 2016)

  3. #2
    United we Stand Avatar von 00Ryuji00
    Registriert seit
    Oct 2012
    Beiträge
    3.902
    Punkte
    99.909
    Errungenschaften:
    TomodachisGang LeaderHikikomoriTagger Amateur50000 Erfahrungspunkte

    AW: Samurai Girls S01 GerJapDub GerSub BDRiP 1080p WS x264 - TvR

    Re-Upload erledigt. ~
    !!!Alle Anliegen bezüglich Uploads werden nur mit direktem Threadlink zum Angebot bearbeitet!!!

    Re-Uploadanfragen nur per PN - Ihr könnt mir auch Listen schicken

    Re-Uploads erfolgen meist innerhalb 24h, kann aber auch bis zu 7 Tage dauern

    [Links sind nur für registrierte und aktivierte Nutzer sichtbar. Klicke hier um dich zu registrieren.] | [Links sind nur für registrierte und aktivierte Nutzer sichtbar. Klicke hier um dich zu registrieren.] | >[Links sind nur für registrierte und aktivierte Nutzer sichtbar. Klicke hier um dich zu registrieren.]<
    [Links sind nur für registrierte und aktivierte Nutzer sichtbar. Klicke hier um dich zu registrieren.]

  4. 1 Benutzer sagt Danke:

    NLHTeddyNLH (29. September 2015)

  5. #3
    United we Stand Avatar von 00Ryuji00
    Registriert seit
    Oct 2012
    Beiträge
    3.902
    Punkte
    99.909
    Errungenschaften:
    TomodachisGang LeaderHikikomoriTagger Amateur50000 Erfahrungspunkte

    AW: Hyakka Ryouran: Samurai Girls (S1) [Ger-Jap-Dub][Ger-Sub][1080p][BluRay] - TvR

    Update: Dateien auf Wunsch wieder online.
    !!!Alle Anliegen bezüglich Uploads werden nur mit direktem Threadlink zum Angebot bearbeitet!!!

    Re-Uploadanfragen nur per PN - Ihr könnt mir auch Listen schicken

    Re-Uploads erfolgen meist innerhalb 24h, kann aber auch bis zu 7 Tage dauern

    [Links sind nur für registrierte und aktivierte Nutzer sichtbar. Klicke hier um dich zu registrieren.] | [Links sind nur für registrierte und aktivierte Nutzer sichtbar. Klicke hier um dich zu registrieren.] | >[Links sind nur für registrierte und aktivierte Nutzer sichtbar. Klicke hier um dich zu registrieren.]<
    [Links sind nur für registrierte und aktivierte Nutzer sichtbar. Klicke hier um dich zu registrieren.]

Lesezeichen

Berechtigungen

  • Neue Themen erstellen: Nein
  • Themen beantworten: Nein
  • Anhänge hochladen: Nein
  • Beiträge bearbeiten: Nein
  •  

1 2 3 4 5 6 7 8 9 10 11 12 13 14 15 16 17 18 19 20 21 22 23 24 25 26 27 28 29 30 31 32 33 34 35 36 37 38 39 40 41 42 43 44 45 46 47 48 49 50 51 52 53 54 55 56 57 58 59 60 61 62 63 64 65 66 67 68 69 70 71 72 73 74 75 76 77 78 79 80 81 82 83 84 85 86 87 88 89 90 91 92 93 94 95 96 97 98 99 100 101 102 103 104 105 106 107 108 109 110 111 112 113 114 115 116 117 118 119 120 121 122 123 124 125 126 127 128 129 130 131 132 133 134 135 136 137 138 139 140 141 142 143 144 145 146 147 148 149 150 151 152 153 154 155 156 157 158