Ergebnis 1 bis 2 von 2

Thema: Ichiban Ushiro no Daimaou [Ger-Jap-Dub][Ger-Sub][404p/720p/1080p][BluRay] - AST4u

Dieser Thread wurde noch nicht bewertet. Bewerte ihn doch, wenn er dir gefällt!
  1. #1
    United we Stand Avatar von 00Ryuji00
    Registriert seit
    Oct 2012
    Beiträge
    3.902
    Punkte
    100.019
    Errungenschaften:
    TomodachisGang LeaderHikikomoriTagger Amateur50000 Erfahrungspunkte

    Ichiban Ushiro no Daimaou [Ger-Jap-Dub][Ger-Sub][404p/720p/1080p][BluRay] - AST4u

    Ichiban Ushiro no Daimaou
    いちばんうしろの大魔王
    Demon King Daimao



    Kurzbeschreibung:
    Unverhofft kommt ja bekanntlich oft so auch die schockierende Prophezeiung für den lammfrommen Akuto Sai, dessen gröter Wunsch es ist, Priester zu werden. All seinen Erwartungen entgegen, sagt ihm der hellseherische Rabe der Constant Magic Academy bei der Willkommenszeremonie voraus, dass er nicht Priester, sondern ausgerechnet der neue Dämonenkönig Daimao werden soll! Und nicht nur Akuto selbst ist völlig geplättet von dieser unglaublichen Nachricht besonders seine neue Bekanntschaft Junko ist schwer von ihm enttäuscht. Haben sie sich doch eben noch gegenseitig geschworen, gemeinsam für eine bessere Welt zu kämpfen. Doch als Akuto sich von seinem anfänglichen Schock erholt hat und nun auch noch von teuflischen Mädels umgarnt wird, beginnt er, Gefallen an seinem Dämonendasein zu finden.
    Spieldauer: ~ 24min
    Genre: Action Comedy
    Nebengenres: Action, Comedy, Ecchi, Fantasy, Harem, Männlich, Romanze
    Jahr: 2010
    Sprache: Deutsch, Japanisch
    Untertitel: Deutsch
    Größe pro Folge: ~ 280MB/750MB/1,6GB/2,3GB
    Episodenanzahl: 12/12
    Format: MKV
    Auflösung: 404p (16:9), 720p (16:9), 1080p (16:9)
    Videocodec: XviD, x264 (AVC)
    Audiocodec: MP3, AC-3, PCM
    Releasegruppe: AST4u
    Hoster: Uploaded, Share-Online

    MediaInfo
    XviD MP3
    Code:
    Format                                   : Matroska
    Format version                           : Version 4 / Version 2
    File size                                : 286 MiB
    Duration                                 : 23mn 41s
    Overall bit rate                         : 1 690 Kbps
    Movie name                               : DAEMON_KING_DAIMAO_VOLUME_1_1.Title2
    Encoded date                             : UTC 2015-11-26 18:36:39
    Writing application                      : mkvmerge v6.3.0 ('You can't stop me!') built on Jun 27 2013 22:06:07
    Writing library                          : libebml v1.3.0 + libmatroska v1.4.0
    
    Video
    ID                                       : 4
    Format                                   : MPEG-4 Visual
    Format profile                           : Advanced [email protected]
    Format settings, BVOP                    : Yes
    Format settings, QPel                    : No
    Format settings, GMC                     : No warppoints
    Format settings, Matrix                  : Default (MPEG)
    Codec ID                                 : V_MS/VFW/FOURCC / XVID
    Codec ID/Hint                            : XviD
    Duration                                 : 23mn 41s
    Bit rate                                 : 1 337 Kbps
    Width                                    : 720 pixels
    Height                                   : 404 pixels
    Display aspect ratio                     : 16:9
    Frame rate mode                          : Constant
    Frame rate                               : 23.976 fps
    Color space                              : YUV
    Chroma subsampling                       : 4:2:0
    Bit depth                                : 8 bits
    Scan type                                : Progressive
    Compression mode                         : Lossy
    Bits/(Pixel*Frame)                       : 0.192
    Stream size                              : 227 MiB (79%)
    Writing library                          : XviD 64
    Language                                 : German
    Default                                  : Yes
    Forced                                   : No
    
    Audio #1
    ID                                       : 3
    Format                                   : MPEG Audio
    Format version                           : Version 1
    Format profile                           : Layer 3
    Mode                                     : Joint stereo
    Codec ID                                 : A_MPEG/L3
    Codec ID/Hint                            : MP3
    Duration                                 : 23mn 41s
    Bit rate mode                            : Constant
    Bit rate                                 : 128 Kbps
    Channel count                            : 2 channels
    Sampling rate                            : 48.0 KHz
    Compression mode                         : Lossy
    Stream size                              : 21.7 MiB (8%)
    Default                                  : Yes
    Forced                                   : No
    
    Audio #2
    ID                                       : 5
    Format                                   : MPEG Audio
    Format version                           : Version 1
    Format profile                           : Layer 3
    Mode                                     : Joint stereo
    Codec ID                                 : A_MPEG/L3
    Codec ID/Hint                            : MP3
    Duration                                 : 23mn 41s
    Bit rate mode                            : Constant
    Bit rate                                 : 192 Kbps
    Channel count                            : 2 channels
    Sampling rate                            : 48.0 KHz
    Compression mode                         : Lossy
    Stream size                              : 32.5 MiB (11%)
    Language                                 : Japanese
    Default                                  : No
    Forced                                   : No
    
    Text #1
    ID                                       : 1
    Format                                   : PGS
    Muxing mode                              : zlib
    Codec ID                                 : S_HDMV/PGS
    Codec ID/Info                            : The same subtitle format used on BDs/HD-DVDs
    Language                                 : German
    Default                                  : No
    Forced                                   : No
    
    Text #2
    ID                                       : 2
    Format                                   : PGS
    Muxing mode                              : zlib
    Codec ID                                 : S_HDMV/PGS
    Codec ID/Info                            : The same subtitle format used on BDs/HD-DVDs
    Language                                 : German
    Default                                  : No
    Forced                                   : No
    
    720p AC-3
    Code:
    Format                                   : Matroska
    Format version                           : Version 4 / Version 2
    File size                                : 732 MiB
    Duration                                 : 23mn 41s
    Overall bit rate mode                    : Variable
    Overall bit rate                         : 4 318 Kbps
    Movie name                               : DAEMON_KING_DAIMAO_VOLUME_1_1.Title2
    Encoded date                             : UTC 2015-11-26 17:22:44
    Writing application                      : mkvmerge v6.3.0 ('You can't stop me!') built on Jun 27 2013 22:06:07
    Writing library                          : libebml v1.3.0 + libmatroska v1.4.0
    
    Video
    ID                                       : 3
    Format                                   : AVC
    Format/Info                              : Advanced Video Codec
    Format profile                           : [email protected]
    Format settings, CABAC                   : Yes
    Format settings, ReFrames                : 2 frames
    Codec ID                                 : V_MPEG4/ISO/AVC
    Duration                                 : 23mn 41s
    Bit rate mode                            : Variable
    Bit rate                                 : 3 849 Kbps
    Maximum bit rate                         : 6 000 Kbps
    Width                                    : 1 280 pixels
    Height                                   : 720 pixels
    Display aspect ratio                     : 16:9
    Frame rate mode                          : Constant
    Frame rate                               : 23.976 fps
    Color space                              : YUV
    Chroma subsampling                       : 4:2:0
    Bit depth                                : 8 bits
    Scan type                                : Progressive
    Bits/(Pixel*Frame)                       : 0.174
    Stream size                              : 652 MiB (89%)
    Default                                  : Yes
    Forced                                   : No
    
    Audio #1
    ID                                       : 4
    Format                                   : AC-3
    Format/Info                              : Audio Coding 3
    Mode extension                           : CM (complete main)
    Format settings, Endianness              : Big
    Codec ID                                 : A_AC3
    Duration                                 : 23mn 41s
    Bit rate mode                            : Constant
    Bit rate                                 : 192 Kbps
    Channel count                            : 2 channels
    Channel positions                        : Front: L R
    Sampling rate                            : 48.0 KHz
    Bit depth                                : 16 bits
    Compression mode                         : Lossy
    Stream size                              : 32.5 MiB (4%)
    Language                                 : German
    Default                                  : Yes
    Forced                                   : No
    
    Audio #2
    ID                                       : 5
    Format                                   : AC-3
    Format/Info                              : Audio Coding 3
    Mode extension                           : CM (complete main)
    Format settings, Endianness              : Big
    Codec ID                                 : A_AC3
    Duration                                 : 23mn 41s
    Bit rate mode                            : Constant
    Bit rate                                 : 192 Kbps
    Channel count                            : 2 channels
    Channel positions                        : Front: L R
    Sampling rate                            : 48.0 KHz
    Bit depth                                : 16 bits
    Compression mode                         : Lossy
    Stream size                              : 32.5 MiB (4%)
    Language                                 : Japanese
    Default                                  : No
    Forced                                   : No
    
    Text #1
    ID                                       : 1
    Format                                   : PGS
    Muxing mode                              : zlib
    Codec ID                                 : S_HDMV/PGS
    Codec ID/Info                            : The same subtitle format used on BDs/HD-DVDs
    Language                                 : German
    Default                                  : No
    Forced                                   : No
    
    Text #2
    ID                                       : 2
    Format                                   : PGS
    Muxing mode                              : zlib
    Codec ID                                 : S_HDMV/PGS
    Codec ID/Info                            : The same subtitle format used on BDs/HD-DVDs
    Language                                 : German
    Default                                  : No
    Forced                                   : No
    
    Menu
    00:00:00.000                             : en:(01)00:00:00:000
    00:00:48.089                             : en:(02)00:00:48:089
    00:13:09.121                             : en:(03)00:13:09:121
    00:22:05.115                             : en:(04)00:22:05:115
    00:23:41.920                             : en:(05)00:23:41:920
    
    1080p AC-3
    Code:
    Format                                   : Matroska
    Format version                           : Version 4 / Version 2
    File size                                : 1.53 GiB
    Duration                                 : 23mn 41s
    Overall bit rate mode                    : Variable
    Overall bit rate                         : 9 217 Kbps
    Movie name                               : DAEMON_KING_DAIMAO_VOLUME_1_1.Title2
    Encoded date                             : UTC 2015-11-26 17:16:00
    Writing application                      : mkvmerge v6.3.0 ('You can't stop me!') built on Jun 27 2013 22:06:07
    Writing library                          : libebml v1.3.0 + libmatroska v1.4.0
    
    Video
    ID                                       : 3
    Format                                   : AVC
    Format/Info                              : Advanced Video Codec
    Format profile                           : [email protected]
    Format settings, CABAC                   : Yes
    Format settings, ReFrames                : 2 frames
    Codec ID                                 : V_MPEG4/ISO/AVC
    Duration                                 : 23mn 41s
    Bit rate mode                            : Variable
    Bit rate                                 : 8 649 Kbps
    Maximum bit rate                         : 13.5 Mbps
    Width                                    : 1 920 pixels
    Height                                   : 1 080 pixels
    Display aspect ratio                     : 16:9
    Frame rate mode                          : Constant
    Frame rate                               : 23.976 fps
    Color space                              : YUV
    Chroma subsampling                       : 4:2:0
    Bit depth                                : 8 bits
    Scan type                                : Progressive
    Bits/(Pixel*Frame)                       : 0.174
    Stream size                              : 1.43 GiB (94%)
    Default                                  : Yes
    Forced                                   : No
    
    Audio #1
    ID                                       : 4
    Format                                   : AC-3
    Format/Info                              : Audio Coding 3
    Mode extension                           : CM (complete main)
    Format settings, Endianness              : Big
    Codec ID                                 : A_AC3
    Duration                                 : 23mn 41s
    Bit rate mode                            : Constant
    Bit rate                                 : 192 Kbps
    Channel count                            : 2 channels
    Channel positions                        : Front: L R
    Sampling rate                            : 48.0 KHz
    Bit depth                                : 16 bits
    Compression mode                         : Lossy
    Stream size                              : 32.5 MiB (2%)
    Language                                 : German
    Default                                  : Yes
    Forced                                   : No
    
    Audio #2
    ID                                       : 5
    Format                                   : AC-3
    Format/Info                              : Audio Coding 3
    Mode extension                           : CM (complete main)
    Format settings, Endianness              : Big
    Codec ID                                 : A_AC3
    Duration                                 : 23mn 41s
    Bit rate mode                            : Constant
    Bit rate                                 : 192 Kbps
    Channel count                            : 2 channels
    Channel positions                        : Front: L R
    Sampling rate                            : 48.0 KHz
    Bit depth                                : 16 bits
    Compression mode                         : Lossy
    Stream size                              : 32.5 MiB (2%)
    Language                                 : Japanese
    Default                                  : No
    Forced                                   : No
    
    Text #1
    ID                                       : 1
    Format                                   : PGS
    Muxing mode                              : zlib
    Codec ID                                 : S_HDMV/PGS
    Codec ID/Info                            : The same subtitle format used on BDs/HD-DVDs
    Language                                 : German
    Default                                  : Yes
    Forced                                   : No
    
    Text #2
    ID                                       : 2
    Format                                   : PGS
    Muxing mode                              : zlib
    Codec ID                                 : S_HDMV/PGS
    Codec ID/Info                            : The same subtitle format used on BDs/HD-DVDs
    Language                                 : German
    Default                                  : No
    Forced                                   : No
    
    Menu
    00:00:00.000                             : en:(01)00:00:00:000
    00:00:48.089                             : en:(02)00:00:48:089
    00:13:09.121                             : en:(03)00:13:09:121
    00:22:05.115                             : en:(04)00:22:05:115
    00:23:41.920                             : en:(05)00:23:41:920
    
    1080p PCM
    Code:
    Format                                   : Matroska
    Format version                           : Version 4 / Version 2
    File size                                : 2.23 GiB
    Duration                                 : 23mn 41s
    Overall bit rate mode                    : Variable
    Overall bit rate                         : 13.4 Mbps
    Movie name                               : DAEMON_KING_DAIMAO_VOLUME_1_1.Title2
    Encoded date                             : UTC 2015-11-26 21:46:23
    Writing application                      : mkvmerge v8.2.0 ('World of Adventure') 32bit
    Writing library                          : libebml v1.3.1 + libmatroska v1.4.2
    DURATION                                 : 00:23:41.337000000
    NUMBER_OF_FRAMES                         : 34078
    NUMBER_OF_BYTES                          : 1565515166
    _STATISTICS_WRITING_APP                  : mkvmerge v8.2.0 ('World of Adventure') 32bit
    _STATISTICS_WRITING_DATE_UTC             : 2015-11-26 21:46:23
    _STATISTICS_TAGS                         : BPS DURATION NUMBER_OF_FRAMES NUMBER_OF_BYTES
    
    Video
    ID                                       : 5
    Format                                   : AVC
    Format/Info                              : Advanced Video Codec
    Format profile                           : [email protected]
    Format settings, CABAC                   : Yes
    Format settings, ReFrames                : 2 frames
    Codec ID                                 : V_MPEG4/ISO/AVC
    Duration                                 : 23mn 41s
    Bit rate mode                            : Variable
    Maximum bit rate                         : 13.5 Mbps
    Width                                    : 1 920 pixels
    Height                                   : 1 080 pixels
    Display aspect ratio                     : 16:9
    Frame rate mode                          : Constant
    Frame rate                               : 23.976 fps
    Color space                              : YUV
    Chroma subsampling                       : 4:2:0
    Bit depth                                : 8 bits
    Scan type                                : Progressive
    Default                                  : Yes
    Forced                                   : No
    
    Audio #1
    ID                                       : 1
    Format                                   : PCM
    Format settings, Endianness              : Big
    Codec ID                                 : A_PCM/INT/BIG
    Duration                                 : 23mn 41s
    Bit rate mode                            : Constant
    Channel count                            : 2 channels
    Sampling rate                            : 48.0 KHz
    Bit depth                                : 24 bits
    Language                                 : Japanese
    Default                                  : Yes
    Forced                                   : No
    
    Audio #2
    ID                                       : 2
    Format                                   : PCM
    Format settings, Endianness              : Big
    Codec ID                                 : A_PCM/INT/BIG
    Duration                                 : 23mn 41s
    Bit rate mode                            : Constant
    Channel count                            : 2 channels
    Sampling rate                            : 48.0 KHz
    Bit depth                                : 24 bits
    Language                                 : German
    Default                                  : No
    Forced                                   : No
    
    Text #1
    ID                                       : 3
    Format                                   : PGS
    Muxing mode                              : zlib
    Codec ID                                 : S_HDMV/PGS
    Codec ID/Info                            : The same subtitle format used on BDs/HD-DVDs
    Language                                 : German
    Default                                  : No
    Forced                                   : No
    
    Text #2
    ID                                       : 4
    Format                                   : PGS
    Muxing mode                              : zlib
    Codec ID                                 : S_HDMV/PGS
    Codec ID/Info                            : The same subtitle format used on BDs/HD-DVDs
    Language                                 : German
    Default                                  : No
    Forced                                   : No
    
    Menu
    00:00:00.000                             : en:(01)00:00:00:000
    00:00:48.089                             : en:(02)00:00:48:089
    00:13:09.121                             : en:(03)00:13:09:121
    00:22:05.115                             : en:(04)00:22:05:115
    00:23:41.920                             : en:(05)00:23:41:920




    Geschützter Bereich - Bedanke dich beim Poster, um den Bereich sehen zu können
    Hier erfährst Du wie Du Dich bedanken kannst oder werde jetzt Premium Mitglied ab einer Spende von 5€ und erhalte sofortigen Zugriff auf den Downloadbereich!


    [Links sind nur für registrierte und aktivierte Nutzer sichtbar. Klicke hier um dich zu registrieren.]
    Geändert von 00Ryuji00 (1. February 2016 um 22:54 Uhr)
    !!!Alle Anliegen bezüglich Uploads werden nur mit direktem Threadlink zum Angebot bearbeitet!!!

    Re-Uploadanfragen nur per PN - Ihr könnt mir auch Listen schicken

    Re-Uploads erfolgen meist innerhalb 24h, kann aber auch bis zu 7 Tage dauern

    [Links sind nur für registrierte und aktivierte Nutzer sichtbar. Klicke hier um dich zu registrieren.] | [Links sind nur für registrierte und aktivierte Nutzer sichtbar. Klicke hier um dich zu registrieren.] | >[Links sind nur für registrierte und aktivierte Nutzer sichtbar. Klicke hier um dich zu registrieren.]<
    [Links sind nur für registrierte und aktivierte Nutzer sichtbar. Klicke hier um dich zu registrieren.]

  2. 117 Benutzer sagen Danke:

    Anzeigen

    Akio (20. February 2016),andyb90 (31. January 2016),ani212 (3. February 2016),Antipott (5. March 2016),Anuy (9. November 2016),ApCeLlonDinG (4. January 2016),assa (13. March 2016),Asuka Langley (26. January 2016),B3nnoX (21. February 2016),basdi (3. February 2016),bayerle92 (24. April 2016),Black Lotus (12. January 2016),Blackfire89 (22. May 2016),BlackIron (17. April 2016),BlackPhoenix (30. December 2015),BlackReaper (7. January 2016),BlackWidow (6. March 2016),Bloodyair (29. December 2015),Boff (9. May 2016),brunsdumm (30. December 2015),Bunyos (1. January 2016),chidorikid (30. September 2016),Chilko (30. December 2015),chopper23 (30. December 2015),Coji (29. December 2015),Conopas (30. December 2015),Cooky1988 (21. February 2016),darkangel92 (1. May 2016),DarkTerminator (4. October 2016),darkzed (29. December 2015),DeathBeast88 (2. February 2016),demonac (24. August 2016),Donquixote (30. January 2016),Draagul (8. February 2016),Ecel (20. May 2016),egon1212 (6. February 2016),Fireball207 (Gestern),foiderbua (15. May 2016),freakwatcher (23. April 2016),fullmetal1995 (30. March 2016),Gatti1983 (31. December 2015),gdsatan (12. January 2016),Griever (29. January 2016),Grinchi (9. February 2016),HappyTree (28. May 2016),helloplaya (22. January 2016),Holzmodem (15. July 2016),hunterhunter (21. March 2016),Hyro (8. November 2016),Ibanezar (30. December 2015),Inowan (3. April 2016),Kaan- (22. April 2016),KelioN (31. January 2016),kenschi (14. January 2016),kinghol (30. December 2015),knanime (11. September 2016),KrachbumAlex (12. February 2016),Kreis (16. February 2016),Kuddel (30. April 2016),lair1995 (6. February 2016),LEITZ (4. May 2016),Leomar (7. May 2016),LordBacon1 (23. February 2016),Manfred28 (10. February 2016),manninator (1. January 2016),manuel4193 (31. December 2015),Meistermagier (21. March 2016),merb (31. December 2015),MH1976 (7. March 2016),Michih80 (7. June 2016),midnighter (31. December 2015),Miharu (27. March 2016),MINOTAURUS (25. March 2016),mOlDaViA (14. May 2016),nabou (17. January 2016),NanaNo7 (1. January 2016),Nanashi (3. February 2016),Noire16 (3. February 2016),nuggl (31. December 2015),old nick (23. January 2016),Ovaron (27. January 2016),peniku8 (5. February 2016),pp95 (14. September 2016),Regi (19. February 2016),rinnegan93 (27. November 2016),rmax67 (17. February 2016),RyuLelouch (16. February 2016),sapzero (19. February 2016),Shadow7525 (1. January 2016),Shirayah (16. March 2016),shorteh (6. December 2016),Sildurias (1. January 2016),Simon Jack (17. January 2016),Sirenetix (20. February 2016),Skaze (23. February 2016),skullreaper666 (27. February 2016),slyva (22. January 2016),smaik (12. February 2016),soares23 (9. November 2016),Starbrand (2. January 2016),Stones (13. February 2016),Superzorro (1. January 2016),T0MEK (4. February 2016),TakashiKudo (1. March 2016),Tama (18. July 2016),Tarlysin (30. January 2016),Tenma90 (23. January 2016),Tevion32 (4. February 2016),tigerhai (31. December 2015),Tobi-whv (30. January 2016),TrUnkO (9. October 2016),Tzi (30. December 2015),Velyn (5. February 2016),ventus1991 (3. March 2016),Viuren (2. March 2016),vulvenblod (1. February 2016),WolfsBlade (30. December 2015)

  3. #2
    Uploader Avatar von Masaru
    Registriert seit
    Jan 2016
    Ort
    neumünster
    Beiträge
    453
    Punkte
    11.993
    Errungenschaften:
    10000 ErfahrungspunkteSenpai

    AW: Ichiban Ushiro no Daimaou [Ger-Jap-Dub][Ger-Sub][1080p][BluRay] - AST4u


    Ichiban Ushiro no Daimaou
    Demon King Daimao






    Kurzbeschreibung:
    Zitat Zitat von AniSearch.com
    Akuto Sai hat es sich zum Ziel gesetzt, in den höchsten Magierorden seines Landes aufgenommen zu werden, um dann der Gesellschaft als deren Kleriker dienen zu können. Am Tag seiner Aufnahme an der Constan Magieakademie, ergibt sein Eignungstest Folgendes: "Zukünftiger Beruf - Teufelskönig". So beginnt schließlich seine harte Schulzeit, in der er von der eifrigen Klassensprecherin verachtet, von einem Mädchen mit mysteriösen Kräften begehrt, und von einer wunderschönen Androidin bewacht wird.


    Spieldauer: 24min
    Genre: Actionkomödie
    Nebengenres: Action, Ecchi, Fantasy, Harem, Komödie, Romanze
    Jahr: 2010
    Sprache: Deutsch, Japanisch
    Untertitel: Deutsch
    Größe pro Folge:
    Episodenanzahl: 12 /12
    Format: MKV
    Auflösung: 1080p (16:9)
    Videocodec: x264 (AVC)
    Audiocodec: PCM
    Releasegruppe: AST4u
    Hoster: Uploaded, Share-Online, Openload (HD Stream)


    MediaInfo
    Code:
    
    Container
    General
    Format: Matroska
    Format version: Version 4 / Version 2
    
    Video
    Format: AVC
    Format profile: High@ L4.1
    Format settings, CABAC: Yes
    Format settings, ReFrames: 4 frames
    
    Audio #1
    Format: PCM
    Format settings, Endianness: Big
    
    Audio #2
    Format: PCM
    Format settings, Endianness: Big
    
    Text #1
    Format: PGS
    
    Text #2
    Format: PGS
     Convert




    Geschützter Bereich - Bedanke dich beim Poster, um den Bereich sehen zu können
    Hier erfährst Du wie Du Dich bedanken kannst oder werde jetzt Premium Mitglied ab einer Spende von 5€ und erhalte sofortigen Zugriff auf den Downloadbereich!

    [Links sind nur für registrierte und aktivierte Nutzer sichtbar. Klicke hier um dich zu registrieren.]

  4. 37 Benutzer sagen Danke:

    Anuy (4. November 2016),Asuka Langley (30. January 2016),Black_ Reaper (30. January 2016),brunsdumm (30. January 2016),Bunyos (30. January 2016),chidorikid (30. September 2016),Coji (30. January 2016),Conopas (30. January 2016),Cy_Baer (30. January 2016),DeathBeast88 (2. February 2016),demonac (24. August 2016),diablofan2 (29. January 2016),Donquixote (30. January 2016),Fireball207 (Gestern),fullmetal1995 (30. March 2016),Gatti1983 (2. February 2016),Griever (29. January 2016),Holzmodem (15. July 2016),Jinnay (30. January 2016),Kaito_O (4. February 2016),kinghol (1. February 2016),Manfred28 (10. February 2016),manuel4193 (29. January 2016),merb (30. January 2016),meyer (30. January 2016),midnighter (8. September 2016),Miharu (27. March 2016),Newz2014 (7. March 2016),nicole832 (31. January 2016),pp95 (14. September 2016),rinnegan93 (4. December 2016),Seishin (4. February 2016),skylier (30. January 2016),soares23 (9. November 2016),Tama (18. July 2016),Tarlysin (30. January 2016),TrUnkO (9. October 2016)

Lesezeichen

Berechtigungen

  • Neue Themen erstellen: Nein
  • Themen beantworten: Nein
  • Anhänge hochladen: Nein
  • Beiträge bearbeiten: Nein
  •  

1 2 3 4 5 6 7 8 9 10 11 12 13 14 15 16 17 18 19 20 21 22 23 24 25 26 27 28 29 30 31 32 33 34 35 36 37 38 39 40 41 42 43 44 45 46 47 48 49 50 51 52 53 54 55 56 57 58 59 60 61 62 63 64 65 66 67 68 69 70 71 72 73 74 75 76 77 78 79 80 81 82 83 84 85 86 87 88 89 90 91 92 93 94 95 96 97 98 99 100 101 102 103 104 105 106 107 108 109 110 111 112 113 114 115 116 117 118 119 120 121 122 123 124 125 126 127 128 129 130 131 132 133 134 135 136 137 138 139 140 141 142 143 144 145 146 147 148 149 150 151 152 153 154 155 156 157 158