Ergebnis 1 bis 2 von 2

Thema: Inuyasha [Ger-Jap-Dub][Ger-Sub][560p/480p][DVDRip]

Dieser Thread wurde durchschnittlich mit 5 Sternen bewertet, wobei 1 Stern die schlechteste und 5 Sterne die beste Bewertung ist. Es haben insgesamt 1 Mitglieder eine Bewertung abgegeben.

  1. #1
    United we Stand Avatar von 00Ryuji00
    Registriert seit
    Oct 2012
    Beiträge
    3.902
    Punkte
    100.220
    Errungenschaften:
    TomodachisGang LeaderHikikomoriTagger Amateur50000 Erfahrungspunkte

    Inuyasha [Ger-Jap-Dub][Ger-Sub][560p/480p][DVDRip]

    Inuyasha
    犬夜叉
    InuYasha
    Inu Yasha



    Kurzbeschreibung:
    Kagome verschlägt es an ihrem 15. Geburtstag ins Japan des Mitttelalters. Durch ihre leicht verrückte Familie hat sie zwar schon einiges über die damaligen Dämonen erfahren, doch was sich ihr da in den Weg stellt, schlägt alles, was sie sich je vorgestellt hat. Kagome findet Zuflucht bei der Zauberin Kikyo, die Hüterin des magischen Glücksbringers "Shikon no Tama" und Wächterin von Inuyasha, einem mächtigen Halbdämon.
    Sprache: Deutsch 1-104, Japanisch ab 105
    Untertitel: Deutsch ab 105
    Spieldauer: ~ 25min
    Größe: ~ 160-450MB, 340MB
    Episodenanzahl: 167/167
    Format: .mkv, .avi
    Auflösung: 560p, 480p (752x560/640x480, 4:3)
    Codec: x264, AC3; XviD, MP3
    Gruppe: iND
    Hoster: Uploaded, Share-Online

    Hinweis:
    Folgen 1-104 nur Ger-Dub
    Folgen 105-167 Jap-Dub Ger-Sub

    Datei-Info.:
    Spoiler
    Folgen 1-104
    Code:
    Format                                   : Matroska
    Format version                           : Version 1
    File size                                : 335 MiB
    Duration                                 : 22mn 57s
    Overall bit rate                         : 2 040 Kbps
    Encoded date                             : UTC 2012-07-10 13:44:45
    Writing application                      : VirtualDubMod 1.5.10.2 (build 2542/release)
    Writing library                          : libebml-0.7.5 & libmatroska-0.7.7
    
    Video
    ID                                       : 1
    Format                                   : AVC
    Format/Info                              : Advanced Video Codec
    Format profile                           : [email protected]
    Format settings, CABAC                   : Yes
    Format settings, ReFrames                : 2 frames
    Codec ID                                 : V_MS/VFW/FOURCC / H264
    Duration                                 : 22mn 57s
    Bit rate                                 : 1 586 Kbps
    Width                                    : 752 pixels
    Height                                   : 560 pixels
    Display aspect ratio                     : 4:3
    Frame rate mode                          : Constant
    Frame rate                               : 25.000 fps
    Color space                              : YUV
    Chroma subsampling                       : 4:2:0
    Bit depth                                : 8 bits
    Scan type                                : Progressive
    Bits/(Pixel*Frame)                       : 0.151
    Stream size                              : 255 MiB (76%)
    Writing library                          : x264 core 58 svn-736bm
    Encoding settings                        : cabac=1 / ref=1 / deblock=1:0:0 / analyse=0x1:0x131 / me=hex / subme=5 / brdo=0 / mixed_ref=0 / me_range=16 / chroma_me=1 / trellis=1 / 8x8dct=0 / cqm=0 / deadzone=21,11 / chroma_qp_offset=0 / threads=8 / nr=0 / decimate=1 / mbaff=0 / bframes=2 / b_pyramid=0 / b_adapt=1 / b_bias=0 / direct=1 / wpredb=1 / bime=0 / keyint=250 / keyint_min=25 / scenecut=40(pre) / rc=2pass / bitrate=1586 / ratetol=1.0 / rceq='blurCplx^(1-qComp)' / qcomp=0.60 / qpmin=10 / qpmax=51 / qpstep=4 / cplxblur=20.0 / qblur=0.5 / ip_ratio=1.40 / pb_ratio=1.30
    Language                                 : English
    Default                                  : Yes
    Forced                                   : No
    
    Audio
    ID                                       : 2
    Format                                   : AC-3
    Format/Info                              : Audio Coding 3
    Mode extension                           : CM (complete main)
    Format settings, Endianness              : Big
    Codec ID                                 : A_AC3
    Duration                                 : 22mn 57s
    Bit rate mode                            : Constant
    Bit rate                                 : 448 Kbps
    Channel count                            : 6 channels
    Channel positions                        : Front: L C R, Side: L R, LFE
    Sampling rate                            : 48.0 KHz
    Bit depth                                : 16 bits
    Compression mode                         : Lossy
    Stream size                              : 73.6 MiB (22%)
    Language                                 : English
    Default                                  : Yes
    Forced                                   : No
    
    Menu
    00:00:00.000                             : Ch. 01 @ 00:00:00
    00:01:36.360                             : Ch. 02 @ 00:01:36
    00:04:02.880                             : Ch. 03 @ 00:04:02
    00:08:52.320                             : Ch. 04 @ 00:08:52
    00:12:54.120                             : Ch. 05 @ 00:12:54
    00:16:24.120                             : Ch. 06 @ 00:16:24
    00:22:04.800                             : Ch. 07 @ 00:22:04
    00:22:35.520                             : Ch. 08 @ 00:22:35
    
    Folgen 105-167
    Code:
    Format                                   : AVI
    Format/Info                              : Audio Video Interleave
    File size                                : 199 MiB
    Duration                                 : 20mn 8s
    Overall bit rate                         : 1 383 Kbps
    Writing application                      : VirtualDubMod 1.5.10.2 (build 2540/release)
    Writing library                          : VirtualDubMod build 2540/release
    
    Video
    ID                                       : 0
    Format                                   : MPEG-4 Visual
    Format profile                           : Advanced [email protected]
    Format settings, BVOP                    : 2
    Format settings, QPel                    : No
    Format settings, GMC                     : No warppoints
    Format settings, Matrix                  : Default (H.263)
    Codec ID                                 : XVID
    Codec ID/Hint                            : XviD
    Duration                                 : 20mn 8s
    Bit rate                                 : 1 245 Kbps
    Width                                    : 640 pixels
    Height                                   : 480 pixels
    Display aspect ratio                     : 4:3
    Frame rate                               : 23.976 fps
    Color space                              : YUV
    Chroma subsampling                       : 4:2:0
    Bit depth                                : 8 bits
    Scan type                                : Progressive
    Compression mode                         : Lossy
    Bits/(Pixel*Frame)                       : 0.169
    Stream size                              : 179 MiB (90%)
    Writing library                          : XviD 1.1.2 (UTC 2006-11-01)
    
    Audio
    ID                                       : 1
    Format                                   : MPEG Audio
    Format version                           : Version 1
    Format profile                           : Layer 3
    Mode                                     : Joint stereo
    Mode extension                           : MS Stereo
    Codec ID                                 : 55
    Codec ID/Hint                            : MP3
    Duration                                 : 20mn 8s
    Bit rate mode                            : Constant
    Bit rate                                 : 128 Kbps
    Channel count                            : 2 channels
    Sampling rate                            : 48.0 KHz
    Compression mode                         : Lossy
    Delay relative to video                  : 17ms
    Stream size                              : 18.4 MiB (9%)
    Alignment                                : Split accross interleaves
    Interleave, duration                     : 42 ms (1.00 video frame)
    Interleave, preload duration             : 500 ms
    




    Geschützter Bereich - Bedanke dich beim Poster, um den Bereich sehen zu können
    Hier erfährst Du wie Du Dich bedanken kannst oder werde jetzt Premium Mitglied ab einer Spende von 5€ und erhalte sofortigen Zugriff auf den Downloadbereich!
    Geändert von 00Ryuji00 (13. August 2015 um 00:04 Uhr)
    !!!Alle Anliegen bezüglich Uploads werden nur mit direktem Threadlink zum Angebot bearbeitet!!!

    Re-Uploadanfragen nur per PN - Ihr könnt mir auch Listen schicken

    Re-Uploads folgen nach Anfrage meist am Wochenende

    [Links sind nur für registrierte und aktivierte Nutzer sichtbar. Klicke hier um dich zu registrieren.] | [Links sind nur für registrierte und aktivierte Nutzer sichtbar. Klicke hier um dich zu registrieren.] | >[Links sind nur für registrierte und aktivierte Nutzer sichtbar. Klicke hier um dich zu registrieren.]<
    [Links sind nur für registrierte und aktivierte Nutzer sichtbar. Klicke hier um dich zu registrieren.]

  2. 179 Benutzer sagen Danke:

    Anzeigen

    123nitro123 (11. May 2015),abuhamsa (27. April 2016),Akio (20. August 2015),AKira_Hidaka (9. July 2015),Aluaran (11. May 2015),AndeyW (27. April 2016),ANg3el (17. March 2016),AngelNine (27. September 2016),anime_lover (8. November 2015),Anon (10. February 2016),Antipott (14. June 2015),Asuka Langley (26. July 2016),badx (12. May 2015),baldur1989 (1. January 2016),BANDIMO (8. March 2016),basdi (8. January 2016),bayerle92 (24. April 2016),bbc123 (27. December 2015),Besen 48 (25. November 2015),BK-201 (7. August 2016),Black Lotus (14. August 2016),BlackGoldSaw (19. September 2015),BlackIron (6. July 2015),Brumme (12. November 2016),Bull (9. May 2015),bumer12 (24. April 2016),Cena90 (6. August 2015),ChriisP (31. October 2015),chris1989 (11. May 2015),cloud-strife20 (6. April 2016),Cloud9019 (18. December 2015),cooliero (2. April 2016),Corntendo (25. October 2015),CoRTeS (4. September 2015),crazy_p (11. December 2015),CrmnlBT (18. March 2016),damn10 (11. May 2016),darksera (9. October 2016),Deadman_01 (12. May 2015),deathseal (3. June 2016),Deedo320 (9. December 2015),dencl (19. January 2016),DetektivConanDE (11. May 2015),Deusira (26. February 2016),dkomm (13. May 2015),dmc4life (24. May 2016),downloader_1987 (13. May 2015),DR.N (28. May 2016),dreambird1973 (28. December 2015),dreimer (13. May 2016),DrJack_inactive (20. June 2015),drparnassus (12. May 2016),ElfenLied (24. September 2015),Elsiggi (15. May 2015),Eragon (25. February 2016),eraz (18. April 2016),Evilon (8. December 2015),Facebreaker (28. June 2015),falkenauge11 (17. May 2015),famoon (29. May 2016),Feuer (29. June 2015),Fox Faram (24. November 2015),foxasult (6. December 2015),Frag0042 (17. October 2015),frankra (31. October 2016),freakwatcher (12. June 2015),Freak_1Anime_inactive (3. July 2015),Freki (17. May 2015),freyaXI (21. July 2016),galudo (21. July 2016),GaZettE (14. January 2016),GiftGasBaer (28. July 2016),graythunder (31. March 2016),Grom (17. April 2016),Haftiabi Tefflondon (11. August 2016),haltdiefresse (26. July 2016),hausl (13. February 2016),Heat (20. February 2016),helloplaya (23. August 2015),Ibanezar (9. January 2016),InterNatler (4. November 2016),Itachi.Uchiha (26. November 2015),julian.schuh (12. September 2015),Kaito17 (12. June 2015),Kaktusmensch (15. September 2015),Kartox (21. September 2015),katey01 (24. June 2015),kei (24. July 2016),knanime (29. July 2016),Korihana (24. September 2015),Kradus (10. July 2015),KudoShinichi (28. September 2015),KuroVitt (7. January 2016),kuttyfram (23. December 2015),KyojinZeo (16. June 2015),Laikes (22. July 2016),LawrenceKraft (9. May 2015),lenikai (30. September 2015),Llyrell (12. August 2015),LostRay (21. October 2015),Lotosdenta (12. October 2015),lucky_mer (8. November 2015),luna220 (2. December 2016),M0NTYPython (6. March 2016),malina (17. May 2015),manninator (14. June 2016),Manuk (27. April 2016),Matzehansa (16. May 2015),Max13493 (19. November 2015),McZeRo (3. November 2015),midnighter (10. May 2015),Miles360 (9. May 2015),Mizoru (10. September 2015),MrSuicideSheeep (28. February 2016),MutationACE (13. February 2016),MViperC (28. October 2015),Natsuki (4. November 2015),nitsuj1001 (12. December 2015),norby (14. May 2016),ogc1 (8. November 2015),Okarin (9. May 2015),Pharander (1. August 2015),Priim0 (12. August 2015),Puke (21. October 2016),rabmaster (17. July 2015),RaienryuuRgr (9. May 2016),Raijin96 (24. August 2015),Regi (9. March 2016),Roxas8139 (9. January 2016),san1n (22. November 2015),Scorpionlord88 (23. February 2016),Se.phi.roth (19. October 2015),sech11_inactive (3. July 2015),Seishin (30. July 2015),Sekiryuutei (5. July 2015),SenseiSasone (12. August 2015),setugen no ao (25. July 2016),Shinigamiix (15. September 2015),Skelot (10. July 2015),skylier (4. June 2016),SmokingTea (14. June 2015),Sou-chan (24. June 2015),SoulZ (13. July 2015),sportfreak tim (20. July 2015),SSJ2gohan (8. March 2016),staralili (28. September 2015),SuicidalInsanity (21. August 2016),Superzorro (11. May 2015),syncity (26. July 2016),Taktix (15. December 2015),Tetriii (6. January 2016),Tevion32 (4. February 2016),The Killer for Two (19. June 2016),therealbarra (21. October 2015),theundead1108 (9. August 2015),THOR543 (24. October 2016),tokyodrift (18. May 2015),Trippez (27. September 2015),Truzter (28. July 2015),tzuio (11. May 2015),ultrasn0w (9. January 2016),UndeadBan (30. July 2016),vaniramai (27. November 2015),Varkoo (23. February 2016),Verethragna (19. October 2015),Virgel (24. July 2016),Wakaba (7. September 2015),Windwusel (18. January 2016),Wingfeaver (19. January 2016),Wölfchen (9. May 2015),xatoc (28. March 2016),Xca (7. September 2015),xColdAsIcex (13. July 2015),Xers (22. July 2016),XXY (4. August 2015),Z5991E (17. July 2015),Zap (20. November 2016),Zapzerap (21. July 2016),Zeroxar (29. June 2015)

  3. #2
    United we Stand Avatar von 00Ryuji00
    Registriert seit
    Oct 2012
    Beiträge
    3.902
    Punkte
    100.220
    Errungenschaften:
    TomodachisGang LeaderHikikomoriTagger Amateur50000 Erfahrungspunkte

    AW: Inuyasha [Ger-/Jap-Dub][Ger-Sub][560p/480p][DVDRip]

    Update: Dateien auf Wunsch wieder online.
    !!!Alle Anliegen bezüglich Uploads werden nur mit direktem Threadlink zum Angebot bearbeitet!!!

    Re-Uploadanfragen nur per PN - Ihr könnt mir auch Listen schicken

    Re-Uploads folgen nach Anfrage meist am Wochenende

    [Links sind nur für registrierte und aktivierte Nutzer sichtbar. Klicke hier um dich zu registrieren.] | [Links sind nur für registrierte und aktivierte Nutzer sichtbar. Klicke hier um dich zu registrieren.] | >[Links sind nur für registrierte und aktivierte Nutzer sichtbar. Klicke hier um dich zu registrieren.]<
    [Links sind nur für registrierte und aktivierte Nutzer sichtbar. Klicke hier um dich zu registrieren.]

  4. 1 Benutzer sagt Danke:

    luna220 (2. December 2016)

Lesezeichen

Berechtigungen

  • Neue Themen erstellen: Nein
  • Themen beantworten: Nein
  • Anhänge hochladen: Nein
  • Beiträge bearbeiten: Nein
  •  

1 2 3 4 5 6 7 8 9 10 11 12 13 14 15 16 17 18 19 20 21 22 23 24 25 26 27 28 29 30 31 32 33 34 35 36 37 38 39 40 41 42 43 44 45 46 47 48 49 50 51 52 53 54 55 56 57 58 59 60 61 62 63 64 65 66 67 68 69 70 71 72 73 74 75 76 77 78 79 80 81 82 83 84 85 86 87 88 89 90 91 92 93 94 95 96 97 98 99 100 101 102 103 104 105 106 107 108 109 110 111 112 113 114 115 116 117 118 119 120 121 122 123 124 125 126 127 128 129 130 131 132 133 134 135 136 137 138 139 140 141 142 143 144 145 146 147 148 149 150 151 152 153 154 155 156 157 158