Ergebnis 1 bis 2 von 2

Thema: Isshuukan Friends [Ger-Jap-Dub][Ger-Sub][AC3/DTS-HD][720p/1080p][Bluray]-Ast4u

Dieser Thread wurde durchschnittlich mit 5 Sternen bewertet, wobei 1 Stern die schlechteste und 5 Sterne die beste Bewertung ist. Es haben insgesamt 1 Mitglieder eine Bewertung abgegeben.

  1. #1
    United we Stand Avatar von 00Ryuji00
    Registriert seit
    Oct 2012
    Beiträge
    3.896
    Punkte
    99.666
    Errungenschaften:
    TomodachisGang LeaderHikikomoriTagger Amateur50000 Erfahrungspunkte

    Isshuukan Friends [Ger-Jap-Dub][Ger-Sub][AC3/DTS-HD][720p/1080p][Bluray]-Ast4u

    Isshuukan Friends
    一週間フレンズ
    One Week Friends






    Kurzbeschreibung:
    Kaori Fujimiya ist immer allein, weil all ihre glücklichen Erinnerungen, einschließlich die Zeit, die sie mit Freunden verbracht hat, jeden Montag verschwinden.
    Entschlossen, ihr Freund zu sein, versucht Yuuki Hase jede Woche aufs Neue, sich mit ihr anzufreunden, in der Hoffnung, dass sie ihn eines Tages "einen Freund" nennen würde.


    Sprache: Deutsch, Japanisch
    Untertitel: Deutsch
    Episodenanzahl: 12/12
    Format: .mkv
    Auflösung: 720p & 1080p
    Codec: x264
    Gruppe: Ast4u
    Hoster: Share-Online ; Uploaded


    Datei Info:
    Spoiler


    720p AC3

    Code:
    
    
    Format                                   : Matroska
    Format version                           : Version 4 / Version 2
    File size                                : 364 MiB
    Duration                                 : 23mn 40s
    Overall bit rate                         : 2 150 Kbps
    Encoded date                             : UTC 2015-05-27 15:12:00
    Writing application                      : mkvmerge v7.4.0 ('Circles') 64bit built on Dec 12 2014 12:19:56
    Writing library                          : libebml v1.3.0 + libmatroska v1.4.1
    _STATISTICS_WRITING_APP                  : mkvmerge v7.4.0 ('Circles') 64bit built on Dec 12 2014 12:19:56
    _STATISTICS_WRITING_DATE_UTC             : 2015-05-27 15:12:00
    _STATISTICS_TAGS                         : BPS DURATION NUMBER_OF_FRAMES NUMBER_OF_BYTES
    DURATION                                 : 00:22:33.728000000
    NUMBER_OF_FRAMES                         : 80
    NUMBER_OF_BYTES                          : 245599
    
    Video
    ID                                       : 1
    Format                                   : AVC
    Format/Info                              : Advanced Video Codec
    Format profile                           : [email protected]
    Format settings, CABAC                   : Yes
    Format settings, ReFrames                : 6 frames
    Codec ID                                 : V_MPEG4/ISO/AVC
    Duration                                 : 23mn 40s
    Bit rate                                 : 1 211 Kbps
    Width                                    : 1 280 pixels
    Height                                   : 720 pixels
    Display aspect ratio                     : 16:9
    Frame rate mode                          : Constant
    Frame rate                               : 23.976 fps
    Color space                              : YUV
    Chroma subsampling                       : 4:2:0
    Bit depth                                : 8 bits
    Scan type                                : Progressive
    Bits/(Pixel*Frame)                       : 0.055
    Stream size                              : 205 MiB (56%)
    Writing library                          : x264 core 146 r2538 121396c
    Encoding settings                        : cabac=1 / ref=6 / deblock=1:1:1 / analyse=0x3:0x113 / me=hex / subme=7 / psy=1 / psy_rd=1.00:0.00 / mixed_ref=1 / me_range=16 / chroma_me=1 / trellis=1 / 8x8dct=1 / cqm=0 / deadzone=21,11 / fast_pskip=1 / chroma_qp_offset=-2 / threads=6 / lookahead_threads=1 / sliced_threads=0 / nr=0 / decimate=1 / interlaced=0 / bluray_compat=0 / constrained_intra=0 / bframes=5 / b_pyramid=2 / b_adapt=1 / b_bias=0 / direct=1 / weightb=1 / open_gop=0 / weightp=2 / keyint=240 / keyint_min=23 / scenecut=40 / intra_refresh=0 / rc_lookahead=40 / rc=crf / mbtree=1 / crf=16.0 / qcomp=0.60 / qpmin=0 / qpmax=69 / qpstep=4 / vbv_maxrate=62500 / vbv_bufsize=78125 / crf_max=0.0 / nal_hrd=none / filler=0 / ip_ratio=1.40 / aq=1:0.60
    Default                                  : Yes
    Forced                                   : No
    
    Audio #1
    ID                                       : 2
    Format                                   : AC-3
    Format/Info                              : Audio Coding 3
    Mode extension                           : CM (complete main)
    Format settings, Endianness              : Big
    Codec ID                                 : A_AC3
    Duration                                 : 23mn 40s
    Bit rate mode                            : Constant
    Bit rate                                 : 448 Kbps
    Channel count                            : 2 channels
    Channel positions                        : Front: L R
    Sampling rate                            : 48.0 KHz
    Bit depth                                : 16 bits
    Compression mode                         : Lossy
    Stream size                              : 75.8 MiB (21%)
    Default                                  : Yes
    Forced                                   : No
    
    Audio #2
    ID                                       : 3
    Format                                   : AC-3
    Format/Info                              : Audio Coding 3
    Mode extension                           : CM (complete main)
    Format settings, Endianness              : Big
    Codec ID                                 : A_AC3
    Duration                                 : 23mn 40s
    Bit rate mode                            : Constant
    Bit rate                                 : 448 Kbps
    Channel count                            : 2 channels
    Channel positions                        : Front: L R
    Sampling rate                            : 48.0 KHz
    Bit depth                                : 16 bits
    Compression mode                         : Lossy
    Stream size                              : 75.8 MiB (21%)
    Default                                  : No
    Forced                                   : No
    
    Text #1
    ID                                       : 4
    Format                                   : PGS
    Muxing mode                              : zlib
    Codec ID                                 : S_HDMV/PGS
    Codec ID/Info                            : The same subtitle format used on BDs/HD-DVDs
    Default                                  : No
    Forced                                   : No
    
    Text #2
    ID                                       : 5
    Format                                   : PGS
    Muxing mode                              : zlib
    Codec ID                                 : S_HDMV/PGS
    Codec ID/Info                            : The same subtitle format used on BDs/HD-DVDs
    Default                                  : No
    Forced                                   : No
    
    



    1080p AC3

    Code:
    
    
    Format                                   : Matroska
    Format version                           : Version 4 / Version 2
    File size                                : 610 MiB
    Duration                                 : 23mn 40s
    Overall bit rate                         : 3 602 Kbps
    Encoded date                             : UTC 2015-05-27 15:12:09
    Writing application                      : mkvmerge v7.4.0 ('Circles') 64bit built on Dec 12 2014 12:19:56
    Writing library                          : libebml v1.3.0 + libmatroska v1.4.1
    _STATISTICS_WRITING_APP                  : mkvmerge v7.4.0 ('Circles') 64bit built on Dec 12 2014 12:19:56
    _STATISTICS_WRITING_DATE_UTC             : 2015-05-27 15:12:09
    _STATISTICS_TAGS                         : BPS DURATION NUMBER_OF_FRAMES NUMBER_OF_BYTES
    DURATION                                 : 00:22:33.728000000
    NUMBER_OF_FRAMES                         : 80
    NUMBER_OF_BYTES                          : 245599
    
    Video
    ID                                       : 1
    Format                                   : AVC
    Format/Info                              : Advanced Video Codec
    Format profile                           : [email protected]
    Format settings, CABAC                   : Yes
    Format settings, ReFrames                : 4 frames
    Codec ID                                 : V_MPEG4/ISO/AVC
    Duration                                 : 23mn 40s
    Bit rate                                 : 2 634 Kbps
    Width                                    : 1 920 pixels
    Height                                   : 1 080 pixels
    Display aspect ratio                     : 16:9
    Frame rate mode                          : Constant
    Frame rate                               : 23.976 fps
    Color space                              : YUV
    Chroma subsampling                       : 4:2:0
    Bit depth                                : 8 bits
    Scan type                                : Progressive
    Bits/(Pixel*Frame)                       : 0.053
    Stream size                              : 446 MiB (73%)
    Writing library                          : x264 core 146 r2538 121396c
    Encoding settings                        : cabac=1 / ref=4 / deblock=1:1:1 / analyse=0x3:0x113 / me=hex / subme=7 / psy=1 / psy_rd=1.00:0.00 / mixed_ref=1 / me_range=16 / chroma_me=1 / trellis=1 / 8x8dct=1 / cqm=0 / deadzone=21,11 / fast_pskip=1 / chroma_qp_offset=-2 / threads=6 / lookahead_threads=1 / sliced_threads=0 / nr=0 / decimate=1 / interlaced=0 / bluray_compat=0 / constrained_intra=0 / bframes=5 / b_pyramid=2 / b_adapt=1 / b_bias=0 / direct=1 / weightb=1 / open_gop=0 / weightp=2 / keyint=240 / keyint_min=23 / scenecut=40 / intra_refresh=0 / rc_lookahead=40 / rc=crf / mbtree=1 / crf=16.0 / qcomp=0.60 / qpmin=0 / qpmax=69 / qpstep=4 / vbv_maxrate=62500 / vbv_bufsize=78125 / crf_max=0.0 / nal_hrd=none / filler=0 / ip_ratio=1.40 / aq=1:0.60
    Default                                  : Yes
    Forced                                   : No
    
    Audio #1
    ID                                       : 2
    Format                                   : AC-3
    Format/Info                              : Audio Coding 3
    Mode extension                           : CM (complete main)
    Format settings, Endianness              : Big
    Codec ID                                 : A_AC3
    Duration                                 : 23mn 40s
    Bit rate mode                            : Constant
    Bit rate                                 : 448 Kbps
    Channel count                            : 2 channels
    Channel positions                        : Front: L R
    Sampling rate                            : 48.0 KHz
    Bit depth                                : 16 bits
    Compression mode                         : Lossy
    Stream size                              : 75.8 MiB (12%)
    Default                                  : Yes
    Forced                                   : No
    
    Audio #2
    ID                                       : 3
    Format                                   : AC-3
    Format/Info                              : Audio Coding 3
    Mode extension                           : CM (complete main)
    Format settings, Endianness              : Big
    Codec ID                                 : A_AC3
    Duration                                 : 23mn 40s
    Bit rate mode                            : Constant
    Bit rate                                 : 448 Kbps
    Channel count                            : 2 channels
    Channel positions                        : Front: L R
    Sampling rate                            : 48.0 KHz
    Bit depth                                : 16 bits
    Compression mode                         : Lossy
    Stream size                              : 75.8 MiB (12%)
    Default                                  : No
    Forced                                   : No
    
    Text #1
    ID                                       : 4
    Format                                   : PGS
    Muxing mode                              : zlib
    Codec ID                                 : S_HDMV/PGS
    Codec ID/Info                            : The same subtitle format used on BDs/HD-DVDs
    Default                                  : No
    Forced                                   : No
    
    Text #2
    ID                                       : 5
    Format                                   : PGS
    Muxing mode                              : zlib
    Codec ID                                 : S_HDMV/PGS
    Codec ID/Info                            : The same subtitle format used on BDs/HD-DVDs
    Default                                  : No
    Forced                                   : No
    
    


    1080p DTS-HD

    Code:
    
    
    Format                                   : Matroska
    Format version                           : Version 4 / Version 2
    File size                                : 1.08 GiB
    Duration                                 : 23mn 40s
    Overall bit rate mode                    : Variable
    Overall bit rate                         : 6 528 Kbps
    Encoded date                             : UTC 2015-05-27 13:16:02
    Writing application                      : mkvmerge v7.4.0 ('Circles') 64bit built on Dec 12 2014 12:19:56
    Writing library                          : libebml v1.3.0 + libmatroska v1.4.1
    _STATISTICS_WRITING_APP                  : mkvmerge v7.4.0 ('Circles') 64bit built on Dec 12 2014 12:19:56
    _STATISTICS_WRITING_DATE_UTC             : 2015-05-27 13:16:02
    _STATISTICS_TAGS                         : BPS DURATION NUMBER_OF_FRAMES NUMBER_OF_BYTES
    DURATION                                 : 00:22:33.728000000
    NUMBER_OF_FRAMES                         : 80
    NUMBER_OF_BYTES                          : 245599
    
    Video
    ID                                       : 1
    Format                                   : AVC
    Format/Info                              : Advanced Video Codec
    Format profile                           : [email protected]
    Format settings, CABAC                   : Yes
    Format settings, ReFrames                : 4 frames
    Codec ID                                 : V_MPEG4/ISO/AVC
    Duration                                 : 23mn 40s
    Width                                    : 1 920 pixels
    Height                                   : 1 080 pixels
    Display aspect ratio                     : 16:9
    Frame rate mode                          : Constant
    Frame rate                               : 23.976 fps
    Color space                              : YUV
    Chroma subsampling                       : 4:2:0
    Bit depth                                : 8 bits
    Scan type                                : Progressive
    Writing library                          : x264 core 146 r2538 121396c
    Encoding settings                        : cabac=1 / ref=4 / deblock=1:1:1 / analyse=0x3:0x113 / me=hex / subme=7 / psy=1 / psy_rd=1.00:0.00 / mixed_ref=1 / me_range=16 / chroma_me=1 / trellis=1 / 8x8dct=1 / cqm=0 / deadzone=21,11 / fast_pskip=1 / chroma_qp_offset=-2 / threads=6 / lookahead_threads=1 / sliced_threads=0 / nr=0 / decimate=1 / interlaced=0 / bluray_compat=0 / constrained_intra=0 / bframes=5 / b_pyramid=2 / b_adapt=1 / b_bias=0 / direct=1 / weightb=1 / open_gop=0 / weightp=2 / keyint=240 / keyint_min=23 / scenecut=40 / intra_refresh=0 / rc_lookahead=40 / rc=crf / mbtree=1 / crf=16.0 / qcomp=0.60 / qpmin=0 / qpmax=69 / qpstep=4 / vbv_maxrate=62500 / vbv_bufsize=78125 / crf_max=0.0 / nal_hrd=none / filler=0 / ip_ratio=1.40 / aq=1:0.60
    Default                                  : Yes
    Forced                                   : No
    
    Audio #1
    ID                                       : 2
    Format                                   : DTS
    Format/Info                              : Digital Theater Systems
    Format profile                           : MA / Core
    Mode                                     : 16
    Format settings, Endianness              : Big
    Codec ID                                 : A_DTS
    Duration                                 : 23mn 40s
    Bit rate mode                            : Variable
    Bit rate                                 : Unknown / 1 509 Kbps
    Channel count                            : 2 channels
    Channel positions                        : Front: L R
    Sampling rate                            : 48.0 KHz
    Bit depth                                : 24 bits
    Compression mode                         : Lossless / Lossy
    Default                                  : Yes
    Forced                                   : No
    
    Audio #2
    ID                                       : 3
    Format                                   : DTS
    Format/Info                              : Digital Theater Systems
    Format profile                           : MA / Core
    Mode                                     : 16
    Format settings, Endianness              : Big
    Codec ID                                 : A_DTS
    Duration                                 : 23mn 40s
    Bit rate mode                            : Variable
    Bit rate                                 : Unknown / 1 509 Kbps
    Channel count                            : 2 channels
    Channel positions                        : Front: L R
    Sampling rate                            : 48.0 KHz
    Bit depth                                : 16 bits
    Compression mode                         : Lossless / Lossy
    Default                                  : No
    Forced                                   : No
    
    Text #1
    ID                                       : 4
    Format                                   : PGS
    Muxing mode                              : zlib
    Codec ID                                 : S_HDMV/PGS
    Codec ID/Info                            : The same subtitle format used on BDs/HD-DVDs
    Default                                  : Yes
    Forced                                   : No
    
    Text #2
    ID                                       : 5
    Format                                   : PGS
    Muxing mode                              : zlib
    Codec ID                                 : S_HDMV/PGS
    Codec ID/Info                            : The same subtitle format used on BDs/HD-DVDs
    Default                                  : No
    Forced                                   : No
    
    







    Geschützter Bereich - Bedanke dich beim Poster, um den Bereich sehen zu können
    Hier erfährst Du wie Du Dich bedanken kannst oder werde jetzt Premium Mitglied ab einer Spende von 5€ und erhalte sofortigen Zugriff auf den Downloadbereich!
    !!!Alle Anliegen bezüglich Uploads werden nur mit direktem Threadlink zum Angebot bearbeitet!!!

    Re-Uploadanfragen nur per PN - Ihr könnt mir auch Listen schicken

    Re-Uploads erfolgen meist innerhalb 24h, kann aber auch bis zu 7 Tage dauern

    [Links sind nur für registrierte und aktivierte Nutzer sichtbar. Klicke hier um dich zu registrieren.] | [Links sind nur für registrierte und aktivierte Nutzer sichtbar. Klicke hier um dich zu registrieren.] | >[Links sind nur für registrierte und aktivierte Nutzer sichtbar. Klicke hier um dich zu registrieren.]<
    [Links sind nur für registrierte und aktivierte Nutzer sichtbar. Klicke hier um dich zu registrieren.]

  2. 108 Benutzer sagen Danke:

    Anzeigen

    Akio (26. November 2015),Aluaran (27. July 2015),Androkai (4. August 2015),ani212 (4. August 2015),Antipott (8. September 2015),Ardock (25. November 2015),Asuka Langley (29. September 2015),Atmozfear (13. August 2015),B4c4rd1 (3. September 2015),babjasrap94 (17. May 2016),BlackPhoenix (24. July 2015),BlackReaper (24. July 2015),Blubbel (25. July 2015),Chillasedi (31. July 2015),chopper23 (24. July 2015),Conopas (5. May 2016),Cy_Baer (25. July 2015),Darth Affe (26. January 2016),DarthToast (25. July 2015),demonac (19. August 2016),Deshi25 (26. December 2015),DetektivConanDE (15. August 2015),dimachenkov (14. August 2015),downloader_1987 (31. July 2015),dragonking87 (14. October 2015),Filbo11 (8. May 2016),FingerMove (21. May 2016),flippi86 (24. October 2015),freakwatcher (6. September 2015),fullmetal1995 (7. October 2015),Garbor (21. November 2015),gdsatan (4. August 2015),Genshirou (5. November 2015),Ghostraven (12. October 2015),GiftGasBaer (20. February 2016),glasklar (10. November 2015),Grave Baker (5. August 2015),hacime (25. July 2015),haltdiefresse (28. September 2015),happydrop99 (6. September 2015),helloplaya (5. September 2015),Hi im Shini (12. September 2015),Holzmodem (3. August 2015),hunter4320 (1. September 2015),huntercity (7. September 2015),Jack (16. November 2016),jacksparrow12 (16. September 2015),JoleenLovesMina (25. November 2015),kaitokid187 (7. December 2015),Kaktusmensch (1. August 2015),KelioN (26. May 2016),Kelthas (9. September 2015),khavatarie (25. August 2015),Killua (30. August 2015),Kinasix (3. August 2015),kinghol (25. July 2015),Kirdock (9. July 2016),Kristal (20. November 2015),Ley0304 (15. August 2015),Lowtz (6. November 2015),Manuk (16. May 2016),markusdamon5 (22. September 2016),mauslea (15. August 2015),MC_Kay (14. August 2015),meyer (18. August 2015),michael187 (26. May 2016),midnighter (25. July 2015),nabou (5. August 2015),nemo (11. September 2016),nightstick (28. July 2015),Niker92 (20. January 2016),norby (24. July 2015),Patorikku-kun (24. September 2015),Paulus (25. July 2015),Ramirez (31. August 2015),Raziel (17. September 2015),rekiznuh1 (23. September 2015),Rena (25. October 2015),Rheijaa (15. March 2016),S1M0N93 (28. March 2016),saarx (4. August 2015),sabs0686 (14. November 2016),Sandy7580 (26. February 2016),sangheilie (23. August 2015),Sasuke (31. August 2015),satsugai (9. August 2015),SciTeC (11. September 2015),Shir0ku (18. August 2015),Shoukiin (11. January 2016),SilverSurferGT.de (2. August 2015),Skaze (14. August 2015),skylier (26. July 2015),Smiths (16. May 2016),Sora (8. May 2016),Stoneman (31. October 2015),Tekk (25. July 2015),thanathan85 (23. September 2015),The_Iron (24. August 2015),thor17 (2. January 2016),Tidus18 (8. March 2016),Tsu (1. December 2015),Tzi (24. July 2015),tzuio (4. October 2015),Wides (15. August 2015),Xidor (14. September 2015),Yaranaika (25. November 2015),zoe#449 (5. March 2016),Zumay (4. August 2015)

  3. #2
    High Quality Anime Avatar von Uploading123
    Registriert seit
    Mar 2013
    Beiträge
    1.008
    Punkte
    44.102
    Errungenschaften:
    TomodachisTagger Amateur25000 ErfahrungspunkteHikikomoriKapitän

    AW: Isshuukan Friends [Ger-Jap-Dub][Ger-Sub][AC3/DTS-HD][720p/1080p][Bluray]-Ast4u


    Isshuukan.Friends.COMPLETE.2014.German.AC3.DL.720p .BluRay.x264-AST4u



    .:Beschreibung:.
    Kaori Fujimiya ist immer allein, weil all ihre glücklichen Erinnerungen, einschließlich die Zeit, die sie mit Freunden verbracht hat, jeden Montag verschwinden.
    Entschlossen ihr Freund zu sein, versucht Yuuki Hase jede Woche auf's Neue sich mit ihr anzufreunden, in der Hoffnung, dass sie ihn eines Tages "einen Freund" nennen würde.

    .:Info:.
    Größe: 4035.11 MB
    Laufzeit: 276 Min.
    Format: .mkv
    Video Stream: BD
    Video Codec: MPEG-4 H.264 / AVC
    Audio Stream: Dolby Digital 2.0
    Sprache/n: GER, JPN
    Genre: Anime

    .:NFO:.
    Spoiler
    Code:
    Allgemein
    UniqueID/String                          : 171860898862013939464149679515001075399 (0x814B3483F962A09690EB2943A8EAB6C7)
    Vollständiger Name                       : One.Week.Friends.Ep.01.German.AC3.DL.720p.BluRay.x264-AST4u.mkv
    Format                                   : Matroska
    Format-Version                           : Version 4 / Version 2
    Dateigröße                               : 366 MiB
    Dauer                                    : 23min
    Gesamte Bitrate                          : 2 162 Kbps
    Kodierungs-Datum                         : UTC 2015-05-27 18:12:38
    Kodierendes Programm                     : mkvmerge v7.9.0 ('Birds') 32bit
    verwendete Encoder-Bibliothek            : libebml v1.3.1 + libmatroska v1.4.2
    Attachements                             : Delicious-BoldItalic.otf / Jayneprint.ttf / KylesHand Regular.ttf / NewBaskerville.ttf / PPETRIAL.otf / Rosango Bold.ttf / SWZ721H.ttf / SWZ721M.ttf / VERONI_H.ttf / weblysleekuisl.ttf / Amienne.ttf / Change Tomorrow Today.ttf / Delicious-Bold.otf
    DURATION                                 : 00:23:31.960000000
    
    Video
    ID                                       : 1
    Format                                   : AVC
    Format/Info                              : Advanced Video Codec
    Format-Profil                            : [email protected]
    Format-Einstellungen für CABAC           : Ja
    Format-Einstellungen für ReFrames        : 6 frames
    Codec-ID                                 : V_MPEG4/ISO/AVC
    Dauer                                    : 23min
    Bitrate                                  : 1 223 Kbps
    Breite                                   : 1 280 Pixel
    Höhe                                     : 720 Pixel
    Bildseitenverhältnis                     : 16:9
    Modus der Bildwiederholungsrate          : konstant
    Bildwiederholungsrate                    : 23,976 FPS
    ColorSpace                               : YUV
    ChromaSubsampling                        : 4:2:0
    BitDepth/String                          : 8 bits
    Scantyp                                  : progressiv
    Bits/(Pixel*Frame)                       : 0.055
    Stream-Größe                             : 207 MiB (57%)
    verwendete Encoder-Bibliothek            : x264 core 146 r2538 121396c
    Kodierungseinstellungen                  : cabac=1 / ref=6 / deblock=1:1:1 / analyse=0x3:0x113 / me=hex / subme=7 / psy=1 / psy_rd=1.00:0.00 / mixed_ref=1 / me_range=16 / chroma_me=1 / trellis=1 / 8x8dct=1 / cqm=0 / deadzone=21,11 / fast_pskip=1 / chroma_qp_offset=-2 / threads=6 / lookahead_threads=1 / sliced_threads=0 / nr=0 / decimate=1 / interlaced=0 / bluray_compat=0 / constrained_intra=0 / bframes=5 / b_pyramid=2 / b_adapt=1 / b_bias=0 / direct=1 / weightb=1 / open_gop=0 / weightp=2 / keyint=240 / keyint_min=23 / scenecut=40 / intra_refresh=0 / rc_lookahead=40 / rc=crf / mbtree=1 / crf=16.0 / qcomp=0.60 / qpmin=0 / qpmax=69 / qpstep=4 / vbv_maxrate=62500 / vbv_bufsize=78125 / crf_max=0.0 / nal_hrd=none / filler=0 / ip_ratio=1.40 / aq=1:0.60
    Default                                  : Ja
    Forced                                   : Nein
    
    Audio #1
    ID                                       : 2
    Format                                   : AC-3
    Format/Info                              : Audio Coding 3
    Format_Settings_ModeExtension            : CM (complete main)
    Format-Einstellungen für Endianess       : Big
    Codec-ID                                 : A_AC3
    Dauer                                    : 23min
    Bitraten-Modus                           : konstant
    Bitrate                                  : 448 Kbps
    Kanäle                                   : 2 Kanäle
    Kanal-Positionen                         : Front: L R
    Samplingrate                             : 48,0 KHz
    BitDepth/String                          : 16 bits
    Stream-Größe                             : 75,8 MiB (21%)
    Titel                                    : AC3 2.0
    Sprache                                  : Deutsch
    Default                                  : Ja
    Forced                                   : Nein
    
    Audio #2
    ID                                       : 3
    Format                                   : AC-3
    Format/Info                              : Audio Coding 3
    Format_Settings_ModeExtension            : CM (complete main)
    Format-Einstellungen für Endianess       : Big
    Codec-ID                                 : A_AC3
    Dauer                                    : 23min
    Bitraten-Modus                           : konstant
    Bitrate                                  : 448 Kbps
    Kanäle                                   : 2 Kanäle
    Kanal-Positionen                         : Front: L R
    Samplingrate                             : 48,0 KHz
    BitDepth/String                          : 16 bits
    Stream-Größe                             : 75,8 MiB (21%)
    Titel                                    : AC3 2.0
    Sprache                                  : Japanisch
    Default                                  : Nein
    Forced                                   : Nein
    
    Text #1
    ID                                       : 4
    Format                                   : VobSub
    Muxing-Modus                             : zlib
    Codec-ID                                 : S_VOBSUB
    Codec-ID/Info                            : The same subtitle format used on DVDs
    Titel                                    : FORCED VOBSUB
    Sprache                                  : Deutsch
    Default                                  : Ja
    Forced                                   : Nein
    
    Text #2
    ID                                       : 5
    Format                                   : VobSub
    Muxing-Modus                             : zlib
    Codec-ID                                 : S_VOBSUB
    Codec-ID/Info                            : The same subtitle format used on DVDs
    Titel                                    : FULL VOBSUB
    Sprache                                  : Deutsch
    Default                                  : Nein
    Forced                                   : Nein
    
    Text #3
    ID                                       : 6
    Format                                   : PGS
    Muxing-Modus                             : zlib
    Codec-ID                                 : S_HDMV/PGS
    Codec-ID/Info                            : The same subtitle format used on BDs/HD-DVDs
    Titel                                    : FORCED PGS
    Sprache                                  : Deutsch
    Default                                  : Nein
    Forced                                   : Nein
    
    Text #4
    ID                                       : 7
    Format                                   : PGS
    Muxing-Modus                             : zlib
    Codec-ID                                 : S_HDMV/PGS
    Codec-ID/Info                            : The same subtitle format used on BDs/HD-DVDs
    Titel                                    : FULL PGS
    Sprache                                  : Deutsch
    Default                                  : Nein
    Forced                                   : Nein
    
    Text #5
    ID                                       : 8
    Format                                   : ASS
    Codec-ID                                 : S_TEXT/ASS
    Codec-ID/Info                            : Advanced Sub Station Alpha
    Titel                                    : FULL ASS [Vivid]
    Sprache                                  : Englisch
    Default                                  : Nein
    Forced                                   : Nein
    
    Menü
    00:00:00.033                             : en:Intro
    00:01:27.850                             : en:OP
    00:02:57.860                             : en:Part A
    00:12:42.900                             : en:Part B
    00:22:01.550                             : en:ED
    00:23:25.880                             : en:Preview


    Mirrors kompatibel

    .:Uploaded.net:.
    Geschützter Bereich - Bedanke dich beim Poster, um den Bereich sehen zu können
    Hier erfährst Du wie Du Dich bedanken kannst oder werde jetzt Premium Mitglied ab einer Spende von 5€ und erhalte sofortigen Zugriff auf den Downloadbereich!

    .:Share-online.biz:.
    Geschützter Bereich - Bedanke dich beim Poster, um den Bereich sehen zu können
    Hier erfährst Du wie Du Dich bedanken kannst oder werde jetzt Premium Mitglied ab einer Spende von 5€ und erhalte sofortigen Zugriff auf den Downloadbereich!




    Isshuukan.Friends.COMPLETE.2014.German.AC3.DL.1080 p.BluRay.x264-AST4u



    .:Beschreibung:.
    Kaori Fujimiya ist immer allein, weil all ihre glücklichen Erinnerungen, einschließlich die Zeit, die sie mit Freunden verbracht hat, jeden Montag verschwinden.
    Entschlossen ihr Freund zu sein, versucht Yuuki Hase jede Woche auf's Neue sich mit ihr anzufreunden, in der Hoffnung, dass sie ihn eines Tages "einen Freund" nennen würde.

    .:Info:.
    Größe: 6630.26 MB
    Laufzeit: 276 Min.
    Format: .mkv
    Video Stream: BD
    Video Codec: MPEG-4 H.264 / AVC
    Audio Stream: Dolby Digital 2.0
    Sprache/n: GER, JPN
    Genre: Anime

    .:NFO:.
    Spoiler
    Code:
    General
    Unique ID                                : 215584301387941739933732437509388012056 (0xA23006B24F2E2ECB97C3C6343B928A18)
    Complete name                            : One.Week.Friends.Ep.01-12.German.AC3.DL.1080p.BluRay.x264-AST4u\One.Week.Friends.Ep.01.German.AC3.DL.1080p.BluRay.x264-AST4u.mkv
    Format                                   : Matroska
    Format version                           : Version 4 / Version 2
    File size                                : 610 MiB
    Duration                                 : 23mn 40s
    Overall bit rate                         : 3 602 Kbps
    Encoded date                             : UTC 2015-05-27 15:12:09
    Writing application                      : mkvmerge v7.4.0 ('Circles') 64bit built on Dec 12 2014 12:19:56
    Writing library                          : libebml v1.3.0 + libmatroska v1.4.1
    _STATISTICS_WRITING_APP                  : mkvmerge v7.4.0 ('Circles') 64bit built on Dec 12 2014 12:19:56
    _STATISTICS_WRITING_DATE_UTC             : 2015-05-27 15:12:09
    _STATISTICS_TAGS                         : BPS DURATION NUMBER_OF_FRAMES NUMBER_OF_BYTES
    DURATION                                 : 00:22:33.728000000
    NUMBER_OF_FRAMES                         : 80
    NUMBER_OF_BYTES                          : 245599
    
    Video
    ID                                       : 1
    Format                                   : AVC
    Format/Info                              : Advanced Video Codec
    Format profile                           : [email protected]
    Format settings, CABAC                   : Yes
    Format settings, ReFrames                : 4 frames
    Codec ID                                 : V_MPEG4/ISO/AVC
    Duration                                 : 23mn 40s
    Bit rate                                 : 2 634 Kbps
    Width                                    : 1 920 pixels
    Height                                   : 1 080 pixels
    Display aspect ratio                     : 16:9
    Frame rate mode                          : Constant
    Frame rate                               : 23.976 fps
    Color space                              : YUV
    Chroma subsampling                       : 4:2:0
    Bit depth                                : 8 bits
    Scan type                                : Progressive
    Bits/(Pixel*Frame)                       : 0.053
    Stream size                              : 446 MiB (73%)
    Writing library                          : x264 core 146 r2538 121396c
    Encoding settings                        : cabac=1 / ref=4 / deblock=1:1:1 / analyse=0x3:0x113 / me=hex / subme=7 / psy=1 / psy_rd=1.00:0.00 / mixed_ref=1 / me_range=16 / chroma_me=1 / trellis=1 / 8x8dct=1 / cqm=0 / deadzone=21,11 / fast_pskip=1 / chroma_qp_offset=-2 / threads=6 / lookahead_threads=1 / sliced_threads=0 / nr=0 / decimate=1 / interlaced=0 / bluray_compat=0 / constrained_intra=0 / bframes=5 / b_pyramid=2 / b_adapt=1 / b_bias=0 / direct=1 / weightb=1 / open_gop=0 / weightp=2 / keyint=240 / keyint_min=23 / scenecut=40 / intra_refresh=0 / rc_lookahead=40 / rc=crf / mbtree=1 / crf=16.0 / qcomp=0.60 / qpmin=0 / qpmax=69 / qpstep=4 / vbv_maxrate=62500 / vbv_bufsize=78125 / crf_max=0.0 / nal_hrd=none / filler=0 / ip_ratio=1.40 / aq=1:0.60
    Default                                  : Yes
    Forced                                   : No
    
    Audio #1
    ID                                       : 2
    Format                                   : AC-3
    Format/Info                              : Audio Coding 3
    Mode extension                           : CM (complete main)
    Format settings, Endianness              : Big
    Codec ID                                 : A_AC3
    Duration                                 : 23mn 40s
    Bit rate mode                            : Constant
    Bit rate                                 : 448 Kbps
    Channel(s)                               : 2 channels
    Channel positions                        : Front: L R
    Sampling rate                            : 48.0 KHz
    Compression mode                         : Lossy
    Stream size                              : 75.8 MiB (12%)
    Default                                  : Yes
    Forced                                   : No
    
    Audio #2
    ID                                       : 3
    Format                                   : AC-3
    Format/Info                              : Audio Coding 3
    Mode extension                           : CM (complete main)
    Format settings, Endianness              : Big
    Codec ID                                 : A_AC3
    Duration                                 : 23mn 40s
    Bit rate mode                            : Constant
    Bit rate                                 : 448 Kbps
    Channel(s)                               : 2 channels
    Channel positions                        : Front: L R
    Sampling rate                            : 48.0 KHz
    Compression mode                         : Lossy
    Stream size                              : 75.8 MiB (12%)
    Default                                  : No
    Forced                                   : No
    
    Text #1
    ID                                       : 4
    Format                                   : PGS
    Muxing mode                              : zlib
    Codec ID                                 : S_HDMV/PGS
    Codec ID/Info                            : Picture based subtitle format used on BDs/HD-DVDs
    Default                                  : No
    Forced                                   : No
    
    Text #2
    ID                                       : 5
    Format                                   : PGS
    Muxing mode                              : zlib
    Codec ID                                 : S_HDMV/PGS
    Codec ID/Info                            : Picture based subtitle format used on BDs/HD-DVDs
    Default                                  : No
    Forced                                   : No


    Mirrors kompatibel

    .:Uploaded.net:.
    Geschützter Bereich - Bedanke dich beim Poster, um den Bereich sehen zu können
    Hier erfährst Du wie Du Dich bedanken kannst oder werde jetzt Premium Mitglied ab einer Spende von 5€ und erhalte sofortigen Zugriff auf den Downloadbereich!

    .:Share-online.biz:.
    Geschützter Bereich - Bedanke dich beim Poster, um den Bereich sehen zu können
    Hier erfährst Du wie Du Dich bedanken kannst oder werde jetzt Premium Mitglied ab einer Spende von 5€ und erhalte sofortigen Zugriff auf den Downloadbereich!




    Isshuukan.Friends.COMPLETE.2014.German.DTS.DL.1080 p.BluRay.x264-AST4u



    .:Beschreibung:.
    Kaori Fujimiya ist immer allein, weil all ihre glücklichen Erinnerungen, einschließlich die Zeit, die sie mit Freunden verbracht hat, jeden Montag verschwinden.
    Entschlossen ihr Freund zu sein, versucht Yuuki Hase jede Woche auf's Neue sich mit ihr anzufreunden, in der Hoffnung, dass sie ihn eines Tages "einen Freund" nennen würde.

    .:Info:.
    Größe: 12980.17 MB
    Laufzeit: 276 Min.
    Format: .mkv
    Video Stream: BD
    Video Codec: MPEG-4 H.264 / AVC
    Audio Stream: DTS 2.0
    Sprache/n: GER, JPN
    Genre: Anime

    .:NFO:.
    Spoiler
    Code:
    Allgemein
    UniqueID/String                          : 247891428728198579195763684978023916713 (0xBA7E270DCF1480BA91339DAF4676E4A9)
    Vollständiger Name                       : One.Week.Friends.Ep.01.German.DTS.DL.1080p.BluRay.x264-AST4u.mkv
    Format                                   : Matroska
    Format-Version                           : Version 4 / Version 2
    Dateigröße                               : 1,08 GiB
    Dauer                                    : 23min
    Modus der Gesamtbitrate                  : variabel
    Gesamte Bitrate                          : 6 528 Kbps
    Kodierungs-Datum                         : UTC 2015-05-27 13:16:02
    Kodierendes Programm                     : mkvmerge v7.4.0 ('Circles') 64bit built on Dec 12 2014 12:19:56
    verwendete Encoder-Bibliothek            : libebml v1.3.0 + libmatroska v1.4.1
    _STATISTICS_WRITING_APP                  : mkvmerge v7.4.0 ('Circles') 64bit built on Dec 12 2014 12:19:56
    _STATISTICS_WRITING_DATE_UTC             : 2015-05-27 13:16:02
    _STATISTICS_TAGS                         : BPS DURATION NUMBER_OF_FRAMES NUMBER_OF_BYTES
    DURATION                                 : 00:22:33.728000000
    NUMBER_OF_FRAMES                         : 80
    NUMBER_OF_BYTES                          : 245599
    
    Video
    ID                                       : 1
    Format                                   : AVC
    Format/Info                              : Advanced Video Codec
    Format-Profil                            : [email protected]
    Format-Einstellungen für CABAC           : Ja
    Format-Einstellungen für ReFrames        : 4 frames
    Codec-ID                                 : V_MPEG4/ISO/AVC
    Dauer                                    : 23min
    Breite                                   : 1 920 Pixel
    Höhe                                     : 1 080 Pixel
    Bildseitenverhältnis                     : 16:9
    Modus der Bildwiederholungsrate          : konstant
    Bildwiederholungsrate                    : 23,976 FPS
    ColorSpace                               : YUV
    ChromaSubsampling                        : 4:2:0
    BitDepth/String                          : 8 bits
    Scantyp                                  : progressiv
    verwendete Encoder-Bibliothek            : x264 core 146 r2538 121396c
    Kodierungseinstellungen                  : cabac=1 / ref=4 / deblock=1:1:1 / analyse=0x3:0x113 / me=hex / subme=7 / psy=1 / psy_rd=1.00:0.00 / mixed_ref=1 / me_range=16 / chroma_me=1 / trellis=1 / 8x8dct=1 / cqm=0 / deadzone=21,11 / fast_pskip=1 / chroma_qp_offset=-2 / threads=6 / lookahead_threads=1 / sliced_threads=0 / nr=0 / decimate=1 / interlaced=0 / bluray_compat=0 / constrained_intra=0 / bframes=5 / b_pyramid=2 / b_adapt=1 / b_bias=0 / direct=1 / weightb=1 / open_gop=0 / weightp=2 / keyint=240 / keyint_min=23 / scenecut=40 / intra_refresh=0 / rc_lookahead=40 / rc=crf / mbtree=1 / crf=16.0 / qcomp=0.60 / qpmin=0 / qpmax=69 / qpstep=4 / vbv_maxrate=62500 / vbv_bufsize=78125 / crf_max=0.0 / nal_hrd=none / filler=0 / ip_ratio=1.40 / aq=1:0.60
    Default                                  : Ja
    Forced                                   : Nein
    
    Audio #1
    ID                                       : 2
    Format                                   : DTS
    Format/Info                              : Digital Theater Systems
    Format-Profil                            : MA / Core
    Format_Settings_Mode                     : 16
    Format-Einstellungen für Endianess       : Big
    Codec-ID                                 : A_DTS
    Dauer                                    : 23min
    Bitraten-Modus                           : variabel
    Bitrate                                  : Unbekannt / 1 509 Kbps
    Kanäle                                   : 2 Kanäle
    Kanal-Positionen                         : Front: L R
    Samplingrate                             : 48,0 KHz
    BitDepth/String                          : 24 bits
    Compression_Mode/String                  :  / Lossy
    Default                                  : Ja
    Forced                                   : Nein
    
    Audio #2
    ID                                       : 3
    Format                                   : DTS
    Format/Info                              : Digital Theater Systems
    Format-Profil                            : MA / Core
    Format_Settings_Mode                     : 16
    Format-Einstellungen für Endianess       : Big
    Codec-ID                                 : A_DTS
    Dauer                                    : 23min
    Bitraten-Modus                           : variabel
    Bitrate                                  : Unbekannt / 1 509 Kbps
    Kanäle                                   : 2 Kanäle
    Kanal-Positionen                         : Front: L R
    Samplingrate                             : 48,0 KHz
    BitDepth/String                          : 16 bits
    Compression_Mode/String                  :  / Lossy
    Default                                  : Nein
    Forced                                   : Nein
    
    Text #1
    ID                                       : 4
    Format                                   : PGS
    Muxing-Modus                             : zlib
    Codec-ID                                 : S_HDMV/PGS
    Codec-ID/Info                            : Picture based subtitle format used on BDs/HD-DVDs
    Default                                  : Ja
    Forced                                   : Nein
    
    Text #2
    ID                                       : 5
    Format                                   : PGS
    Muxing-Modus                             : zlib
    Codec-ID                                 : S_HDMV/PGS
    Codec-ID/Info                            : Picture based subtitle format used on BDs/HD-DVDs
    Default                                  : Nein
    Forced                                   : Nein


    Mirrors kompatibel

    .:Uploaded.net:.
    Geschützter Bereich - Bedanke dich beim Poster, um den Bereich sehen zu können
    Hier erfährst Du wie Du Dich bedanken kannst oder werde jetzt Premium Mitglied ab einer Spende von 5€ und erhalte sofortigen Zugriff auf den Downloadbereich!

    .:Share-online.biz:.
    Geschützter Bereich - Bedanke dich beim Poster, um den Bereich sehen zu können
    Hier erfährst Du wie Du Dich bedanken kannst oder werde jetzt Premium Mitglied ab einer Spende von 5€ und erhalte sofortigen Zugriff auf den Downloadbereich!

    Geändert von Uploading123 (3. August 2015 um 15:27 Uhr)

  4. 26 Benutzer sagen Danke:

    Aluaran (4. August 2015),Asuka Langley (29. September 2015),Chillasedi (3. August 2015),Darth Affe (14. August 2016),DarthToast (3. August 2015),Evilon (28. December 2015),Feed Me x33 (13. January 2016),Filbo11 (8. May 2016),FingerMove (21. May 2016),Grave Baker (5. August 2015),hacime (4. August 2015),kenschi (13. January 2016),Kinasix (3. August 2015),Kirdock (10. July 2016),manuel4193 (3. August 2015),Manuk (16. May 2016),Meistermagier (3. August 2015),michael187 (26. May 2016),NUVAKWAHU (20. April 2016),prinzvegeta (9. August 2015),Ronae (3. August 2015),Skully_88 (11. September 2015),Sora (8. May 2016),Tekk (4. August 2015),Tidus18 (8. March 2016),zoe#449 (5. March 2016)

Lesezeichen

Berechtigungen

  • Neue Themen erstellen: Nein
  • Themen beantworten: Nein
  • Anhänge hochladen: Nein
  • Beiträge bearbeiten: Nein
  •  

1 2 3 4 5 6 7 8 9 10 11 12 13 14 15 16 17 18 19 20 21 22 23 24 25 26 27 28 29 30 31 32 33 34 35 36 37 38 39 40 41 42 43 44 45 46 47 48 49 50 51 52 53 54 55 56 57 58 59 60 61 62 63 64 65 66 67 68 69 70 71 72 73 74 75 76 77 78 79 80 81 82 83 84 85 86 87 88 89 90 91 92 93 94 95 96 97 98 99 100 101 102 103 104 105 106 107 108 109 110 111 112 113 114 115 116 117 118 119 120 121 122 123 124 125 126 127 128 129 130 131 132 133 134 135 136 137 138 139 140 141 142 143 144 145 146 147 148 149 150 151 152 153 154 155 156 157 158