Ergebnis 1 bis 1 von 1

Thema: Jikuu Tantei Genshi-kun - Flint Hammerhead [Ger-Dub][480p][TVRip]

Dieser Thread wurde noch nicht bewertet. Bewerte ihn doch, wenn er dir gefällt!
  1. #1
    United we Stand Avatar von 00Ryuji00
    Registriert seit
    Oct 2012
    Beiträge
    3.896
    Punkte
    99.519
    Errungenschaften:
    TomodachisGang LeaderHikikomoriTagger Amateur50000 Erfahrungspunkte

    Jikuu Tantei Genshi-kun - Flint Hammerhead [Ger-Dub][480p][TVRip]

    Jikuu Tantei Genshi-kun
    時空探偵ゲンシクン
    Flint the Time Detective
    Flint Hammerhead



    Kurzbeschreibung:
    Die Zeitdiebin Petrafina hat von Dark Lord den Auftrag, in der Zeitlinie herumzureisen und sämtliche Zeitengel einzufangen, um diese für seine finsteren Zwecke zu missbrauchen. Ihre erste Reise führt Petrafina in die Steinzeit. Dort trifft sie auf Flint Hammerhead und seinen Vater, die Petrafina am Einfangen der Zeitengel zu hindern versuchen. Dabei bleibt keine andere Möglichkeit, als Flint und seinen Vater zu fossilisieren, was bedeutet, dass beide in eiförmige Steine verwandelt werden.

    Eines Tages stoßen die beiden Kinder Tony und Sara bei Ausgrabungen auf den fossilisierten Flint und seinen Vater. Sie bringen die Versteinerungen zu ihrem Onkel Doktor Goodman. Der schafft es, die Fossilien wieder in ihre menschliche Gestalt zurückzuverwandeln, wobei ihm ein kleines Missgeschick mit Flints Vater unterläuft: Die Maschine verwandelt ihn in einen sprechenden Granitblock. Doch Doktor Goodman nutzt dieses kleine Missgeschick und macht aus dem Granitblock einen handlichen Hammer.

    Die Bösen sind weiterhin hinter den Zeitengeln her und Flint wird aufgrund seiner übernatürlichen Stärke und seines guten Wesens Zeitdetektiv. Gemeinsam mit seinem Vater, Tony und Sara verfolgt er Petrafina, um sie aufzuhalten.
    Sprache: Deutsch
    Spieldauer: ~ 20min
    Größe: ~ 215-470MB
    Episodenanzahl: 39/39
    Format: .avi
    Auflösung: 480p (640x480, 4:3)
    Codec: DivX, MP3
    Hoster: Uploaded, Share-Online

    Datei-Info.:
    Spoiler
    Code:
    Format                                   : AVI
    Format/Info                              : Audio Video Interleave
    File size                                : 310 MiB
    Duration                                 : 20mn 22s
    Overall bit rate                         : 2 127 Kbps
    Writing library                          : VirtualDub build 11759/release
    
    Video
    ID                                       : 0
    Format                                   : MPEG-4 Visual
    Codec ID                                 : DIV3
    Codec ID/Hint                            : DivX 3 Low
    Duration                                 : 20mn 22s
    Bit rate                                 : 1 989 Kbps
    Width                                    : 640 pixels
    Height                                   : 480 pixels
    Display aspect ratio                     : 4:3
    Frame rate                               : 25.000 fps
    Color space                              : YUV
    Chroma subsampling                       : 4:2:0
    Bit depth                                : 8 bits
    Compression mode                         : Lossy
    Bits/(Pixel*Frame)                       : 0.259
    Stream size                              : 290 MiB (94%)
    
    Audio
    ID                                       : 1
    Format                                   : MPEG Audio
    Format version                           : Version 1
    Format profile                           : Layer 3
    Mode                                     : Joint stereo
    Mode extension                           : MS Stereo
    Codec ID                                 : 55
    Codec ID/Hint                            : MP3
    Duration                                 : 20mn 22s
    Bit rate mode                            : Constant
    Bit rate                                 : 128 Kbps
    Channel count                            : 2 channels
    Sampling rate                            : 44.1 KHz
    Compression mode                         : Lossy
    Stream size                              : 18.6 MiB (6%)
    Alignment                                : Split accross interleaves
    Interleave, duration                     : 40 ms (1.00 video frame)
    Interleave, preload duration             : 468 ms
    


    Geschützter Bereich - Bedanke dich beim Poster, um den Bereich sehen zu können
    Hier erfährst Du wie Du Dich bedanken kannst oder werde jetzt Premium Mitglied ab einer Spende von 5€ und erhalte sofortigen Zugriff auf den Downloadbereich!
    !!!Alle Anliegen bezüglich Uploads werden nur mit direktem Threadlink zum Angebot bearbeitet!!!

    Re-Uploadanfragen nur per PN - Ihr könnt mir auch Listen schicken

    Re-Uploads erfolgen meist innerhalb 24h, kann aber auch bis zu 7 Tage dauern

    [Links sind nur für registrierte und aktivierte Nutzer sichtbar. Klicke hier um dich zu registrieren.] | [Links sind nur für registrierte und aktivierte Nutzer sichtbar. Klicke hier um dich zu registrieren.] | >[Links sind nur für registrierte und aktivierte Nutzer sichtbar. Klicke hier um dich zu registrieren.]<
    [Links sind nur für registrierte und aktivierte Nutzer sichtbar. Klicke hier um dich zu registrieren.]

  2. 27 Benutzer sagen Danke:

    Akio (12. December 2015),AniStar (27. November 2015),beckiiyy1 (29. June 2015),Buttercups (7. March 2016),Charger17 (16. September 2015),DjRayleigh (17. March 2016),dmc4life (15. September 2015),freakwatcher (29. June 2015),haltdiefresse (20. September 2015),Haoz (10. March 2016),Kaito_O (26. November 2015),Kradus (9. July 2015),livia84 (30. December 2015),Lyres (12. January 2016),midnighter (29. June 2015),Miles360 (29. June 2015),nicole832 (2. July 2015),prinzvegeta (24. September 2015),Riyadoris (2. August 2015),saarx (2. May 2016),Sasuke (3. July 2015),Scorpionlord88 (31. January 2016),SONNYxq (29. June 2015),UndeadBan (20. July 2016),WolfsBlade (28. August 2015),Xxchetahx (9. July 2015),Zarroc1 (7. September 2016)

Lesezeichen

Berechtigungen

  • Neue Themen erstellen: Nein
  • Themen beantworten: Nein
  • Anhänge hochladen: Nein
  • Beiträge bearbeiten: Nein
  •  

1 2 3 4 5 6 7 8 9 10 11 12 13 14 15 16 17 18 19 20 21 22 23 24 25 26 27 28 29 30 31 32 33 34 35 36 37 38 39 40 41 42 43 44 45 46 47 48 49 50 51 52 53 54 55 56 57 58 59 60 61 62 63 64 65 66 67 68 69 70 71 72 73 74 75 76 77 78 79 80 81 82 83 84 85 86 87 88 89 90 91 92 93 94 95 96 97 98 99 100 101 102 103 104 105 106 107 108 109 110 111 112 113 114 115 116 117 118 119 120 121 122 123 124 125 126 127 128 129 130 131 132 133 134 135 136 137 138 139 140 141 142 143 144 145 146 147 148 149 150 151 152 153 154 155 156 157 158