Ergebnis 1 bis 2 von 2

Thema: Kareshi Kanojo no Jijou - Kare Kano [Ger-Jap-Dub][Ger-Sub][DVDRip] - AST4u

Dieser Thread wurde noch nicht bewertet. Bewerte ihn doch, wenn er dir gefällt!
  1. #1
    United we Stand Avatar von 00Ryuji00
    Registriert seit
    Oct 2012
    Beiträge
    3.896
    Punkte
    99.716
    Errungenschaften:
    TomodachisGang LeaderHikikomoriTagger Amateur50000 Erfahrungspunkte

    Kareshi Kanojo no Jijou - Kare Kano [Ger-Jap-Dub][Ger-Sub][DVDRip] - AST4u


    Kareshi Kanojo no Jijou

    彼氏彼女の事情
    His and Her Circumstances
    Kare Kano: Mein Geheimnis, dein Geheimnis
    His & Her Circumstances
    KareKano



    Kurzbeschreibung:
    Zitat Zitat von AniSearch.com
    Wer erinnert sich nicht an seine 1. Liebe? Vor allem an die schönen Zeiten zu Anfang der noch so jungen Liebe? Oder einfach daran wie alles begann? Yukino ist das "Strebermädchen" Nr. 1 auf ihrer Schule. Schlau und beliebt, kann man meinen, dass Yukino ein tolles Mädchen ist. Doch das ist alles Fassade. Sie kann es nicht ausstehen "hinten" dran zu sein und hat Angst unbeliebt und einsam zu sein, wenn sie nicht das ist, was sie allen vorgibt. Eines Tages taucht Arima in der Schule auf und setzt sich ebenfalls an die Schulspitze. Das stößt Yukino natürlich sauer auf und sie versucht ihn zu demütigen, wo sie nur kann. Doch der Schuss geht nach hinten los: Als Arima bei ihr zu Hause etwas abgeben will, sieht er sie das erste Mal in ihrer "Alltagskleidung". Daher erpresst er sie, seine Hausaufgaben zu erledigen, damit er schweigt. Damit verletzt er sie zu tiefst und auch er ist sich ziemlich unsicher in seinen Verhalten. Es kommt wie es kommen musste. Beide haben eine Aussprache nach der Schule und kommen sich dabei näher. Der Beginn einer großen Liebe?
    Spieldauer: 24min
    Genre: Romantische Komödie
    Nebengenres: Alltagsleben, Drama, Komödie, Romanze, Weiblich
    Jahr: 1998
    Sprache: Deutsch, Japanisch
    Untertitel: Deutsch
    Größe pro Folge: ~ 300-320MB
    Episodenanzahl: 26/26
    Format: AVI
    Auflösung: 528p (4:3)
    Videocodec: XviD
    Audiocodec: MP3
    Releasegruppe: AST4u
    Hoster: Uploaded, Share-Online

    MediaInfo
    Code:
    
    Format                                   : AVI
    Format/Info                              : Audio Video Interleave
    File size                                : 311 MiB
    Duration                                 : 24mn 19s
    Overall bit rate mode                    : Variable
    Overall bit rate                         : 1 790 Kbps
    Writing application                      : FairUse Wizard - http://fairusewizard.com
    Writing library                          : The best and REALLY easy backup tool
    
    Video
    ID                                       : 0
    Format                                   : MPEG-4 Visual
    Format profile                           : Advanced [email protected]
    Format settings, BVOP                    : 1
    Format settings, QPel                    : No
    Format settings, GMC                     : No warppoints
    Format settings, Matrix                  : Default (MPEG)
    Muxing mode                              : Packed bitstream
    Codec ID                                 : XVID
    Codec ID/Hint                            : XviD
    Duration                                 : 24mn 19s
    Bit rate                                 : 1 452 Kbps
    Width                                    : 720 pixels
    Height                                   : 528 pixels
    Display aspect ratio                     : 4:3
    Frame rate                               : 25.000 fps
    Color space                              : YUV
    Chroma subsampling                       : 4:2:0
    Bit depth                                : 8 bits
    Scan type                                : Progressive
    Compression mode                         : Lossy
    Bits/(Pixel*Frame)                       : 0.153
    Stream size                              : 253 MiB (81%)
    Writing library                          : XviD 1.2.0.dev47 (UTC 2006-11-01)
    
    Audio #1
    ID                                       : 1
    Format                                   : MPEG Audio
    Format version                           : Version 1
    Format profile                           : Layer 3
    Mode                                     : Joint stereo
    Mode extension                           : MS Stereo
    Codec ID                                 : 55
    Codec ID/Hint                            : MP3
    Duration                                 : 24mn 19s
    Bit rate mode                            : Variable
    Bit rate                                 : 177 Kbps
    Nominal bit rate                         : 192 Kbps
    Channel count                            : 2 channels
    Sampling rate                            : 48.0 KHz
    Compression mode                         : Lossy
    Stream size                              : 30.7 MiB (10%)
    Alignment                                : Aligned on interleaves
    Interleave, duration                     : 24 ms (0.60 video frame)
    Interleave, preload duration             : 517 ms
    Writing library                          : LAME3.97 
    Encoding settings                        : -m j -V 4 -q 2 -lowpass 18.6 --abr 192
    
    Audio #2
    ID                                       : 2
    Format                                   : MPEG Audio
    Format version                           : Version 1
    Format profile                           : Layer 3
    Mode                                     : Joint stereo
    Codec ID                                 : 55
    Codec ID/Hint                            : MP3
    Duration                                 : 24mn 19s
    Bit rate mode                            : Variable
    Bit rate                                 : 140 Kbps
    Nominal bit rate                         : 160 Kbps
    Channel count                            : 2 channels
    Sampling rate                            : 48.0 KHz
    Compression mode                         : Lossy
    Stream size                              : 24.4 MiB (8%)
    Alignment                                : Aligned on interleaves
    Interleave, duration                     : 24 ms (0.60 video frame)
    Interleave, preload duration             : 531 ms
    Writing library                          : LAME3.97 
    Encoding settings                        : -m j -V 4 -q 2 -lowpass 17.5 --abr 160




    Geschützter Bereich - Bedanke dich beim Poster, um den Bereich sehen zu können
    Hier erfährst Du wie Du Dich bedanken kannst oder werde jetzt Premium Mitglied ab einer Spende von 5€ und erhalte sofortigen Zugriff auf den Downloadbereich!


    [Links sind nur für registrierte und aktivierte Nutzer sichtbar. Klicke hier um dich zu registrieren.]
    Geändert von 00Ryuji00 (22. August 2015 um 00:39 Uhr)
    !!!Alle Anliegen bezüglich Uploads werden nur mit direktem Threadlink zum Angebot bearbeitet!!!

    Re-Uploadanfragen nur per PN - Ihr könnt mir auch Listen schicken

    Re-Uploads erfolgen meist innerhalb 24h, kann aber auch bis zu 7 Tage dauern

    [Links sind nur für registrierte und aktivierte Nutzer sichtbar. Klicke hier um dich zu registrieren.] | [Links sind nur für registrierte und aktivierte Nutzer sichtbar. Klicke hier um dich zu registrieren.] | >[Links sind nur für registrierte und aktivierte Nutzer sichtbar. Klicke hier um dich zu registrieren.]<
    [Links sind nur für registrierte und aktivierte Nutzer sichtbar. Klicke hier um dich zu registrieren.]

  2. 65 Benutzer sagen Danke:

    Anzeigen

    0xDEADC0DE (31. October 2015),AkaTenshi (1. June 2016),Akio (12. December 2015),Akumah (17. November 2015),alecander (6. June 2016),Antipott (7. September 2015),Asturaetus (13. August 2016),Asuka Langley (1. September 2015),Avenger2201 (23. August 2015),Belbo (13. May 2016),BlackIron (16. September 2015),Cande (22. August 2015),chopper23 (6. August 2016),Conopas (6. August 2016),Cy_Baer (20. August 2015),DetektivConanDE (26. August 2015),egon1212 (21. August 2015),EngelEatos (8. April 2016),entbs (17. March 2016),FIRST--LAW--FANTASY (23. November 2015),freakwatcher (11. August 2016),Gaara (5. June 2016),Holzmodem (6. October 2016),Intege (10. November 2016),iPwnage (4. March 2016),JADAKISS31 (21. August 2015),JoleenLovesMina (18. November 2015),julian.schuh (7. January 2016),Katsura (6. June 2016),KudoShinichi (29. June 2016),Ley0304 (21. September 2015),LordBacon1 (12. March 2016),Maskulin (6. August 2016),Mendason (7. September 2015),merb (6. August 2016),midnighter (22. August 2015),NanaNo7 (18. April 2016),Newz2014 (18. May 2016),nickssystem (25. August 2016),noizmaker (6. August 2016),norby (20. August 2015),nuggl (21. December 2015),numbke (12. September 2016),ouky (2. November 2016),Paraxamos (26. June 2016),prinzvegeta (5. November 2016),rabmaster (29. August 2015),Rheijaa (2. November 2015),Roxas-chan (21. August 2015),sn4tch (6. August 2016),Stoneman (25. November 2015),Superzorro (7. August 2016),TaigaAisaka (25. June 2016),Tekk (21. August 2015),Tenma90 (3. November 2016),th3cr0w (14. February 2016),tounho (24. August 2016),Tzi (20. August 2015),upido (11. October 2015),Wides (29. September 2015),xeltzber (21. May 2016),xXBaaMXx (18. August 2016),Zap (6. January 2016),Zeichensalat (22. August 2015),Zyrinda (9. September 2015)

  3. #2
    United we Stand Avatar von 00Ryuji00
    Registriert seit
    Oct 2012
    Beiträge
    3.896
    Punkte
    99.716
    Errungenschaften:
    TomodachisGang LeaderHikikomoriTagger Amateur50000 Erfahrungspunkte

    AW: Kareshi Kanojo no Jijou - Kare Kano [Ger-Jap-Dub][Ger-Sub][DVDRip] - AST4u

    Update: Dateien auf Wunsch wieder online.
    !!!Alle Anliegen bezüglich Uploads werden nur mit direktem Threadlink zum Angebot bearbeitet!!!

    Re-Uploadanfragen nur per PN - Ihr könnt mir auch Listen schicken

    Re-Uploads erfolgen meist innerhalb 24h, kann aber auch bis zu 7 Tage dauern

    [Links sind nur für registrierte und aktivierte Nutzer sichtbar. Klicke hier um dich zu registrieren.] | [Links sind nur für registrierte und aktivierte Nutzer sichtbar. Klicke hier um dich zu registrieren.] | >[Links sind nur für registrierte und aktivierte Nutzer sichtbar. Klicke hier um dich zu registrieren.]<
    [Links sind nur für registrierte und aktivierte Nutzer sichtbar. Klicke hier um dich zu registrieren.]

Lesezeichen

Berechtigungen

  • Neue Themen erstellen: Nein
  • Themen beantworten: Nein
  • Anhänge hochladen: Nein
  • Beiträge bearbeiten: Nein
  •  

1 2 3 4 5 6 7 8 9 10 11 12 13 14 15 16 17 18 19 20 21 22 23 24 25 26 27 28 29 30 31 32 33 34 35 36 37 38 39 40 41 42 43 44 45 46 47 48 49 50 51 52 53 54 55 56 57 58 59 60 61 62 63 64 65 66 67 68 69 70 71 72 73 74 75 76 77 78 79 80 81 82 83 84 85 86 87 88 89 90 91 92 93 94 95 96 97 98 99 100 101 102 103 104 105 106 107 108 109 110 111 112 113 114 115 116 117 118 119 120 121 122 123 124 125 126 127 128 129 130 131 132 133 134 135 136 137 138 139 140 141 142 143 144 145 146 147 148 149 150 151 152 153 154 155 156 157 158