Ergebnis 1 bis 2 von 2

Thema: Kuroshitsuji - Black Butler + OVA [Ger-Jap-Dub][Ger-Sub][AC3/DTS-HD][720p/1080p][BluRay] - AST4u

Dieser Thread wurde noch nicht bewertet. Bewerte ihn doch, wenn er dir gefällt!
  1. #1
    United we Stand Avatar von 00Ryuji00
    Registriert seit
    Oct 2012
    Beiträge
    3.902
    Punkte
    99.823
    Errungenschaften:
    TomodachisGang LeaderHikikomoriTagger Amateur50000 Erfahrungspunkte

    Kuroshitsuji - Black Butler + OVA [Ger-Jap-Dub][Ger-Sub][AC3/DTS-HD][720p/1080p][BluRay] - AST4u

    Kuroshitsuji
    黒執事
    Black Butler
    Kuro Shitsuji, Kuroshitsuzi
    +
    Kuroshitsuji: Sono Shitsuji, Kougyou 黒執事 その執事, 興行
    Black Butler: Sein Butler - Eine Aufführung
    His Butler, On Stage, Black Butler OVA, Kuroshitsuji OVA, Black Butler: His Butler, On Stage



    Kurzbeschreibung:
    Auf den ersten Blick ist Sebastian vor allem eines: der perfekte Butler. Von ausgeklügelten Menüs bis hin zur altenglischen Gartenkunst, nichts gibt es, dass er nicht mit absoluter Perfektion bewerkstelligen könnte. Und es ist auch nicht wenig, was Ciel, der letzte aus dem Haus der Phantomhives, vom ihm verlangt, verbindet die beiden doch ein dunkles Schicksal. Als engster Vertrauter und Beschützer seines jungen Meisters, liegt es an ihm, diesen vor den Gefahren, denen Ciel aufgrund seiner Verbindungen zur dunklen Seite der Gesellschaft ausgesetzt ist, zu bewahren.
    Sprache: Deutsch, Japanisch
    Untertitel: Deutsch
    Spieldauer: ~ 25min
    Größe: ~ 450MB/900MB/1GB
    Episodenanzahl: 24/24 + 1/1
    Format: .mkv
    Auflösung: 720p/1080p (16:9)
    Codec: x264, AC-3/DTS
    Gruppe: AST4u
    Hoster: Uploaded, Share-Online

    Datei-Info.:
    Spoiler
    720p AC-3
    Code:
    
    Format                                   : Matroska
    Format version                           : Version 4 / Version 2
    File size                                : 421 MiB
    Duration                                 : 24mn 27s
    Overall bit rate                         : 2 407 Kbps
    Encoded date                             : UTC 2015-05-21 09:20:07
    Writing application                      : mkvmerge v7.4.0 ('Circles') 64bit built on Dec 12 2014 12:19:56
    Writing library                          : libebml v1.3.0 + libmatroska v1.4.1
    _STATISTICS_WRITING_APP                  : mkvmerge v7.4.0 ('Circles') 64bit built on Dec 12 2014 12:19:56
    _STATISTICS_WRITING_DATE_UTC             : 2015-05-21 09:20:07
    _STATISTICS_TAGS                         : BPS DURATION NUMBER_OF_FRAMES NUMBER_OF_BYTES
    DURATION                                 : 00:23:31.202000000
    NUMBER_OF_FRAMES                         : 108
    NUMBER_OF_BYTES                          : 324581
    
    Video
    ID                                       : 1
    Format                                   : AVC
    Format/Info                              : Advanced Video Codec
    Format profile                           : [email protected]
    Format settings, CABAC                   : Yes
    Format settings, ReFrames                : 6 frames
    Codec ID                                 : V_MPEG4/ISO/AVC
    Duration                                 : 24mn 27s
    Bit rate                                 : 1 463 Kbps
    Width                                    : 1 280 pixels
    Height                                   : 720 pixels
    Display aspect ratio                     : 16:9
    Frame rate mode                          : Constant
    Frame rate                               : 23.976 fps
    Color space                              : YUV
    Chroma subsampling                       : 4:2:0
    Bit depth                                : 8 bits
    Scan type                                : Progressive
    Bits/(Pixel*Frame)                       : 0.066
    Stream size                              : 256 MiB (61%)
    Writing library                          : x264 core 146 r2538 121396c
    Encoding settings                        : cabac=1 / ref=6 / deblock=1:1:1 / analyse=0x3:0x113 / me=hex / subme=7 / psy=1 / psy_rd=1.00:0.00 / mixed_ref=1 / me_range=16 / chroma_me=1 / trellis=1 / 8x8dct=1 / cqm=0 / deadzone=21,11 / fast_pskip=1 / chroma_qp_offset=-2 / threads=6 / lookahead_threads=1 / sliced_threads=0 / nr=0 / decimate=1 / interlaced=0 / bluray_compat=0 / constrained_intra=0 / bframes=5 / b_pyramid=2 / b_adapt=1 / b_bias=0 / direct=1 / weightb=1 / open_gop=0 / weightp=2 / keyint=240 / keyint_min=23 / scenecut=40 / intra_refresh=0 / rc_lookahead=40 / rc=crf / mbtree=1 / crf=16.0 / qcomp=0.60 / qpmin=0 / qpmax=69 / qpstep=4 / vbv_maxrate=62500 / vbv_bufsize=78125 / crf_max=0.0 / nal_hrd=none / filler=0 / ip_ratio=1.40 / aq=1:0.60
    Default                                  : Yes
    Forced                                   : No
    
    Audio #1
    ID                                       : 2
    Format                                   : AC-3
    Format/Info                              : Audio Coding 3
    Mode extension                           : CM (complete main)
    Format settings, Endianness              : Big
    Codec ID                                 : A_AC3
    Duration                                 : 24mn 27s
    Bit rate mode                            : Constant
    Bit rate                                 : 448 Kbps
    Channel count                            : 2 channels
    Channel positions                        : Front: L R
    Sampling rate                            : 48.0 KHz
    Bit depth                                : 16 bits
    Compression mode                         : Lossy
    Stream size                              : 78.4 MiB (19%)
    Default                                  : Yes
    Forced                                   : No
    
    Audio #2
    ID                                       : 3
    Format                                   : AC-3
    Format/Info                              : Audio Coding 3
    Mode extension                           : CM (complete main)
    Format settings, Endianness              : Big
    Codec ID                                 : A_AC3
    Duration                                 : 24mn 27s
    Bit rate mode                            : Constant
    Bit rate                                 : 448 Kbps
    Channel count                            : 2 channels
    Channel positions                        : Front: L R
    Sampling rate                            : 48.0 KHz
    Bit depth                                : 16 bits
    Compression mode                         : Lossy
    Stream size                              : 78.4 MiB (19%)
    Default                                  : No
    Forced                                   : No
    
    Text #1
    ID                                       : 4
    Format                                   : PGS
    Muxing mode                              : zlib
    Codec ID                                 : S_HDMV/PGS
    Codec ID/Info                            : The same subtitle format used on BDs/HD-DVDs
    Default                                  : No
    Forced                                   : No
    
    Text #2
    ID                                       : 5
    Format                                   : PGS
    Muxing mode                              : zlib
    Codec ID                                 : S_HDMV/PGS
    Codec ID/Info                            : The same subtitle format used on BDs/HD-DVDs
    Default                                  : No
    Forced                                   : No
    
    1080p AC-3
    Code:
    
    Format                                   : Matroska
    Format version                           : Version 4 / Version 2
    File size                                : 814 MiB
    Duration                                 : 24mn 27s
    Overall bit rate                         : 4 654 Kbps
    Encoded date                             : UTC 2015-05-21 09:04:56
    Writing application                      : mkvmerge v7.4.0 ('Circles') 64bit built on Dec 12 2014 12:19:56
    Writing library                          : libebml v1.3.0 + libmatroska v1.4.1
    _STATISTICS_WRITING_APP                  : mkvmerge v7.4.0 ('Circles') 64bit built on Dec 12 2014 12:19:56
    _STATISTICS_WRITING_DATE_UTC             : 2015-05-21 09:04:56
    _STATISTICS_TAGS                         : BPS DURATION NUMBER_OF_FRAMES NUMBER_OF_BYTES
    DURATION                                 : 00:23:31.202000000
    NUMBER_OF_FRAMES                         : 108
    NUMBER_OF_BYTES                          : 324581
    
    Video
    ID                                       : 1
    Format                                   : AVC
    Format/Info                              : Advanced Video Codec
    Format profile                           : [email protected]
    Format settings, CABAC                   : Yes
    Format settings, ReFrames                : 4 frames
    Codec ID                                 : V_MPEG4/ISO/AVC
    Duration                                 : 24mn 27s
    Bit rate                                 : 3 665 Kbps
    Width                                    : 1 920 pixels
    Height                                   : 1 080 pixels
    Display aspect ratio                     : 16:9
    Frame rate mode                          : Constant
    Frame rate                               : 23.976 fps
    Color space                              : YUV
    Chroma subsampling                       : 4:2:0
    Bit depth                                : 8 bits
    Scan type                                : Progressive
    Bits/(Pixel*Frame)                       : 0.074
    Stream size                              : 641 MiB (79%)
    Writing library                          : x264 core 146 r2538 121396c
    Encoding settings                        : cabac=1 / ref=4 / deblock=1:1:1 / analyse=0x3:0x113 / me=hex / subme=7 / psy=1 / psy_rd=1.00:0.00 / mixed_ref=1 / me_range=16 / chroma_me=1 / trellis=1 / 8x8dct=1 / cqm=0 / deadzone=21,11 / fast_pskip=1 / chroma_qp_offset=-2 / threads=6 / lookahead_threads=1 / sliced_threads=0 / nr=0 / decimate=1 / interlaced=0 / bluray_compat=0 / constrained_intra=0 / bframes=5 / b_pyramid=2 / b_adapt=1 / b_bias=0 / direct=1 / weightb=1 / open_gop=0 / weightp=2 / keyint=240 / keyint_min=23 / scenecut=40 / intra_refresh=0 / rc_lookahead=40 / rc=crf / mbtree=1 / crf=16.0 / qcomp=0.60 / qpmin=0 / qpmax=69 / qpstep=4 / vbv_maxrate=62500 / vbv_bufsize=78125 / crf_max=0.0 / nal_hrd=none / filler=0 / ip_ratio=1.40 / aq=1:0.60
    Default                                  : Yes
    Forced                                   : No
    
    Audio #1
    ID                                       : 2
    Format                                   : AC-3
    Format/Info                              : Audio Coding 3
    Mode extension                           : CM (complete main)
    Format settings, Endianness              : Big
    Codec ID                                 : A_AC3
    Duration                                 : 24mn 27s
    Bit rate mode                            : Constant
    Bit rate                                 : 448 Kbps
    Channel count                            : 2 channels
    Channel positions                        : Front: L R
    Sampling rate                            : 48.0 KHz
    Bit depth                                : 16 bits
    Compression mode                         : Lossy
    Stream size                              : 78.4 MiB (10%)
    Default                                  : Yes
    Forced                                   : No
    
    Audio #2
    ID                                       : 3
    Format                                   : AC-3
    Format/Info                              : Audio Coding 3
    Mode extension                           : CM (complete main)
    Format settings, Endianness              : Big
    Codec ID                                 : A_AC3
    Duration                                 : 24mn 27s
    Bit rate mode                            : Constant
    Bit rate                                 : 448 Kbps
    Channel count                            : 2 channels
    Channel positions                        : Front: L R
    Sampling rate                            : 48.0 KHz
    Bit depth                                : 16 bits
    Compression mode                         : Lossy
    Stream size                              : 78.4 MiB (10%)
    Default                                  : No
    Forced                                   : No
    
    Text #1
    ID                                       : 4
    Format                                   : PGS
    Muxing mode                              : zlib
    Codec ID                                 : S_HDMV/PGS
    Codec ID/Info                            : The same subtitle format used on BDs/HD-DVDs
    Default                                  : No
    Forced                                   : No
    
    Text #2
    ID                                       : 5
    Format                                   : PGS
    Muxing mode                              : zlib
    Codec ID                                 : S_HDMV/PGS
    Codec ID/Info                            : The same subtitle format used on BDs/HD-DVDs
    Default                                  : No
    Forced                                   : No
    
    1080p DTS-HD
    Code:
    
    Format                                   : Matroska
    Format version                           : Version 4 / Version 2
    File size                                : 881 MiB
    Duration                                 : 24mn 27s
    Overall bit rate                         : 5 037 Kbps
    Encoded date                             : UTC 2015-05-20 08:08:42
    Writing application                      : mkvmerge v7.4.0 ('Circles') 64bit built on Dec 12 2014 12:19:56
    Writing library                          : libebml v1.3.0 + libmatroska v1.4.1
    _STATISTICS_WRITING_APP                  : mkvmerge v7.4.0 ('Circles') 64bit built on Dec 12 2014 12:19:56
    _STATISTICS_WRITING_DATE_UTC             : 2015-05-20 08:08:42
    _STATISTICS_TAGS                         : BPS DURATION NUMBER_OF_FRAMES NUMBER_OF_BYTES
    DURATION                                 : 00:23:31.202000000
    NUMBER_OF_FRAMES                         : 108
    NUMBER_OF_BYTES                          : 324581
    
    Video
    ID                                       : 1
    Format                                   : AVC
    Format/Info                              : Advanced Video Codec
    Format profile                           : [email protected]
    Format settings, CABAC                   : Yes
    Format settings, ReFrames                : 4 frames
    Codec ID                                 : V_MPEG4/ISO/AVC
    Duration                                 : 24mn 27s
    Bit rate                                 : 3 659 Kbps
    Width                                    : 1 920 pixels
    Height                                   : 1 080 pixels
    Display aspect ratio                     : 16:9
    Frame rate mode                          : Constant
    Frame rate                               : 23.976 fps
    Color space                              : YUV
    Chroma subsampling                       : 4:2:0
    Bit depth                                : 8 bits
    Scan type                                : Progressive
    Bits/(Pixel*Frame)                       : 0.074
    Stream size                              : 640 MiB (73%)
    Writing library                          : x264 core 146 r2538 121396c
    Encoding settings                        : cabac=1 / ref=4 / deblock=1:1:1 / analyse=0x3:0x113 / me=hex / subme=7 / psy=1 / psy_rd=1.00:0.00 / mixed_ref=1 / me_range=16 / chroma_me=1 / trellis=1 / 8x8dct=1 / cqm=0 / deadzone=21,11 / fast_pskip=1 / chroma_qp_offset=-2 / threads=6 / lookahead_threads=1 / sliced_threads=0 / nr=0 / decimate=1 / interlaced=0 / bluray_compat=0 / constrained_intra=0 / bframes=5 / b_pyramid=2 / b_adapt=1 / b_bias=0 / direct=1 / weightb=1 / open_gop=0 / weightp=2 / keyint=240 / keyint_min=23 / scenecut=40 / intra_refresh=0 / rc_lookahead=40 / rc=crf / mbtree=1 / crf=16.0 / qcomp=0.60 / qpmin=0 / qpmax=69 / qpstep=4 / vbv_maxrate=62500 / vbv_bufsize=78125 / crf_max=0.0 / nal_hrd=none / filler=0 / ip_ratio=1.40 / aq=1:0.60
    Default                                  : Yes
    Forced                                   : No
    
    Audio #1
    ID                                       : 2
    Format                                   : DTS
    Format/Info                              : Digital Theater Systems
    Mode                                     : 16
    Format settings, Endianness              : Big
    Codec ID                                 : A_DTS
    Duration                                 : 24mn 27s
    Bit rate mode                            : Constant
    Bit rate                                 : 639 Kbps
    Channel count                            : 2 channels
    Channel positions                        : Front: L R
    Sampling rate                            : 48.0 KHz
    Bit depth                                : 24 bits
    Compression mode                         : Lossy
    Stream size                              : 112 MiB (13%)
    Default                                  : Yes
    Forced                                   : No
    
    Audio #2
    ID                                       : 3
    Format                                   : DTS
    Format/Info                              : Digital Theater Systems
    Mode                                     : 16
    Format settings, Endianness              : Big
    Codec ID                                 : A_DTS
    Duration                                 : 24mn 27s
    Bit rate mode                            : Constant
    Bit rate                                 : 639 Kbps
    Channel count                            : 2 channels
    Channel positions                        : Front: L R
    Sampling rate                            : 48.0 KHz
    Bit depth                                : 24 bits
    Compression mode                         : Lossy
    Stream size                              : 112 MiB (13%)
    Default                                  : No
    Forced                                   : No
    
    Text #1
    ID                                       : 4
    Format                                   : PGS
    Muxing mode                              : zlib
    Codec ID                                 : S_HDMV/PGS
    Codec ID/Info                            : The same subtitle format used on BDs/HD-DVDs
    Default                                  : Yes
    Forced                                   : No
    
    Text #2
    ID                                       : 5
    Format                                   : PGS
    Muxing mode                              : zlib
    Codec ID                                 : S_HDMV/PGS
    Codec ID/Info                            : The same subtitle format used on BDs/HD-DVDs
    Default                                  : No
    Forced                                   : No
    




    Geschützter Bereich - Bedanke dich beim Poster, um den Bereich sehen zu können
    Hier erfährst Du wie Du Dich bedanken kannst oder werde jetzt Premium Mitglied ab einer Spende von 5€ und erhalte sofortigen Zugriff auf den Downloadbereich!
    Geändert von 00Ryuji00 (7. April 2016 um 23:03 Uhr)
    !!!Alle Anliegen bezüglich Uploads werden nur mit direktem Threadlink zum Angebot bearbeitet!!!

    Re-Uploadanfragen nur per PN - Ihr könnt mir auch Listen schicken

    Re-Uploads erfolgen meist innerhalb 24h, kann aber auch bis zu 7 Tage dauern

    [Links sind nur für registrierte und aktivierte Nutzer sichtbar. Klicke hier um dich zu registrieren.] | [Links sind nur für registrierte und aktivierte Nutzer sichtbar. Klicke hier um dich zu registrieren.] | >[Links sind nur für registrierte und aktivierte Nutzer sichtbar. Klicke hier um dich zu registrieren.]<
    [Links sind nur für registrierte und aktivierte Nutzer sichtbar. Klicke hier um dich zu registrieren.]

  2. 128 Benutzer sagen Danke:

    Anzeigen

    -tomcat- (5. September 2016),Alucard1412 (6. March 2016),andii (25. November 2015),Androkai (5. September 2016),animeathome (4. April 2016),Anvandya (15. October 2015),babjasrap94 (30. September 2016),baldur1989 (31. December 2015),bayerle92 (25. November 2015),Belbo (7. September 2016),BennySama (28. September 2015),BlackPhoenix (24. January 2016),Black_ Reaper (10. January 2016),brunsdumm (28. September 2015),Bubblefish717 (14. October 2016),Bunyos (8. December 2015),CarnivalCorpse (24. October 2015),chewbacka (12. June 2016),chopper23 (27. September 2015),CoNfu5eD (29. September 2015),CrmnlBT (9. February 2016),cyberbadghost (3. May 2016),Cy_Baer (27. September 2015),dacheff (29. September 2015),Daniel (21. April 2016),DarkTerminator (18. February 2016),demonac (31. October 2016),Dester007 (3. October 2015),egon1212 (30. September 2015),Eight (21. June 2016),emenz (29. November 2015),EmeralX4 (1. April 2016),EniMan (28. September 2015),etter (19. November 2015),Fard_AlvareZ (2. May 2016),foxasult (6. December 2015),freakwatcher (30. September 2015),Freiwilly (2. July 2016),Fuuk0chan (26. July 2016),Ghostraven (9. October 2015),Gott Enel (23. October 2016),Griever (11. September 2016),Haftiabi Tefflondon (6. June 2016),HappyTree (17. January 2016),Hiruja (19. July 2016),Hisamaki (16. October 2016),Holzmodem (15. July 2016),Horrorholgi (19. March 2016),Jack (11. October 2015),JeNnI (24. March 2016),Jesche (5. December 2016),Kaan- (2. April 2016),Kaktusmensch (28. September 2015),Kinasix (1. October 2015),Kioyuu (28. November 2015),KnutHunter (17. January 2016),krokojo (3. October 2015),Kthulhut (3. April 2016),Kuddel (18. April 2016),Lautrerbomber (5. September 2016),LelouchviBritannia (7. June 2016),lipton (17. June 2016),lol3333 (5. September 2016),LordBacon1 (15. October 2015),Lusionem2939 (27. January 2016),Maretheyu (25. November 2016),markusdamon5 (11. September 2016),mauslea (4. April 2016),MCRFG (29. September 2015),midnighter (7. October 2015),Miriweth (30. September 2016),Mr.Shit (14. September 2016),n0b0dy (10. September 2016),Nasumy (6. March 2016),Newz2014 (28. April 2016),Neyzu (2. June 2016),nickssystem (13. September 2016),nixdaok (3. October 2015),noizmaker (5. September 2016),parad0xr (10. October 2015),Petie (26. September 2016),piggsylol (5. October 2015),redithebat (9. April 2016),Regi (8. September 2016),Roxas8139 (9. January 2016),Ruffy121 (9. November 2016),RyuLelouch (24. November 2015),S4nCh3z (26. August 2016),Sammy-chan (4. October 2015),san1n (25. November 2015),Sandy7580 (30. September 2015),Sansento (27. September 2015),Sexmann (1. December 2015),shawn10398 (15. September 2016),Shinon.Kagura (14. August 2016),Shion-lyme_inactive (9. November 2016),Silberherz (14. January 2016),Skully_88 (1. November 2015),SoulZ (21. November 2015),Stright654 (30. August 2016),syth (25. March 2016),Tama (17. July 2016),Tarlysin (27. September 2015),TechnoMorcel (18. August 2016),Tenma90 (16. August 2016),Tetriii (6. January 2016),thanathan85 (13. December 2015),therealbarra (1. October 2015),tigerhai (9. October 2015),Timberwolf (11. December 2015),tohotono1987 (6. November 2015),treffgarnix (6. January 2016),T§sseract (10. June 2016),Varkoo (4. January 2016),ventus1991 (3. March 2016),Vivere (2. April 2016),WaRRioR (16. December 2015),Windwusel (11. September 2016),WolfsBlade (26. January 2016),xdricixd (14. November 2015),Xerx3s (16. November 2015),Xibit (16. November 2015),XRA9 (24. November 2015),xXBaaMXx (11. September 2016),xXGaldorXx (30. September 2015),Yeezy (23. June 2016),Yoshi1982 (27. October 2015),zoe#449 (11. September 2016)

  3. #2
    United we Stand Avatar von 00Ryuji00
    Registriert seit
    Oct 2012
    Beiträge
    3.902
    Punkte
    99.823
    Errungenschaften:
    TomodachisGang LeaderHikikomoriTagger Amateur50000 Erfahrungspunkte

    AW: Kuroshitsuji - Black Butler + OVA [Ger-Jap-Dub][Ger-Sub][AC3/DTS-HD][720p/1080p][BluRay] - AST4u

    Update: Dateien auf Wunsch wieder online.
    !!!Alle Anliegen bezüglich Uploads werden nur mit direktem Threadlink zum Angebot bearbeitet!!!

    Re-Uploadanfragen nur per PN - Ihr könnt mir auch Listen schicken

    Re-Uploads erfolgen meist innerhalb 24h, kann aber auch bis zu 7 Tage dauern

    [Links sind nur für registrierte und aktivierte Nutzer sichtbar. Klicke hier um dich zu registrieren.] | [Links sind nur für registrierte und aktivierte Nutzer sichtbar. Klicke hier um dich zu registrieren.] | >[Links sind nur für registrierte und aktivierte Nutzer sichtbar. Klicke hier um dich zu registrieren.]<
    [Links sind nur für registrierte und aktivierte Nutzer sichtbar. Klicke hier um dich zu registrieren.]

Lesezeichen

Berechtigungen

  • Neue Themen erstellen: Nein
  • Themen beantworten: Nein
  • Anhänge hochladen: Nein
  • Beiträge bearbeiten: Nein
  •  

1 2 3 4 5 6 7 8 9 10 11 12 13 14 15 16 17 18 19 20 21 22 23 24 25 26 27 28 29 30 31 32 33 34 35 36 37 38 39 40 41 42 43 44 45 46 47 48 49 50 51 52 53 54 55 56 57 58 59 60 61 62 63 64 65 66 67 68 69 70 71 72 73 74 75 76 77 78 79 80 81 82 83 84 85 86 87 88 89 90 91 92 93 94 95 96 97 98 99 100 101 102 103 104 105 106 107 108 109 110 111 112 113 114 115 116 117 118 119 120 121 122 123 124 125 126 127 128 129 130 131 132 133 134 135 136 137 138 139 140 141 142 143 144 145 146 147 148 149 150 151 152 153 154 155 156 157 158