Ergebnis 1 bis 2 von 2

Thema: Lodoss-tou Senki: Eiyuu Kishi Den [Ger-Jap-Dub][Ger-Sub][DVDRip]-xblackyx

Dieser Thread wurde durchschnittlich mit 5 Sternen bewertet, wobei 1 Stern die schlechteste und 5 Sterne die beste Bewertung ist. Es haben insgesamt 2 Mitglieder eine Bewertung abgegeben.

  1. #1
    United we Stand Avatar von 00Ryuji00
    Registriert seit
    Oct 2012
    Beiträge
    3.896
    Punkte
    99.716
    Errungenschaften:
    TomodachisGang LeaderHikikomoriTagger Amateur50000 Erfahrungspunkte

    Lodoss-tou Senki: Eiyuu Kishi Den [Ger-Jap-Dub][Ger-Sub][DVDRip]-xblackyx


    Lodoss-tou Senki: Eiyuu Kishi Den
    Record of Lodoss War: Chronicles of the Heroic Knight






    Kurzbeschreibung:
    Zitat Zitat von AniSearch.com
    Das Land im Süden des Kontinents Alecrast nennt man die verfluchte Insel Lodoss.
    Ständig entbrennen neue Konflikte um die Herrschaft über die Insel – ein Krieg folgt dem Nächsten.

    5 Jahre nach dem Ende des Heldenkrieges, in dem sowohl König Fawn aus Valis, als auch Marmos König Beld ums Leben kamen, braute sich neues Unheil zusammen.

    Helden wie der freie Ritter Parn und die Hochelfe Deedlit sind erneut aufgefordert ihre Schwerter zu erheben und einen Krieg gegen die dunklen Mächte zu führen, um zu verhindern das das „Zepter der Herrschaft“ in die Hände von Marmos Schwarzem Ritter Ashram fällt und somit ganz Lodoss dem Untergang geweiht ist…!...mehr


    Spieldauer: 24min
    Genre: Abenteuer
    Nebengenres: Abenteuer, Action, Fantasy
    Jahr: 1998
    Sprache: Deutsch, Japanisch
    Untertitel: Deutsch
    Größe pro Folge: ~279 MiB
    Episodenanzahl: 27 /27
    Format: MKV
    Auflösung: 544p (4:3)
    Videocodec: XviD (MPEG-4 Visual)
    Audiocodec: Vorbis
    Releasegruppe: xblackyx
    Hoster: Share-Online, Uploaded


    MediaInfo
    Code:
    
    Format                                   : Matroska
    Format version                           : Version 1
    File size                                : 279 MiB
    Duration                                 : 23mn 27s
    Overall bit rate mode                    : Variable
    Overall bit rate                         : 1 665 Kbps
    Encoded date                             : UTC 2006-06-01 17:40:56
    Writing application                      : mkvmerge v1.6.5 ('Watcher Of The Skies') built on Dec  7 2005 18:53:53
    Writing library                          : libebml v0.7.6 + libmatroska v0.8.0
    
    Video
    ID                                       : 1
    Format                                   : MPEG-4 Visual
    Format profile                           : Advanced [email protected]
    Format settings, BVOP                    : 2
    Format settings, QPel                    : No
    Format settings, GMC                     : No warppoints
    Format settings, Matrix                  : Default (H.263)
    Muxing mode                              : Packed bitstream
    Codec ID                                 : V_MS/VFW/FOURCC / XVID
    Codec ID/Hint                            : XviD
    Duration                                 : 23mn 27s
    Bit rate                                 : 1 424 Kbps
    Width                                    : 688 pixels
    Height                                   : 544 pixels
    Display aspect ratio                     : 4:3
    Original display aspect ratio            : 5:4
    Frame rate mode                          : Constant
    Frame rate                               : 25.000 fps
    Color space                              : YUV
    Chroma subsampling                       : 4:2:0
    Bit depth                                : 8 bits
    Scan type                                : Progressive
    Compression mode                         : Lossy
    Bits/(Pixel*Frame)                       : 0.152
    Stream size                              : 239 MiB (86%)
    Title                                    : Xvid
    Writing library                          : XviD 1.1.0 (UTC 2005-11-22)
    Default                                  : Yes
    Forced                                   : No
    
    Audio #1
    ID                                       : 2
    Format                                   : Vorbis
    Format settings, Floor                   : 1
    Codec ID                                 : A_VORBIS
    Duration                                 : 23mn 27s
    Bit rate mode                            : Variable
    Bit rate                                 : 96.0 Kbps
    Channel(s)                               : 2 channels
    Sampling rate                            : 48.0 KHz
    Compression mode                         : Lossy
    Stream size                              : 16.1 MiB (6%)
    Title                                    : OGG (VBR, ~ 96kbps)
    Writing library                          : libVorbis 1.0 (UTC 2002-07-17)
    Language                                 : Japanese
    Default                                  : Yes
    Forced                                   : No
    
    Audio #2
    ID                                       : 3
    Format                                   : Vorbis
    Format settings, Floor                   : 1
    Codec ID                                 : A_VORBIS
    Duration                                 : 23mn 27s
    Bit rate mode                            : Variable
    Bit rate                                 : 112 Kbps
    Channel(s)                               : 2 channels
    Sampling rate                            : 48.0 KHz
    Compression mode                         : Lossy
    Stream size                              : 18.8 MiB (7%)
    Title                                    : OGG (VBR,~112kbps)
    Writing library                          : libVorbis 1.0 (UTC 2002-07-17)
    Language                                 : German
    Default                                  : No
    Forced                                   : No
    
    Text #1
    ID                                       : 4
    Format                                   : ASS
    Codec ID                                 : S_TEXT/ASS
    Codec ID/Info                            : Advanced Sub Station Alpha
    Compression mode                         : Lossless
    Title                                    : SSA (dvd subs)
    Language                                 : German
    Default                                  : Yes
    Forced                                   : No
    
    Text #2
    ID                                       : 5
    Format                                   : UTF-8
    Codec ID                                 : S_TEXT/UTF8
    Codec ID/Info                            : UTF-8 Plain Text
    Title                                    : SRT (dvd subs)
    Language                                 : German
    Default                                  : No
    Forced                                   : No
    
    




    Geschützter Bereich - Bedanke dich beim Poster, um den Bereich sehen zu können
    Hier erfährst Du wie Du Dich bedanken kannst oder werde jetzt Premium Mitglied ab einer Spende von 5€ und erhalte sofortigen Zugriff auf den Downloadbereich!

    [Links sind nur für registrierte und aktivierte Nutzer sichtbar. Klicke hier um dich zu registrieren.]
    !!!Alle Anliegen bezüglich Uploads werden nur mit direktem Threadlink zum Angebot bearbeitet!!!

    Re-Uploadanfragen nur per PN - Ihr könnt mir auch Listen schicken

    Re-Uploads erfolgen meist innerhalb 24h, kann aber auch bis zu 7 Tage dauern

    [Links sind nur für registrierte und aktivierte Nutzer sichtbar. Klicke hier um dich zu registrieren.] | [Links sind nur für registrierte und aktivierte Nutzer sichtbar. Klicke hier um dich zu registrieren.] | >[Links sind nur für registrierte und aktivierte Nutzer sichtbar. Klicke hier um dich zu registrieren.]<
    [Links sind nur für registrierte und aktivierte Nutzer sichtbar. Klicke hier um dich zu registrieren.]

  2. 22 Benutzer sagen Danke:

    Asuka Langley (11. April 2016),blitzman1977 (11. April 2016),bonsai (26. May 2016),Cande (11. April 2016),chopper23 (11. April 2016),chris1989 (16. July 2016),cloud-strife20 (20. September 2016),Conopas (7. May 2016),Cy_Baer (11. April 2016),darkangel92 (27. April 2016),egon1212 (19. April 2016),freakwatcher (12. April 2016),JoleenLovesMina (7. June 2016),Kaktusmensch (18. April 2016),Kalchi (11. September 2016),lucky_mer (21. September 2016),midnighter (6. September 2016),mpbia (11. April 2016),Mr.Shit (21. April 2016),n0b0dy (11. September 2016),Seishin (12. April 2016),ventus1991 (11. April 2016)

  3. #2
    United we Stand Avatar von 00Ryuji00
    Registriert seit
    Oct 2012
    Beiträge
    3.896
    Punkte
    99.716
    Errungenschaften:
    TomodachisGang LeaderHikikomoriTagger Amateur50000 Erfahrungspunkte

    AW: Lodoss-tou Senki: Eiyuu Kishi Den [Ger-Jap-Dub][Ger-Sub][DVDRip]-xblackyx

    Update: Dateien auf Wunsch wieder online.
    !!!Alle Anliegen bezüglich Uploads werden nur mit direktem Threadlink zum Angebot bearbeitet!!!

    Re-Uploadanfragen nur per PN - Ihr könnt mir auch Listen schicken

    Re-Uploads erfolgen meist innerhalb 24h, kann aber auch bis zu 7 Tage dauern

    [Links sind nur für registrierte und aktivierte Nutzer sichtbar. Klicke hier um dich zu registrieren.] | [Links sind nur für registrierte und aktivierte Nutzer sichtbar. Klicke hier um dich zu registrieren.] | >[Links sind nur für registrierte und aktivierte Nutzer sichtbar. Klicke hier um dich zu registrieren.]<
    [Links sind nur für registrierte und aktivierte Nutzer sichtbar. Klicke hier um dich zu registrieren.]

Lesezeichen

Berechtigungen

  • Neue Themen erstellen: Nein
  • Themen beantworten: Nein
  • Anhänge hochladen: Nein
  • Beiträge bearbeiten: Nein
  •  

1 2 3 4 5 6 7 8 9 10 11 12 13 14 15 16 17 18 19 20 21 22 23 24 25 26 27 28 29 30 31 32 33 34 35 36 37 38 39 40 41 42 43 44 45 46 47 48 49 50 51 52 53 54 55 56 57 58 59 60 61 62 63 64 65 66 67 68 69 70 71 72 73 74 75 76 77 78 79 80 81 82 83 84 85 86 87 88 89 90 91 92 93 94 95 96 97 98 99 100 101 102 103 104 105 106 107 108 109 110 111 112 113 114 115 116 117 118 119 120 121 122 123 124 125 126 127 128 129 130 131 132 133 134 135 136 137 138 139 140 141 142 143 144 145 146 147 148 149 150 151 152 153 154 155 156 157 158