Ergebnis 1 bis 1 von 1

Thema: Magi: The Labyrinth of Magic [Ger-Jap-Dub][Ger-Sub][480p/720p/1080p][BluRay] - AST4u

Dieser Thread wurde noch nicht bewertet. Bewerte ihn doch, wenn er dir gefällt!
  1. #1
    Treues Mitglied Avatar von Sairenji
    Registriert seit
    Aug 2013
    Beiträge
    299
    Punkte
    11.339
    Errungenschaften:
    TomodachisTagger Profi10000 ErfahrungspunkteHikikomori

    Magi: The Labyrinth of Magic [Ger-Jap-Dub][Ger-Sub][480p/720p/1080p][BluRay] - AST4u



    Magi erzählt die Abenteuer des jungen Aladdin. Dieser besitzt eine magische Flöte, mit der er den kopflosen Djinn Ugo beschwören kann. Seit sich Aladdin gewünscht hat, das Ugo sein Freund ist, begleitet er ihn auf seinen Reisen. Aladdins Ziel ist es, das Geheimnis um seine Identität zu ergründen, über die er so gut wie nichts weiß. Außer Ugo helfen ihm bei seinen Abenteuern noch viele andere Freunde, die er während seiner Reisen kennenlernt.


    Titel: Magi: The Labyrinth of Magic
    Genre: Abenteuer, Action, Fantasy, Komödie
    Laufzeit: ~ 24 Min.
    | Episoden: 25


    [Links sind nur für registrierte und aktivierte Nutzer sichtbar. Klicke hier um dich zu registrieren.]





    Magi.The.Labyrinth.of.Magic.German.DL.DVDRiP.XViD-AST4u | Größe: 7475 MB | Parts: 39


    Sprache: Deutsch Japanisch | Untertitel: Deutsch


    Video: DVDRiP | Audio: MP3 | Format: .avi


    Hoster: UL, SO



    Geschützter Bereich - Bedanke dich beim Poster, um den Bereich sehen zu können
    Hier erfährst Du wie Du Dich bedanken kannst oder werde jetzt Premium Mitglied ab einer Spende von 5€ und erhalte sofortigen Zugriff auf den Downloadbereich!



    NFO
    Code:
    General
    Format                                   : AVI
    Format/Info                              : Audio Video Interleave
    File size                                : 298 MiB
    Duration                                 : 23mn 26s
    Overall bit rate mode                    : Variable
    Overall bit rate                         : 1 776 Kbps
    Writing application                      : VirtualDubMod 1.5.10.2 (build 2540/release)
    Writing library                          : VirtualDubMod build 2540/release
    
    
    Video
    ID                                       : 0
    Format                                   : MPEG-4 Visual
    Format profile                           : Advanced [email protected]
    Format settings, BVOP                    : 1
    Format settings, QPel                    : No
    Format settings, GMC                     : No warppoints
    Format settings, Matrix                  : Default (MPEG)
    Muxing mode                              : Packed bitstream
    Codec ID                                 : XVID
    Codec ID/Hint                            : XviD
    Duration                                 : 23mn 26s
    Bit rate                                 : 1 462 Kbps
    Width                                    : 720 pixels
    Height                                   : 400 pixels
    Display aspect ratio                     : 16:9
    Frame rate                               : 25.000 fps
    Color space                              : YUV
    Chroma subsampling                       : 4:2:0
    Bit depth                                : 8 bits
    Scan type                                : Progressive
    Compression mode                         : Lossy
    Bits/(Pixel*Frame)                       : 0.203
    Stream size                              : 245 MiB (82%)
    Writing library                          : XviD 1.2.0.dev47 (UTC 2006-11-01)
    
    
    Audio #1
    ID                                       : 1
    Format                                   : MPEG Audio
    Format version                           : Version 1
    Format profile                           : Layer 3
    Mode                                     : Joint stereo
    Mode extension                           : MS Stereo
    Codec ID                                 : 55
    Codec ID/Hint                            : MP3
    Duration                                 : 23mn 26s
    Bit rate mode                            : Variable
    Bit rate                                 : 179 Kbps
    Nominal bit rate                         : 192 Kbps
    Channel(s)                               : 2 channels
    Sampling rate                            : 48.0 KHz
    Compression mode                         : Lossy
    Stream size                              : 30.0 MiB (10%)
    Alignment                                : Aligned on interleaves
    Interleave, duration                     : 24 ms (0.60 video frame)
    Interleave, preload duration             : 523 ms
    Writing library                          : LAME3.97
    Encoding settings                        : -m j -V 4 -q 2 -lowpass 18.6 --abr 192
    
    
    Audio #2
    ID                                       : 2
    Format                                   : MPEG Audio
    Format version                           : Version 1
    Format profile                           : Layer 3
    Mode                                     : Joint stereo
    Mode extension                           : MS Stereo
    Codec ID                                 : 55
    Codec ID/Hint                            : MP3
    Duration                                 : 23mn 26s
    Bit rate mode                            : Variable
    Bit rate                                 : 114 Kbps
    Nominal bit rate                         : 128 Kbps
    Channel(s)                               : 2 channels
    Sampling rate                            : 48.0 KHz
    Compression mode                         : Lossy
    Stream size                              : 19.1 MiB (6%)
    Alignment                                : Aligned on interleaves
    Interleave, duration                     : 24 ms (0.60 video frame)
    Interleave, preload duration             : 482 ms
    Writing library                          : LAME3.97
    Encoding settings                        : -m j -V 4 -q 2 -lowpass 17 --abr 128







    Magi.The.Labyrinth.of.Magic.German.DL.DVDRiP.h264-AST4u | Größe: 8477 MB | Parts: 44


    Sprache: Deutsch Japanisch | Untertitel: Deutsch



    Video: DVDRiP | Audio: MP3 | Format: .mkv / .mp4


    Hoster: UL, SO



    Geschützter Bereich - Bedanke dich beim Poster, um den Bereich sehen zu können
    Hier erfährst Du wie Du Dich bedanken kannst oder werde jetzt Premium Mitglied ab einer Spende von 5€ und erhalte sofortigen Zugriff auf den Downloadbereich!



    NFO
    Code:
    General
    Format                                   : Matroska
    Format version                           : Version 1
    File size                                : 338 MiB
    Duration                                 : 23mn 26s
    Overall bit rate                         : 2 017 Kbps
    Encoded date                             : UTC 2013-11-01 22:20:20
    Writing application                      : VirtualDubMod 1.5.10.2 (build 2542/release)
    Writing library                          : libebml-0.7.5 & libmatroska-0.7.7
    
    
    Video
    ID                                       : 1
    Format                                   : AVC
    Format/Info                              : Advanced Video Codec
    Format profile                           : [email protected]
    Format settings, CABAC                   : Yes
    Format settings, ReFrames                : 2 frames
    Codec ID                                 : V_MS/VFW/FOURCC / H264
    Duration                                 : 23mn 26s
    Bit rate                                 : 1 565 Kbps
    Width                                    : 768 pixels
    Height                                   : 432 pixels
    Display aspect ratio                     : 16:9
    Frame rate mode                          : Constant
    Frame rate                               : 25.000 fps
    Color space                              : YUV
    Chroma subsampling                       : 4:2:0
    Bit depth                                : 8 bits
    Scan type                                : Progressive
    Bits/(Pixel*Frame)                       : 0.189
    Stream size                              : 256 MiB (76%)
    Writing library                          : x264 core 58 svn-736bm
    Encoding settings                        : cabac=1 / ref=1 / deblock=1:0:0 / analyse=0x1:0x131 / me=hex / subme=5 / brdo=0 / mixed_ref=0 / me_range=16 / chroma_me=1 / trellis=1 / 8x8dct=0 / cqm=0 / deadzone=21,11 / chroma_qp_offset=0 / threads=8 / nr=0 / decimate=1 / mbaff=0 / bframes=2 / b_pyramid=0 / b_adapt=1 / b_bias=0 / direct=1 / wpredb=1 / bime=0 / keyint=250 / keyint_min=25 / scenecut=40(pre) / rc=2pass / bitrate=1565 / ratetol=1.0 / rceq='blurCplx^(1-qComp)' / qcomp=0.60 / qpmin=10 / qpmax=51 / qpstep=4 / cplxblur=20.0 / qblur=0.5 / ip_ratio=1.40 / pb_ratio=1.30
    Language                                 : English
    Default                                  : Yes
    Forced                                   : No
    
    
    Audio #1
    ID                                       : 2
    Format                                   : AC-3
    Format/Info                              : Audio Coding 3
    Mode extension                           : CM (complete main)
    Format settings, Endianness              : Big
    Codec ID                                 : A_AC3
    Duration                                 : 23mn 26s
    Bit rate mode                            : Constant
    Bit rate                                 : 224 Kbps
    Channel(s)                               : 2 channels
    Channel positions                        : Front: L R
    Sampling rate                            : 48.0 KHz
    Compression mode                         : Lossy
    Stream size                              : 37.6 MiB (11%)
    Language                                 : English
    Default                                  : Yes
    Forced                                   : No
    
    
    Audio #2
    ID                                       : 3
    Format                                   : AC-3
    Format/Info                              : Audio Coding 3
    Mode extension                           : CM (complete main)
    Format settings, Endianness              : Big
    Codec ID                                 : A_AC3
    Duration                                 : 23mn 26s
    Bit rate mode                            : Constant
    Bit rate                                 : 224 Kbps
    Channel(s)                               : 2 channels
    Channel positions                        : Front: L R
    Sampling rate                            : 48.0 KHz
    Compression mode                         : Lossy
    Stream size                              : 37.6 MiB (11%)
    Language                                 : English
    Default                                  : No
    Forced                                   : No
    
    
    Menu
    00:00:00.000                             : Ch. 01 @ 00:00:00
    00:02:55.480                             : Ch. 02 @ 00:02:55
    00:12:15.560                             : Ch. 03 @ 00:12:15
    00:21:47.200                             : Ch. 04 @ 00:21:47
    00:23:11.560                             : Ch. 05 @ 00:23:11







    Magi.The.Labyrinth.of.Magic.German.AC3.DL.720p.Blu Ray.x264-AST4u | Größe: 13,60 GB | Parts: 72


    Sprache: Deutsch Japanisch | Untertitel: Deutsch



    Video: BluRay | Audio: AC3 2.0 | Format: .mkv / .mp4


    Hoster: UL, SO



    Geschützter Bereich - Bedanke dich beim Poster, um den Bereich sehen zu können
    Hier erfährst Du wie Du Dich bedanken kannst oder werde jetzt Premium Mitglied ab einer Spende von 5€ und erhalte sofortigen Zugriff auf den Downloadbereich!



    NFO
    Code:
    General
    Format                                   : Matroska
    Format version                           : Version 4 / Version 2
    File size                                : 543 MiB
    Duration                                 : 24mn 28s
    Overall bit rate                         : 3 102 Kbps
    Encoded date                             : UTC 2015-08-31 22:41:01
    Writing application                      : mkvmerge v8.2.0 ('World of Adventure') 64bit
    Writing library                          : libebml v1.3.1 + libmatroska v1.4.2
    DURATION                                 : 00:22:53.498000000
    NUMBER_OF_FRAMES                         : 82
    NUMBER_OF_BYTES                          : 296256
    _STATISTICS_WRITING_APP                  : mkvmerge v8.2.0 ('World of Adventure') 64bit
    _STATISTICS_WRITING_DATE_UTC             : 2015-08-31 22:41:01
    _STATISTICS_TAGS                         : BPS DURATION NUMBER_OF_FRAMES NUMBER_OF_BYTES
    
    
    Video
    ID                                       : 1
    Format                                   : AVC
    Format/Info                              : Advanced Video Codec
    Format profile                           : [email protected]
    Format settings, CABAC                   : Yes
    Format settings, ReFrames                : 6 frames
    Codec ID                                 : V_MPEG4/ISO/AVC
    Duration                                 : 24mn 28s
    Bit rate                                 : 2 144 Kbps
    Width                                    : 1 280 pixels
    Height                                   : 720 pixels
    Display aspect ratio                     : 16:9
    Frame rate mode                          : Constant
    Frame rate                               : 23.976 fps
    Color space                              : YUV
    Chroma subsampling                       : 4:2:0
    Bit depth                                : 8 bits
    Scan type                                : Progressive
    Bits/(Pixel*Frame)                       : 0.097
    Stream size                              : 375 MiB (69%)
    Writing library                          : x264 core 146 r2538 121396c
    Encoding settings                        : cabac=1 / ref=6 / deblock=1:1:1 / analyse=0x3:0x113 / me=hex / subme=7 / psy=1 / psy_rd=0.40:0.00 / mixed_ref=1 / me_range=16 / chroma_me=1 / trellis=1 / 8x8dct=1 / cqm=0 / deadzone=21,11 / fast_pskip=1 / chroma_qp_offset=-2 / threads=6 / lookahead_threads=1 / sliced_threads=0 / nr=0 / decimate=1 / interlaced=0 / bluray_compat=0 / constrained_intra=0 / bframes=5 / b_pyramid=2 / b_adapt=1 / b_bias=0 / direct=1 / weightb=1 / open_gop=0 / weightp=2 / keyint=240 / keyint_min=23 / scenecut=40 / intra_refresh=0 / rc_lookahead=40 / rc=crf / mbtree=1 / crf=16.0 / qcomp=0.60 / qpmin=0 / qpmax=69 / qpstep=4 / vbv_maxrate=62500 / vbv_bufsize=78125 / crf_max=0.0 / nal_hrd=none / filler=0 / ip_ratio=1.40 / aq=1:0.60
    Default                                  : Yes
    Forced                                   : No
    
    
    Audio #1
    ID                                       : 2
    Format                                   : AC-3
    Format/Info                              : Audio Coding 3
    Mode extension                           : CM (complete main)
    Format settings, Endianness              : Big
    Codec ID                                 : A_AC3
    Duration                                 : 24mn 28s
    Bit rate mode                            : Constant
    Bit rate                                 : 448 Kbps
    Channel(s)                               : 2 channels
    Channel positions                        : Front: L R
    Sampling rate                            : 48.0 KHz
    Compression mode                         : Lossy
    Stream size                              : 78.4 MiB (14%)
    Language                                 : Japanese
    Default                                  : Yes
    Forced                                   : No
    
    
    Audio #2
    ID                                       : 3
    Format                                   : AC-3
    Format/Info                              : Audio Coding 3
    Mode extension                           : CM (complete main)
    Format settings, Endianness              : Big
    Codec ID                                 : A_AC3
    Duration                                 : 24mn 28s
    Bit rate mode                            : Constant
    Bit rate                                 : 448 Kbps
    Channel(s)                               : 2 channels
    Channel positions                        : Front: L R
    Sampling rate                            : 48.0 KHz
    Compression mode                         : Lossy
    Stream size                              : 78.4 MiB (14%)
    Language                                 : German
    Default                                  : No
    Forced                                   : No
    
    
    Text #1
    ID                                       : 4
    Format                                   : PGS
    Muxing mode                              : zlib
    Codec ID                                 : S_HDMV/PGS
    Codec ID/Info                            : Picture based subtitle format used on BDs/HD-DVDs
    Language                                 : German
    Default                                  : No
    Forced                                   : No
    
    
    Text #2
    ID                                       : 5
    Format                                   : PGS
    Muxing mode                              : zlib
    Codec ID                                 : S_HDMV/PGS
    Codec ID/Info                            : Picture based subtitle format used on BDs/HD-DVDs
    Language                                 : German
    Default                                  : No
    Forced                                   : No







    Magi.The.Labyrinth.of.Magic.German.AC3.DL.1080p.Bl uRay.x264-AST4u | Größe: 25,66 GB | Parts: 135


    Sprache: Deutsch Japanisch | Untertitel: Deutsch



    Video: BluRay | Audio: AC3 2.0 | Format: .mkv / .mp4


    Hoster: UL, SO



    Geschützter Bereich - Bedanke dich beim Poster, um den Bereich sehen zu können
    Hier erfährst Du wie Du Dich bedanken kannst oder werde jetzt Premium Mitglied ab einer Spende von 5€ und erhalte sofortigen Zugriff auf den Downloadbereich!



    NFO
    Code:
    General
    Format                                   : Matroska
    Format version                           : Version 4 / Version 2
    File size                                : 1.01 GiB
    Duration                                 : 24mn 28s
    Overall bit rate                         : 5 916 Kbps
    Encoded date                             : UTC 2015-08-31 22:35:43
    Writing application                      : mkvmerge v8.2.0 ('World of Adventure') 64bit
    Writing library                          : libebml v1.3.1 + libmatroska v1.4.2
    DURATION                                 : 00:22:53.498000000
    NUMBER_OF_FRAMES                         : 82
    NUMBER_OF_BYTES                          : 296256
    _STATISTICS_WRITING_APP                  : mkvmerge v8.2.0 ('World of Adventure') 64bit
    _STATISTICS_WRITING_DATE_UTC             : 2015-08-31 22:35:43
    _STATISTICS_TAGS                         : BPS DURATION NUMBER_OF_FRAMES NUMBER_OF_BYTES
    
    
    Video
    ID                                       : 1
    Format                                   : AVC
    Format/Info                              : Advanced Video Codec
    Format profile                           : [email protected]
    Format settings, CABAC                   : Yes
    Format settings, ReFrames                : 4 frames
    Codec ID                                 : V_MPEG4/ISO/AVC
    Duration                                 : 24mn 28s
    Bit rate                                 : 4 902 Kbps
    Width                                    : 1 920 pixels
    Height                                   : 1 080 pixels
    Display aspect ratio                     : 16:9
    Frame rate mode                          : Constant
    Frame rate                               : 23.976 fps
    Color space                              : YUV
    Chroma subsampling                       : 4:2:0
    Bit depth                                : 8 bits
    Scan type                                : Progressive
    Bits/(Pixel*Frame)                       : 0.099
    Stream size                              : 858 MiB (83%)
    Writing library                          : x264 core 146 r2538 121396c
    Encoding settings                        : cabac=1 / ref=4 / deblock=1:1:1 / analyse=0x3:0x113 / me=hex / subme=7 / psy=1 / psy_rd=0.40:0.00 / mixed_ref=1 / me_range=16 / chroma_me=1 / trellis=1 / 8x8dct=1 / cqm=0 / deadzone=21,11 / fast_pskip=1 / chroma_qp_offset=-2 / threads=6 / lookahead_threads=1 / sliced_threads=0 / nr=0 / decimate=1 / interlaced=0 / bluray_compat=0 / constrained_intra=0 / bframes=5 / b_pyramid=2 / b_adapt=1 / b_bias=0 / direct=1 / weightb=1 / open_gop=0 / weightp=2 / keyint=240 / keyint_min=23 / scenecut=40 / intra_refresh=0 / rc_lookahead=40 / rc=crf / mbtree=1 / crf=16.0 / qcomp=0.60 / qpmin=0 / qpmax=69 / qpstep=4 / vbv_maxrate=62500 / vbv_bufsize=78125 / crf_max=0.0 / nal_hrd=none / filler=0 / ip_ratio=1.40 / aq=1:0.60
    Default                                  : Yes
    Forced                                   : No
    
    
    Audio #1
    ID                                       : 2
    Format                                   : AC-3
    Format/Info                              : Audio Coding 3
    Mode extension                           : CM (complete main)
    Format settings, Endianness              : Big
    Codec ID                                 : A_AC3
    Duration                                 : 24mn 28s
    Bit rate mode                            : Constant
    Bit rate                                 : 448 Kbps
    Channel(s)                               : 2 channels
    Channel positions                        : Front: L R
    Sampling rate                            : 48.0 KHz
    Compression mode                         : Lossy
    Stream size                              : 78.4 MiB (8%)
    Language                                 : Japanese
    Default                                  : Yes
    Forced                                   : No
    
    
    Audio #2
    ID                                       : 3
    Format                                   : AC-3
    Format/Info                              : Audio Coding 3
    Mode extension                           : CM (complete main)
    Format settings, Endianness              : Big
    Codec ID                                 : A_AC3
    Duration                                 : 24mn 28s
    Bit rate mode                            : Constant
    Bit rate                                 : 448 Kbps
    Channel(s)                               : 2 channels
    Channel positions                        : Front: L R
    Sampling rate                            : 48.0 KHz
    Compression mode                         : Lossy
    Stream size                              : 78.4 MiB (8%)
    Language                                 : German
    Default                                  : No
    Forced                                   : No
    
    
    Text #1
    ID                                       : 4
    Format                                   : PGS
    Muxing mode                              : zlib
    Codec ID                                 : S_HDMV/PGS
    Codec ID/Info                            : Picture based subtitle format used on BDs/HD-DVDs
    Language                                 : German
    Default                                  : No
    Forced                                   : No
    
    
    Text #2
    ID                                       : 5
    Format                                   : PGS
    Muxing mode                              : zlib
    Codec ID                                 : S_HDMV/PGS
    Codec ID/Info                            : Picture based subtitle format used on BDs/HD-DVDs
    Language                                 : German
    Default                                  : No
    Forced                                   : No







    Magi.The.Labyrinth.of.Magic.German.DTS.DL.1080p.Bl uRay.x264-AST4u | Größe: 21,32 GB | Parts: 112


    Sprache: Deutsch Japanisch | Untertitel: Deutsch



    Video: BluRay | Audio: DTS | Format: .mkv / .mp4


    Hoster: UL, SO


    Geschützter Bereich - Bedanke dich beim Poster, um den Bereich sehen zu können
    Hier erfährst Du wie Du Dich bedanken kannst oder werde jetzt Premium Mitglied ab einer Spende von 5€ und erhalte sofortigen Zugriff auf den Downloadbereich!



    NFO
    Code:
    General
    Format                                   : Matroska
    Format version                           : Version 4 / Version 2
    File size                                : 1.46 GiB
    Duration                                 : 24mn 28s
    Overall bit rate mode                    : Variable
    Overall bit rate                         : 8 559 Kbps
    Encoded date                             : UTC 2015-08-31 21:51:53
    Writing application                      : mkvmerge v8.2.0 ('World of Adventure') 64bit
    Writing library                          : libebml v1.3.1 + libmatroska v1.4.2
    DURATION                                 : 00:22:53.498000000
    NUMBER_OF_FRAMES                         : 82
    NUMBER_OF_BYTES                          : 296256
    _STATISTICS_WRITING_APP                  : mkvmerge v8.2.0 ('World of Adventure') 64bit
    _STATISTICS_WRITING_DATE_UTC             : 2015-08-31 21:51:53
    _STATISTICS_TAGS                         : BPS DURATION NUMBER_OF_FRAMES NUMBER_OF_BYTES
    
    
    Video
    ID                                       : 1
    Format                                   : AVC
    Format/Info                              : Advanced Video Codec
    Format profile                           : [email protected]
    Format settings, CABAC                   : Yes
    Format settings, ReFrames                : 4 frames
    Codec ID                                 : V_MPEG4/ISO/AVC
    Duration                                 : 24mn 28s
    Width                                    : 1 920 pixels
    Height                                   : 1 080 pixels
    Display aspect ratio                     : 16:9
    Frame rate mode                          : Constant
    Frame rate                               : 23.976 fps
    Color space                              : YUV
    Chroma subsampling                       : 4:2:0
    Bit depth                                : 8 bits
    Scan type                                : Progressive
    Writing library                          : x264 core 146 r2538 121396c
    Encoding settings                        : cabac=1 / ref=4 / deblock=1:1:1 / analyse=0x3:0x113 / me=hex / subme=7 / psy=1 / psy_rd=0.40:0.00 / mixed_ref=1 / me_range=16 / chroma_me=1 / trellis=1 / 8x8dct=1 / cqm=0 / deadzone=21,11 / fast_pskip=1 / chroma_qp_offset=-2 / threads=6 / lookahead_threads=1 / sliced_threads=0 / nr=0 / decimate=1 / interlaced=0 / bluray_compat=0 / constrained_intra=0 / bframes=5 / b_pyramid=2 / b_adapt=1 / b_bias=0 / direct=1 / weightb=1 / open_gop=0 / weightp=2 / keyint=240 / keyint_min=23 / scenecut=40 / intra_refresh=0 / rc_lookahead=40 / rc=crf / mbtree=1 / crf=16.0 / qcomp=0.60 / qpmin=0 / qpmax=69 / qpstep=4 / vbv_maxrate=62500 / vbv_bufsize=78125 / crf_max=0.0 / nal_hrd=none / filler=0 / ip_ratio=1.40 / aq=1:0.60
    Default                                  : Yes
    Forced                                   : No
    
    
    Audio #1
    ID                                       : 2
    Format                                   : DTS
    Format/Info                              : Digital Theater Systems
    Format profile                           : MA / Core
    Mode                                     : 16
    Format settings, Endianness              : Big
    Codec ID                                 : A_DTS
    Duration                                 : 24mn 28s
    Bit rate mode                            : Variable
    Bit rate                                 : Unknown / 768 Kbps
    Channel(s)                               : 2 channels
    Channel positions                        : Front: L R
    Sampling rate                            : 48.0 KHz
    Bit depth                                : 24 bits
    Compression mode                         : Lossless / Lossy
    Language                                 : Japanese
    Default                                  : Yes
    Forced                                   : No
    
    
    Audio #2
    ID                                       : 3
    Format                                   : DTS
    Format/Info                              : Digital Theater Systems
    Format profile                           : MA / Core
    Mode                                     : 16
    Format settings, Endianness              : Big
    Codec ID                                 : A_DTS
    Duration                                 : 24mn 28s
    Bit rate mode                            : Variable
    Bit rate                                 : Unknown / 768 Kbps
    Channel(s)                               : 2 channels
    Channel positions                        : Front: L R
    Sampling rate                            : 48.0 KHz
    Bit depth                                : 24 bits
    Compression mode                         : Lossless / Lossy
    Language                                 : German
    Default                                  : No
    Forced                                   : No
    
    
    Text #1
    ID                                       : 4
    Format                                   : PGS
    Muxing mode                              : zlib
    Codec ID                                 : S_HDMV/PGS
    Codec ID/Info                            : Picture based subtitle format used on BDs/HD-DVDs
    Language                                 : German
    Default                                  : Yes
    Forced                                   : No
    
    
    Text #2
    ID                                       : 5
    Format                                   : PGS
    Muxing mode                              : zlib
    Codec ID                                 : S_HDMV/PGS
    Codec ID/Info                            : Picture based subtitle format used on BDs/HD-DVDs
    Language                                 : German
    Default                                  : No
    Forced                                   : No


    Inaktiver Uploader!

    Alle Re-Upload-Anfragen öffentlich im [Links sind nur für registrierte und aktivierte Nutzer sichtbar. Klicke hier um dich zu registrieren.] posten!

  2. 191 Benutzer sagen Danke:

    Anzeigen

    4myAss (1. August 2016),Akio (24. June 2016),AKira_Hidaka (5. October 2015),alecander (23. December 2015),Alucard1412 (5. March 2016),AngelNine (17. January 2016),ApCeLlonDinG (2. July 2016),arginator (11. January 2016),assa (11. December 2015),atha87 (5. September 2016),Atzinger (20. October 2015),Bad.Attitude (29. November 2015),Batleby (20. August 2016),Bizzy76 (11. June 2016),BK-201 (23. September 2015),BlackDragon333 (24. September 2015),BlackWidow (3. November 2015),Black_ Reaper (7. November 2016),bleach-master (1. October 2015),Blublman (7. December 2015),Bombur (12. December 2015),bra1nbug94 (26. November 2015),brunsdumm (13. December 2015),bumer12 (2. November 2015),Buttercups (30. December 2015),Chyira (26. June 2016),Cloud9019 (25. December 2015),coldbears48 (27. June 2016),Conopas (4. May 2016),Cooky1988 (3. October 2016),Corntendo (29. December 2015),Cú Chulainn (1. November 2015),Dalurin (22. September 2015),Daniel (3. October 2016),Daraku (10. December 2015),darksera (11. January 2016),DarkTerminator (27. March 2016),darkwarrior (7. August 2016),Deedo320 (4. December 2015),demonac (6. November 2016),Denetonne (3. March 2016),derEisige (8. December 2015),DerP0LE (9. November 2015),DevilStyleZ (30. May 2016),Dipack (1. October 2016),dmc4life (25. May 2016),Doktorwayne (12. December 2015),Donquixote (26. September 2015),Draagul (8. February 2016),Dreieckhard (14. December 2015),e4exuberance (19. December 2015),egon1212 (19. September 2015),eraz (3. October 2015),Extraneis (14. December 2015),Feed Me x33 (13. January 2016),Filbo11 (12. October 2015),Flexx7000 (27. February 2016),Gaara (11. March 2016),Garbor (22. February 2016),Genshirou (6. March 2016),gerard123 (17. November 2016),Ghostraven (17. February 2016),Gregy (6. November 2015),Griever (29. December 2015),HannesLN (13. June 2016),harry9x (6. April 2016),HerzogZepar (29. November 2015),Hidikus (9. September 2016),Hinamori309 (14. October 2015),holyhooker111 (28. March 2016),Hyro (24. October 2015),IBlackstar (1. December 2015),iCapuz (29. January 2016),Icke (1. October 2015),Inowan (3. April 2016),insaine (11. May 2016),Intege (7. March 2016),ippo (19. September 2015),JapanischerToast (2. December 2015),Jeycop (24. September 2015),Kalchi (6. November 2016),Katsura (17. April 2016),kei (18. November 2015),Kenny328 (29. January 2016),kevmusic91 (26. April 2016),KingDing15 (30. September 2015),Kira7 (28. December 2015),KiritoDerSchwertKämpfer (7. July 2016),Kouta-chii (8. August 2016),krasserGaul (19. September 2015),Kthulhut (24. September 2016),KuroVitt (7. January 2016),Kuso (8. May 2016),LawMugen (6. January 2016),LEITZ (3. December 2016),Lichtsang (15. December 2015),LinkofLux (9. January 2016),llsnakyll (20. September 2015),Llyrell (18. November 2015),Lupino (30. July 2016),Lusionem2939 (24. July 2016),Lux49 (3. January 2016),majoronee (23. December 2015),Makenshi (29. September 2015),markusdamon5 (12. September 2016),masta.ace (19. September 2015),maximus (14. May 2016),MCRFG (12. December 2015),MegaMacX (31. July 2016),michael187 (23. September 2015),Michih80 (10. November 2015),midnighter (7. October 2015),Miriweth (21. October 2015),misterdsl (11. October 2015),Mitchell (10. January 2016),MooMo (17. December 2015),morpheus243 (19. April 2016),NanaNo7 (28. September 2015),Nasumy (26. August 2016),Near (17. July 2016),Newz2014 (4. May 2016),Neyzu (26. January 2016),Norandas (31. October 2015),Numani (30. November 2015),numbke (23. September 2015),parad0xr (26. October 2015),Patorikku-kun (30. September 2015),piggsylol (30. December 2015),Poocky (9. November 2016),pyronik (7. June 2016),Raidøn (14. August 2016),Raphael96 (18. January 2016),Razyy (23. August 2016),re.tischi (19. December 2015),Reflux (21. November 2015),Rena_Chan (22. March 2016),rice4ever (23. September 2016),robbryjo (27. January 2016),Ronae (18. September 2015),RuffyD (8. August 2016),RyuLelouch (5. November 2015),sabs0686 (19. December 2015),samuuil (29. May 2016),Satiini (30. October 2015),SatoshiKon (21. July 2016),Sceroc21 (3. October 2016),Schattenmagier (16. December 2015),Scorns (29. December 2015),Scorpionlord88 (21. August 2016),Scruffy (12. December 2015),Senseless (31. August 2016),Shabusa (29. September 2015),Shadowa (27. October 2015),ShiboNoTenshi (15. August 2016),Shouma (23. March 2016),Sirenetix (28. June 2016),SourceSeeker (8. October 2015),specialt121 (15. September 2016),swagrid (5. April 2016),TakashiKudo (14. August 2016),Tana-kun (3. December 2015),Tarlysin (17. March 2016),TastyCrysis (1. January 2016),Tekk (14. March 2016),Tex (14. January 2016),therealbarra (14. October 2015),Tidus18 (10. September 2016),tigerhai (2. October 2015),Titanime (11. January 2016),Toblerowner (11. April 2016),Tomoya (3. December 2016),TorbenSonnenStern (19. October 2016),Tquilarius (8. November 2015),Tysar (10. September 2016),T§sseract (10. June 2016),vaniramai (7. February 2016),Vaxes013 (27. September 2015),Vellkon (17. May 2016),Vergil (15. December 2015),vitrax (4. January 2016),Vstrike (23. October 2015),Whiteno1 (2. March 2016),wirschiii (13. March 2016),Xerx3s (28. April 2016),Yaranaika (20. September 2015),Yoshi1982 (28. October 2015),Yumikora (13. February 2016),Zapzerap (16. August 2016),ZeDeRom (21. June 2016),Zeigerful (18. October 2015),zockerfreund (19. June 2016)

Lesezeichen

Berechtigungen

  • Neue Themen erstellen: Nein
  • Themen beantworten: Nein
  • Anhänge hochladen: Nein
  • Beiträge bearbeiten: Nein
  •  

1 2 3 4 5 6 7 8 9 10 11 12 13 14 15 16 17 18 19 20 21 22 23 24 25 26 27 28 29 30 31 32 33 34 35 36 37 38 39 40 41 42 43 44 45 46 47 48 49 50 51 52 53 54 55 56 57 58 59 60 61 62 63 64 65 66 67 68 69 70 71 72 73 74 75 76 77 78 79 80 81 82 83 84 85 86 87 88 89 90 91 92 93 94 95 96 97 98 99 100 101 102 103 104 105 106 107 108 109 110 111 112 113 114 115 116 117 118 119 120 121 122 123 124 125 126 127 128 129 130 131 132 133 134 135 136 137 138 139 140 141 142 143 144 145 146 147 148 149 150 151 152 153 154 155 156 157 158