Ergebnis 1 bis 2 von 2

Thema: Makiba no Shoujo Katri - Das Mädchen von der Farm [Ger-Dub][480p][DVDRip]

Dieser Thread wurde noch nicht bewertet. Bewerte ihn doch, wenn er dir gefällt!
  1. #1
    United we Stand Avatar von 00Ryuji00
    Registriert seit
    Oct 2012
    Beiträge
    3.902
    Punkte
    99.938
    Errungenschaften:
    TomodachisGang LeaderHikikomoriTagger Amateur50000 Erfahrungspunkte

    Makiba no Shoujo Katri - Das Mädchen von der Farm [Ger-Dub][480p][DVDRip]

    Makiba no Shoujo Katri
    牧場の少女カトリ
    Das Mädchen von der Farm
    Katri, Girl of the Meadows



    Kurzbeschreibung:
    Im Jahre 1912, lebt die sechsjährige Katri, zusammen mit ihren Großeltern, auf deren kleinen Bauernhof, in Finnland. Ein großer Tag steht bevor, denn endlich kommt ihre Mutter zurück, die ein Jahr lang als Haushälterin bei Herrschaften gearbeitet hat und ihre kleine Tochter die ganze Zeit nicht besuchen konnte. Das Wiedersehen währt allerdings nur kurz, denn die Mutter muss noch am gleichen Tag wieder zurück und dann für drei lange Jahre fortbleiben, da sie ihren Herrschaften nach Deutschland folgt, wo sie mehr verdienen kann. Danach hofft sie, genug Geld gespart zu haben, um für immer bei ihrer Tochter bleiben zu können. Als Trost für die lange Zeit der Trennung, hat sie ihrer Tochter einen Welpen geschenkt, den Katri sofort ins Herz schließt und Abel tauft.

    Drei Jahre später. Der erste Weltkrieg ist ausgebrochen und Katri hat seit einem Jahr nichts mehr von ihrer Mutter gehört, da die Post aus dem verfeindeten Deutschland nicht mehr durchkommt. Den Großeltern geht es finanziell auch immer schlechter. Um über den Winter zu kommen, müssen sie sogar die Milchkuh verkaufen. In dieser Zeit treibt sich auch ein Bär in der Gegend herum, der die Kühe auf den Weiden reißt. Als ihr Großvater am späten Abend die verkaufte Kuh durch den Wald zu ihrem neuen Besitzer bringen will, stellt sich ihm plötzlich der Bär in den Weg...
    Sprache: Deutsch
    Spieldauer: ~ 24min
    Größe: ~ 285MB
    Episodenanzahl: 49/49
    Format: .avi
    Auflösung: 480p (640x480, 4:3)
    Codec: XviD, MP3
    Gruppe: iND
    Hoster: Uploaded, Share-Online

    Datei-Info.:
    Spoiler
    Code:
    Format                                   : AVI
    Format/Info                              : Audio Video Interleave
    File size                                : 282 MiB
    Duration                                 : 24mn 9s
    Overall bit rate                         : 1 634 Kbps
    
    Video
    ID                                       : 0
    Format                                   : MPEG-4 Visual
    Format profile                           : Advanced [email protected]
    Format settings, BVOP                    : 2
    Format settings, QPel                    : Yes
    Format settings, GMC                     : No warppoints
    Format settings, Matrix                  : Default (H.263)
    Codec ID                                 : XVID
    Codec ID/Hint                            : XviD
    Duration                                 : 24mn 9s
    Bit rate                                 : 1 500 Kbps
    Width                                    : 640 pixels
    Height                                   : 480 pixels
    Display aspect ratio                     : 4:3
    Frame rate                               : 25.000 fps
    Color space                              : YUV
    Chroma subsampling                       : 4:2:0
    Bit depth                                : 8 bits
    Scan type                                : Progressive
    Compression mode                         : Lossy
    Bits/(Pixel*Frame)                       : 0.195
    Stream size                              : 259 MiB (92%)
    Writing library                          : XviD 1.2.1 (UTC 2008-12-04)
    
    Audio
    ID                                       : 1
    Format                                   : MPEG Audio
    Format version                           : Version 1
    Format profile                           : Layer 3
    Mode                                     : Joint stereo
    Mode extension                           : MS Stereo
    Codec ID                                 : 55
    Codec ID/Hint                            : MP3
    Duration                                 : 24mn 9s
    Bit rate mode                            : Constant
    Bit rate                                 : 128 Kbps
    Channel count                            : 2 channels
    Sampling rate                            : 48.0 KHz
    Compression mode                         : Lossy
    Stream size                              : 22.1 MiB (8%)
    Alignment                                : Aligned on interleaves
    Interleave, duration                     : 160 ms (4.00 video frames)
    Interleave, preload duration             : 216 ms
    Title                                    : Katoli01
    Writing library                          : LAME3.98r
    Encoding settings                        : -m j -V 4 -q 3 -lowpass 17 -b 128
    




    Geschützter Bereich - Bedanke dich beim Poster, um den Bereich sehen zu können
    Hier erfährst Du wie Du Dich bedanken kannst oder werde jetzt Premium Mitglied ab einer Spende von 5€ und erhalte sofortigen Zugriff auf den Downloadbereich!
    !!!Alle Anliegen bezüglich Uploads werden nur mit direktem Threadlink zum Angebot bearbeitet!!!

    Re-Uploadanfragen nur per PN - Ihr könnt mir auch Listen schicken

    Re-Uploads erfolgen meist innerhalb 24h, kann aber auch bis zu 7 Tage dauern

    [Links sind nur für registrierte und aktivierte Nutzer sichtbar. Klicke hier um dich zu registrieren.] | [Links sind nur für registrierte und aktivierte Nutzer sichtbar. Klicke hier um dich zu registrieren.] | >[Links sind nur für registrierte und aktivierte Nutzer sichtbar. Klicke hier um dich zu registrieren.]<
    [Links sind nur für registrierte und aktivierte Nutzer sichtbar. Klicke hier um dich zu registrieren.]

  2. 12 Benutzer sagen Danke:

    dreambird1973 (16. January 2016),Feuer (4. July 2015),freakwatcher (1. July 2015),JackyMono (16. February 2016),livia84 (12. October 2016),Meistermagier (17. February 2016),midnighter (30. October 2015),n0b0dy (10. September 2016),nemo (23. July 2016),qooosy (30. June 2015),Ronae (13. August 2016),skylier (5. June 2016)

  3. #2
    United we Stand Avatar von 00Ryuji00
    Registriert seit
    Oct 2012
    Beiträge
    3.902
    Punkte
    99.938
    Errungenschaften:
    TomodachisGang LeaderHikikomoriTagger Amateur50000 Erfahrungspunkte

    AW: Makiba no Shoujo Katri - Das Mädchen von der Farm [Ger-Dub][480p][DVDRip]

    Update: Dateien auf Wunsch wieder online.
    !!!Alle Anliegen bezüglich Uploads werden nur mit direktem Threadlink zum Angebot bearbeitet!!!

    Re-Uploadanfragen nur per PN - Ihr könnt mir auch Listen schicken

    Re-Uploads erfolgen meist innerhalb 24h, kann aber auch bis zu 7 Tage dauern

    [Links sind nur für registrierte und aktivierte Nutzer sichtbar. Klicke hier um dich zu registrieren.] | [Links sind nur für registrierte und aktivierte Nutzer sichtbar. Klicke hier um dich zu registrieren.] | >[Links sind nur für registrierte und aktivierte Nutzer sichtbar. Klicke hier um dich zu registrieren.]<
    [Links sind nur für registrierte und aktivierte Nutzer sichtbar. Klicke hier um dich zu registrieren.]

Lesezeichen

Berechtigungen

  • Neue Themen erstellen: Nein
  • Themen beantworten: Nein
  • Anhänge hochladen: Nein
  • Beiträge bearbeiten: Nein
  •  

1 2 3 4 5 6 7 8 9 10 11 12 13 14 15 16 17 18 19 20 21 22 23 24 25 26 27 28 29 30 31 32 33 34 35 36 37 38 39 40 41 42 43 44 45 46 47 48 49 50 51 52 53 54 55 56 57 58 59 60 61 62 63 64 65 66 67 68 69 70 71 72 73 74 75 76 77 78 79 80 81 82 83 84 85 86 87 88 89 90 91 92 93 94 95 96 97 98 99 100 101 102 103 104 105 106 107 108 109 110 111 112 113 114 115 116 117 118 119 120 121 122 123 124 125 126 127 128 129 130 131 132 133 134 135 136 137 138 139 140 141 142 143 144 145 146 147 148 149 150 151 152 153 154 155 156 157 158