Ergebnis 1 bis 1 von 1

Thema: Najica Dengeki Sakusen [Ger-Jap-Dub][Ger-Sub][552p][DVDRip] - AST4u

Dieser Thread wurde noch nicht bewertet. Bewerte ihn doch, wenn er dir gefällt!
  1. #1
    Uploader Avatar von Filbo11
    Registriert seit
    Jan 2015
    Beiträge
    929
    Punkte
    17.234
    Errungenschaften:
    TomodachisErste Gruppe1 Jahr registriertCreated Album picturesTagger First Class

    Najica Dengeki Sakusen [Ger-Jap-Dub][Ger-Sub][552p][DVDRip] - AST4u

    Najica Dengeki Sakusen
    ナジカ電撃作戦
    Najica Blitz Tactics
    Najica




    Beschreibung

    Die Anime-Serie Najica von Katsuhiko Nishijima handelt von der Duftdesignerin Najica Hiiragi. Sie arbeitet außerdem als Agentin. Najica ist eine Einzelkämpferin.
    Die Firma CRI Cosmetics gibt ihr Aufträge in beiden Bereichen. Nachdem sie das Mädchen Lila aus den Fängen einer geheimen Organisation befreit hat, ist es mit dem Einzelkämpferdasein vorbei.


    Format: mkv
    Dauer: ca. 24 min
    Größe: ca. 360-414 MB (gesamt: 4,73 GB)
    Episodenanzahl: 12/12
    Sprache: Deutsch & Japanisch
    Untertitel: Deutsch
    Group: AST4u
    Hoster: Uploaded.net & Share-Online.biz
    Passwort: filbo11


    Screenshots & MediaInfo

    Spoiler
    [Links sind nur für registrierte und aktivierte Nutzer sichtbar. Klicke hier um dich zu registrieren.]

    Code:
    General
    
    Complete name               : Najica Ep 01 H264 DVDRip ger-jap-dub ger-sub [AST4u].mkv
    Format                      : Matroska
    Format version              : Version 1
    File size                   : 415 MiB
    Duration                    : 23mn 19s
    Overall bit rate            : 2 487 Kbps
    Encoded date                : UTC 2012-05-09 19:18:54
    Writing application         : VirtualDubMod 1.5.10.2 (build 2542/release)
    Writing library             : libebml-0.7.5 & libmatroska-0.7.7
    
    Video
    ID                          : 1
    Format                      : AVC
    Format/Info                 : Advanced Video Codec
    Format profile              : [email protected]
    Format settings, CABAC      : Yes
    Format settings, ReFrames   : 2 frames
    Codec ID                    : V_MS/VFW/FOURCC / H264
    Duration                    : 23mn 19s
    Bit rate                    : 1 582 Kbps
    Width                       : 744 pixels
    Height                      : 552 pixels
    Display aspect ratio        : 4:3
    Frame rate mode             : Constant
    Frame rate                  : 25.000 fps
    Color space                 : YUV
    Chroma subsampling          : 4:2:0
    Bit depth                   : 8 bits
    Scan type                   : Progressive
    Bits/(Pixel*Frame)          : 0.154
    Stream size                 : 257 MiB (62%)
    Writing library             : x264 core 93 r1538bm bd72d46
    Encoding settings           : cabac=1 / ref=1 / deblock=1:0:0 / analyse=0x1:0x131 / me=hex / subme=4 / psy=1 / psy_rd=0.00:0.00 / mixed_ref=0 / me_range=16 / chroma_me=0 / trellis=1 / 8x8dct=0 / cqm=0 / deadzone=21,11 / fast_pskip=1 / chroma_qp_offset=0 / threads=8 / sliced_threads=1 / slices=8 / nr=0 / decimate=1 / interlaced=0 / constrained_intra=0 / bframes=2 / b_pyramid=0 / b_adapt=1 / b_bias=0 / direct=1 / wpredb=1 / wpredp=2 / keyint=250 / keyint_min=25 / scenecut=40 / intra_refresh=0 / rc=2pass / mbtree=0 / bitrate=1582 / ratetol=1.0 / qcomp=0.60 / qpmin=10 / qpmax=51 / qpstep=4 / cplxblur=20.0 / qblur=0.5 / ip_ratio=1.40 / pb_ratio=1.30 / aq=1:1.00
    Language                    : English
    Default                     : Yes
    Forced                      : No
    
    Audio #1
    ID                          : 2
    Format                      : AC-3
    Format/Info                 : Audio Coding 3
    Mode extension              : CM (complete main)
    Format settings, Endianness : Big
    Codec ID                    : A_AC3
    Duration                    : 23mn 19s
    Bit rate mode               : Constant
    Bit rate                    : 448 Kbps
    Channel(s)                  : 6 channels
    Channel positions           : Front: L C R, Side: L R, LFE
    Sampling rate               : 48.0 KHz
    Frame rate                  : 31.250 fps (1536 spf)
    Compression mode            : Lossy
    Stream size                 : 74.7 MiB (18%)
    Language                    : English
    Default                     : Yes
    Forced                      : No
    
    Audio #2
    ID                          : 3
    Format                      : AC-3
    Format/Info                 : Audio Coding 3
    Mode extension              : CM (complete main)
    Format settings, Endianness : Big
    Codec ID                    : A_AC3
    Duration                    : 23mn 19s
    Bit rate mode               : Constant
    Bit rate                    : 448 Kbps
    Channel(s)                  : 6 channels
    Channel positions           : Front: L C R, Side: L R, LFE
    Sampling rate               : 48.0 KHz
    Frame rate                  : 31.250 fps (1536 spf)
    Compression mode            : Lossy
    Stream size                 : 74.7 MiB (18%)
    Language                    : English
    Default                     : No
    Forced                      : No
    
    Menu
    00:00:00.000                : Ch. 01 @ 00:00:00
    00:01:48.600                : Ch. 02 @ 00:01:48
    00:05:21.000                : Ch. 03 @ 00:05:21
    00:11:18.600                : Ch. 04 @ 00:11:18
    00:15:57.000                : Ch. 05 @ 00:15:57


    Alle Mirrors untereinander kompatibel
    Folgen einzeln ladbar
    Subs liegen Extra bei.


    Download

    Geschützter Bereich - Bedanke dich beim Poster, um den Bereich sehen zu können
    Hier erfährst Du wie Du Dich bedanken kannst oder werde jetzt Premium Mitglied ab einer Spende von 5€ und erhalte sofortigen Zugriff auf den Downloadbereich!



    [Links sind nur für registrierte und aktivierte Nutzer sichtbar. Klicke hier um dich zu registrieren.]

    Ich wäre allen sehr dankbar, die mir gravierende Fehler in meinen Releases per PN melden

  2. 31 Benutzer sagen Danke:

    Aluaran (7. January 2016),andyb90 (8. January 2016),Asuka Langley (17. January 2016),curse2302 (8. January 2016),Cy_Baer (6. January 2016),dacheff (7. January 2016),Draagul (30. January 2016),egon1212 (23. April 2016),EngelEatos (8. April 2016),freakwatcher (8. January 2016),GammaWar (15. January 2016),Ghostraven (6. January 2016),heikobaer (6. January 2016),katey01 (1. February 2016),killer7977 (6. January 2016),LawrenceKraft (7. January 2016),manuel4193 (6. January 2016),midnighter (25. January 2016),Mr.Classic (9. January 2016),MX-sk (19. June 2016),old nick (6. January 2016),Over (8. January 2016),Paulus (7. January 2016),prinzvegeta (31. January 2016),samuuil (29. May 2016),Scorpionlord88 (27. March 2016),Seishin (4. February 2016),Tarlysin (6. January 2016),Tzi (6. January 2016),xeltzber (21. May 2016),xXGaldorXx (26. January 2016)

Stichworte

Lesezeichen

Berechtigungen

  • Neue Themen erstellen: Nein
  • Themen beantworten: Nein
  • Anhänge hochladen: Nein
  • Beiträge bearbeiten: Nein
  •  

1 2 3 4 5 6 7 8 9 10 11 12 13 14 15 16 17 18 19 20 21 22 23 24 25 26 27 28 29 30 31 32 33 34 35 36 37 38 39 40 41 42 43 44 45 46 47 48 49 50 51 52 53 54 55 56 57 58 59 60 61 62 63 64 65 66 67 68 69 70 71 72 73 74 75 76 77 78 79 80 81 82 83 84 85 86 87 88 89 90 91 92 93 94 95 96 97 98 99 100 101 102 103 104 105 106 107 108 109 110 111 112 113 114 115 116 117 118 119 120 121 122 123 124 125 126 127 128 129 130 131 132 133 134 135 136 137 138 139 140 141 142 143 144 145 146 147 148 149 150 151 152 153 154 155 156 157 158