Ergebnis 1 bis 1 von 1

Thema: Plastic Little [DVD-Rip][ENG, FRE, GER, ITA, JAP, RUS Dub][ENG, GER, RUS Sub]

Dieser Thread wurde noch nicht bewertet. Bewerte ihn doch, wenn er dir gefällt!
  1. #1
    Freigeschalteter Otaku Avatar von Roku6
    Registriert seit
    Dec 2014
    Beiträge
    45
    Punkte
    2.326
    Errungenschaften:
    1000 ErfahrungspunkteHikikomori

    Plastic Little [DVD-Rip][ENG, FRE, GER, ITA, JAP, RUS Dub][ENG, GER, RUS Sub]

    Plastic Little
    プラスチックリトル






    Kurzbeschreibung:
    Die siebzehnjährige Tita ist Captain der Cha-Cha-Maru, eines Pet-Shop-Hunter-Schiffes, welches Meerestiere fängt und auf anderen Planeten verkauft. Eigentlich hat sie auf dem Wasserplaneten Jietta ein angenehmes und sorgenfreies Leben. Doch dann stolpert sie eines Tages über die junge Elize, die gerade von einer Söldnertruppe gejagt wird. Kurzentschlossen hilft ihr Tita und nimmt sie mit auf die Cha-Cha-Maru. Dort erfährt sie, dass Elize die Tochter des vom Militär ermordeten Wissenschaftlers Nalerov ist und dass sie ein schreckliches Geheimnis mit sich trägt. Von diesem Zeitpunkt an befinden sich nicht nur Tita und Elize, sondern auch der Rest der Mannschaft in höchster Lebensgefahr, denn der machthungrige Gaizel mit seinen brutalen Söldnern kennt keine Skrupel...
    [Links sind nur für registrierte und aktivierte Nutzer sichtbar. Klicke hier um dich zu registrieren.]

    Sprache: ENG, FRE, GER, ITA, JAP, RUS
    Untertitel: ENG, GER, RUS
    Spieldauer: 47min
    Größe: 672MB
    Episodenanzahl: 1/1
    Format: .mkv
    Auflösung: 720x544
    Source: DVD
    Codec: MPEG-4/XviD
    Group: Crono
    Hoster: S-O, ul.to


    Datei Info:
    Spoiler
    Code:
    Plastic Little [ger-jap-eng-fre-ita-rus Dub][ger-eng-rus Sub].mkv
    Format                      : Matroska
    Format version              : Version 2
    File size                   : 672 MiB
    Duration                    : 47mn 25s
    Overall bit rate mode       : Variable
    Overall bit rate            : 1 982 Kbps
    Encoded date                : UTC 2012-08-03 06:39:34
    Writing application         : mkvmerge v4.8.0 ('I Got The...') gebaut am May 24 2011 03:12:58
    Writing library             : libebml v1.2.0 + libmatroska v1.1.0
    
    Video
    ID                          : 1
    Format                      : MPEG-4 Visual
    Format profile              : Advanced [email protected]
    Format settings, BVOP       : 3
    Format settings, QPel       : No
    Format settings, GMC        : 3 warppoints
    Format settings, Matrix     : Default (H.263)
    Codec ID                    : V_MS/VFW/FOURCC / XVID
    Codec ID/Hint               : XviD
    Duration                    : 47mn 25s
    Bit rate                    : 1 219 Kbps
    Width                       : 720 pixels
    Height                      : 544 pixels
    Display aspect ratio        : 4:3
    Frame rate mode             : Constant
    Frame rate                  : 29.970 fps
    Color space                 : YUV
    Chroma subsampling          : 4:2:0
    Bit depth                   : 8 bits
    Scan type                   : Progressive
    Compression mode            : Lossy
    Bits/(Pixel*Frame)          : 0.104
    Stream size                 : 413 MiB (62%)
    Writing library             : XviD 1.2.1 (UTC 2008-12-04)
    Default                     : Yes
    Forced                      : No
    
    Audio #1
    ID                          : 2
    Format                      : MPEG Audio
    Format version              : Version 1
    Format profile              : Layer 3
    Muxing mode                 : Header stripping
    Codec ID                    : A_MPEG/L3
    Codec ID/Hint               : MP3
    Duration                    : 47mn 25s
    Bit rate mode               : Variable
    Bit rate                    : 121 Kbps
    Nominal bit rate            : 128 Kbps
    Channel(s)                  : 2 channels
    Sampling rate               : 48.0 KHz
    Compression mode            : Lossy
    Stream size                 : 41.0 MiB (6%)
    Writing library             : LAME3.98r
    Encoding settings           : -m s -V 4 -q 2 -lowpass 17 --abr 128
    Language                    : German
    Default                     : Yes
    Forced                      : No
    
    Audio #2
    ID                          : 3
    Format                      : MPEG Audio
    Format version              : Version 1
    Format profile              : Layer 3
    Muxing mode                 : Header stripping
    Codec ID                    : A_MPEG/L3
    Codec ID/Hint               : MP3
    Duration                    : 47mn 25s
    Bit rate mode               : Variable
    Bit rate                    : 120 Kbps
    Nominal bit rate            : 128 Kbps
    Channel(s)                  : 2 channels
    Sampling rate               : 48.0 KHz
    Compression mode            : Lossy
    Stream size                 : 40.6 MiB (6%)
    Writing library             : LAME3.98r
    Encoding settings           : -m s -V 4 -q 2 -lowpass 17 --abr 128
    Language                    : Japanese
    Default                     : No
    Forced                      : No
    
    Audio #3
    ID                          : 4
    Format                      : MPEG Audio
    Format version              : Version 1
    Format profile              : Layer 3
    Muxing mode                 : Header stripping
    Codec ID                    : A_MPEG/L3
    Codec ID/Hint               : MP3
    Duration                    : 47mn 25s
    Bit rate mode               : Variable
    Bit rate                    : 120 Kbps
    Nominal bit rate            : 128 Kbps
    Channel(s)                  : 2 channels
    Sampling rate               : 48.0 KHz
    Compression mode            : Lossy
    Stream size                 : 40.8 MiB (6%)
    Writing library             : LAME3.98r
    Encoding settings           : -m s -V 4 -q 2 -lowpass 17 --abr 128
    Language                    : English
    Default                     : No
    Forced                      : No
    
    Audio #4
    ID                          : 5
    Format                      : MPEG Audio
    Format version              : Version 1
    Format profile              : Layer 3
    Muxing mode                 : Header stripping
    Codec ID                    : A_MPEG/L3
    Codec ID/Hint               : MP3
    Duration                    : 47mn 25s
    Bit rate mode               : Variable
    Bit rate                    : 121 Kbps
    Nominal bit rate            : 128 Kbps
    Channel(s)                  : 2 channels
    Sampling rate               : 48.0 KHz
    Compression mode            : Lossy
    Stream size                 : 41.2 MiB (6%)
    Writing library             : LAME3.98r
    Encoding settings           : -m s -V 4 -q 2 -lowpass 17 --abr 128
    Language                    : French
    Default                     : No
    Forced                      : No
    
    Audio #5
    ID                          : 6
    Format                      : MPEG Audio
    Format version              : Version 1
    Format profile              : Layer 3
    Muxing mode                 : Header stripping
    Codec ID                    : A_MPEG/L3
    Codec ID/Hint               : MP3
    Duration                    : 47mn 21s
    Bit rate mode               : Variable
    Bit rate                    : 121 Kbps
    Nominal bit rate            : 128 Kbps
    Channel(s)                  : 2 channels
    Sampling rate               : 44.1 KHz
    Compression mode            : Lossy
    Stream size                 : 40.9 MiB (6%)
    Writing library             : LAME3.98r
    Encoding settings           : -m s -V 4 -q 2 -lowpass 17 --abr 128
    Language                    : Italian
    Default                     : No
    Forced                      : No
    
    Audio #6
    ID                          : 7
    Format                      : MPEG Audio
    Format version              : Version 1
    Format profile              : Layer 3
    Muxing mode                 : Header stripping
    Codec ID                    : A_MPEG/L3
    Codec ID/Hint               : MP3
    Duration                    : 47mn 24s
    Bit rate mode               : Variable
    Bit rate                    : 121 Kbps
    Nominal bit rate            : 128 Kbps
    Channel(s)                  : 2 channels
    Sampling rate               : 48.0 KHz
    Compression mode            : Lossy
    Stream size                 : 40.9 MiB (6%)
    Writing library             : LAME3.98r
    Encoding settings           : -m s -V 4 -q 2 -lowpass 17 --abr 128
    Language                    : Russian
    Default                     : No
    Forced                      : No
    
    Text #1
    ID                          : 8
    Format                      : VobSub
    Muxing mode                 : zlib
    Codec ID                    : S_VOBSUB
    Codec ID/Info               : The same subtitle format used on DVDs
    Language                    : German
    Default                     : Yes
    Forced                      : No
    
    Text #2
    ID                          : 9
    Format                      : VobSub
    Muxing mode                 : zlib
    Codec ID                    : S_VOBSUB
    Codec ID/Info               : The same subtitle format used on DVDs
    Language                    : English
    Default                     : No
    Forced                      : No
    
    Text #3
    ID                          : 10
    Format                      : ASS
    Codec ID                    : S_TEXT/ASS
    Codec ID/Info               : Advanced Sub Station Alpha
    Compression mode            : Lossless
    Language                    : Russian
    Default                     : No
    Forced                      : No
    
    Text #4
    ID                          : 11
    Format                      : VobSub
    Muxing mode                 : zlib
    Codec ID                    : S_VOBSUB
    Codec ID/Info               : The same subtitle format used on DVDs
    Default                     : No
    Forced                      : No





    Geschützter Bereich - Bedanke dich beim Poster, um den Bereich sehen zu können
    Hier erfährst Du wie Du Dich bedanken kannst oder werde jetzt Premium Mitglied ab einer Spende von 5€ und erhalte sofortigen Zugriff auf den Downloadbereich!

  2. 48 Benutzer sagen Danke:

    Akio (1. November 2015),Akulti (4. January 2015),Aniload (10. September 2015),animefan84 (5. January 2015),AniStar (27. November 2015),aquarius (24. February 2015),Blackdragon1702 (24. November 2015),chris1989 (6. January 2015),derbwoy (1. July 2015),DoctorDorian (6. January 2015),egon1212 (10. August 2015),Er4s3r (5. July 2015),Exalderan (16. January 2015),Exede (4. January 2015),farmerjoe (4. January 2015),Filbo11 (17. January 2016),frankra (11. June 2016),freakwatcher (5. January 2015),GaZettE (17. June 2015),GhostHunterD_inactive (16. March 2015),Ghostraven (17. October 2015),Grave Baker (4. January 2015),Hisamaki (23. January 2015),Jinnay (4. January 2015),kainfx (7. January 2015),Kilian (15. April 2016),McFly4711 (6. April 2015),meyno (3. March 2015),midnighter (5. January 2015),Mitchell (10. January 2015),Mosh (17. January 2016),Mörps (6. January 2015),nabou (18. January 2015),nemo (14. February 2015),Paulus (5. January 2015),prinzvegeta (20. June 2015),qenda (15. June 2015),Retro (5. January 2015),Ronae (4. January 2015),SantaKlaus (11. July 2016),Seishin (14. May 2015),Snake_at_web (12. February 2015),SnowCat (6. January 2015),Superzorro (4. January 2015),sweetpunky (4. January 2015),Terraner (7. July 2016),Tylor (25. January 2016),xelli_inactive (17. April 2015)

Lesezeichen

Berechtigungen

  • Neue Themen erstellen: Nein
  • Themen beantworten: Nein
  • Anhänge hochladen: Nein
  • Beiträge bearbeiten: Nein
  •  

1 2 3 4 5 6 7 8 9 10 11 12 13 14 15 16 17 18 19 20 21 22 23 24 25 26 27 28 29 30 31 32 33 34 35 36 37 38 39 40 41 42 43 44 45 46 47 48 49 50 51 52 53 54 55 56 57 58 59 60 61 62 63 64 65 66 67 68 69 70 71 72 73 74 75 76 77 78 79 80 81 82 83 84 85 86 87 88 89 90 91 92 93 94 95 96 97 98 99 100 101 102 103 104 105 106 107 108 109 110 111 112 113 114 115 116 117 118 119 120 121 122 123 124 125 126 127 128 129 130 131 132 133 134 135 136 137 138 139 140 141 142 143 144 145 146 147 148 149 150 151 152 153 154 155 156 157 158