Ergebnis 1 bis 1 von 1

Thema: RahXephon [Ger-Jap-Dub][Ger-Sub][1080p][BluRay]-TvR

Dieser Thread wurde noch nicht bewertet. Bewerte ihn doch, wenn er dir gefällt!
  1. #1
    United we Stand Avatar von 00Ryuji00
    Registriert seit
    Oct 2012
    Beiträge
    3.902
    Punkte
    100.019
    Errungenschaften:
    TomodachisGang LeaderHikikomoriTagger Amateur50000 Erfahrungspunkte

    RahXephon [Ger-Jap-Dub][Ger-Sub][1080p][BluRay]-TvR


    RahXephon
    ラーゼフォン






    Kurzbeschreibung:
    Zitat Zitat von AniSearch.com
    Wir schreiben das Jahr 2012. Die Bevölkerung der Welt beträgt knappe 6 Millionen Menschen. Amerika, Europa, Asien, Afrika, Australien - alle wurden sie ausradiert. Nur Tokio und einige kleinere Teile Japans existieren noch.

    Als Tokio überraschend angegriffen wird, ist Kamina Ayato plötzlich auf sich alleine gestellt. Geführt von der mysteriösen Mishima Reika stößt er tief unter Tokio auf einen geheimen Tempel und den Ursprung RahXephons, aber was hat es mit diesem riesigen Mecha auf sich? Was hat gerade Ayato mit ihm zu tun und welche Geheimnisse verbirgt Reika noch?


    Spieldauer: 23min
    Genre: Actiondrama
    Nebengenres: Action, Drama, Mecha, Mystery, Romanze, Scifi
    Jahr: 2002
    Sprache: Deutsch, Japanisch
    Untertitel: Deutsch
    Größe pro Folge: ~896 MiB
    Episodenanzahl: 26/26
    Format: MKV
    Auflösung: 1080p (4:3)
    Videocodec: x264 (AVC)
    Audiocodec: AC-3
    Releasegruppe: TvR
    Hoster: Share-Online, Uploaded


    MediaInfo
    Code:
    
    Format                                   : Matroska
    Format version                           : Version 4 / Version 2
    File size                                : 896 MiB
    Duration                                 : 23mn 30s
    Overall bit rate                         : 5 325 Kbps
    Encoded date                             : UTC 2016-02-22 11:03:37
    Writing application                      : mkvmerge v7.8.0 ('River Man') 64bit built on Mar 27 2015 16:31:37
    Writing library                          : libebml v1.3.1 + libmatroska v1.4.2
    Attachements                             : tvr-rahxephon-s01-1080p.nfo
    
    Video
    ID                                       : 1
    Format                                   : AVC
    Format/Info                              : Advanced Video Codec
    Format profile                           : [email protected]
    Format settings, CABAC                   : Yes
    Format settings, ReFrames                : 4 frames
    Codec ID                                 : V_MPEG4/ISO/AVC
    Duration                                 : 23mn 30s
    Bit rate                                 : 4 427 Kbps
    Width                                    : 1 436 pixels
    Height                                   : 1 080 pixels
    Display aspect ratio                     : 4:3
    Frame rate mode                          : Constant
    Frame rate                               : 23.976 fps
    Color space                              : YUV
    Chroma subsampling                       : 4:2:0
    Bit depth                                : 8 bits
    Scan type                                : Progressive
    Bits/(Pixel*Frame)                       : 0.119
    Stream size                              : 727 MiB (81%)
    Title                                    : RahXephon - S01E01 - Angriff auf die Hauptstadt
    Writing library                          : x264 core 148 r2638 7599210
    Encoding settings                        : cabac=1 / ref=4 / deblock=1:-1:-1 / analyse=0x3:0x113 / me=umh / subme=10 / psy=1 / psy_rd=1.20:0.00 / mixed_ref=1 / me_range=32 / chroma_me=1 / trellis=2 / 8x8dct=1 / cqm=0 / deadzone=21,11 / fast_pskip=1 / chroma_qp_offset=-2 / threads=8 / lookahead_threads=1 / sliced_threads=0 / nr=0 / decimate=0 / interlaced=0 / bluray_compat=0 / constrained_intra=0 / bframes=5 / b_pyramid=2 / b_adapt=2 / b_bias=0 / direct=3 / weightb=1 / open_gop=0 / weightp=2 / keyint=240 / keyint_min=23 / scenecut=40 / intra_refresh=0 / rc_lookahead=50 / rc=2pass / mbtree=1 / bitrate=4427 / ratetol=1.0 / qcomp=0.80 / qpmin=10 / qpmax=51 / qpstep=4 / cplxblur=20.0 / qblur=0.5 / vbv_maxrate=38000 / vbv_bufsize=38000 / nal_hrd=none / filler=0 / ip_ratio=1.20 / aq=1:0.60
    Language                                 : Japanese
    Default                                  : Yes
    Forced                                   : No
    Color range                              : Limited
    Color primaries                          : BT.709
    Transfer characteristics                 : BT.709
    Matrix coefficients                      : BT.709
    
    Audio #1
    ID                                       : 2
    Format                                   : AC-3
    Format/Info                              : Audio Coding 3
    Mode extension                           : CM (complete main)
    Format settings, Endianness              : Big
    Codec ID                                 : A_AC3
    Duration                                 : 23mn 30s
    Bit rate mode                            : Constant
    Bit rate                                 : 448 Kbps
    Channel(s)                               : 6 channels
    Channel positions                        : Front: L C R, Side: L R, LFE
    Sampling rate                            : 48.0 KHz
    Compression mode                         : Lossy
    Stream size                              : 75.4 MiB (8%)
    Title                                    : AC3 5.1 @ 448 kbps
    Language                                 : German
    Default                                  : Yes
    Forced                                   : No
    
    Audio #2
    ID                                       : 3
    Format                                   : AC-3
    Format/Info                              : Audio Coding 3
    Mode extension                           : CM (complete main)
    Format settings, Endianness              : Big
    Codec ID                                 : A_AC3
    Duration                                 : 23mn 30s
    Bit rate mode                            : Constant
    Bit rate                                 : 448 Kbps
    Channel(s)                               : 2 channels
    Channel positions                        : Front: L R
    Sampling rate                            : 48.0 KHz
    Compression mode                         : Lossy
    Stream size                              : 75.4 MiB (8%)
    Title                                    : AC3 2.0 @ 448 kbps
    Language                                 : Japanese
    Default                                  : No
    Forced                                   : No
    
    Text #1
    ID                                       : 4
    Format                                   : UTF-8
    Codec ID                                 : S_TEXT/UTF8
    Codec ID/Info                            : UTF-8 Plain Text
    Title                                    : Forced SRT
    Language                                 : German
    Default                                  : Yes
    Forced                                   : Yes
    
    Text #2
    ID                                       : 5
    Format                                   : UTF-8
    Codec ID                                 : S_TEXT/UTF8
    Codec ID/Info                            : UTF-8 Plain Text
    Title                                    : Full SRT
    Language                                 : German
    Default                                  : No
    Forced                                   : No
    
    Menu
    00:00:00.000                             : en:Opening
    00:01:25.422                             : en:Act 1
    00:10:34.333                             : en:Act 2
    00:21:30.212                             : en:Ending
    00:23:00.651                             : en:Preview
    
    




    Geschützter Bereich - Bedanke dich beim Poster, um den Bereich sehen zu können
    Hier erfährst Du wie Du Dich bedanken kannst oder werde jetzt Premium Mitglied ab einer Spende von 5€ und erhalte sofortigen Zugriff auf den Downloadbereich!

    [Links sind nur für registrierte und aktivierte Nutzer sichtbar. Klicke hier um dich zu registrieren.]
    !!!Alle Anliegen bezüglich Uploads werden nur mit direktem Threadlink zum Angebot bearbeitet!!!

    Re-Uploadanfragen nur per PN - Ihr könnt mir auch Listen schicken

    Re-Uploads erfolgen meist innerhalb 24h, kann aber auch bis zu 7 Tage dauern

    [Links sind nur für registrierte und aktivierte Nutzer sichtbar. Klicke hier um dich zu registrieren.] | [Links sind nur für registrierte und aktivierte Nutzer sichtbar. Klicke hier um dich zu registrieren.] | >[Links sind nur für registrierte und aktivierte Nutzer sichtbar. Klicke hier um dich zu registrieren.]<
    [Links sind nur für registrierte und aktivierte Nutzer sichtbar. Klicke hier um dich zu registrieren.]

  2. 24 Benutzer sagen Danke:

    Amonzion (26. October 2016),andyb90 (2. March 2016),Asuka Langley (3. March 2016),brunsdumm (2. March 2016),chopper23 (2. March 2016),CyberReXxX (8. March 2016),darkangel92 (31. May 2016),egon1212 (21. April 2016),Evilon (5. March 2016),GiftGasBaer (8. March 2016),Hiki (15. August 2016),LordMecha (26. April 2016),MCRFG (12. March 2016),McZeRo (5. July 2016),midnighter (16. March 2016),NanaNo7 (3. June 2016),NUVAKWAHU (4. July 2016),samuuil (29. May 2016),Scorns (7. March 2016),takitoko81 (10. March 2016),tigerhai (2. March 2016),Wastl (4. March 2016),Wides (2. March 2016),zoe#449 (2. March 2016)

Lesezeichen

Berechtigungen

  • Neue Themen erstellen: Nein
  • Themen beantworten: Nein
  • Anhänge hochladen: Nein
  • Beiträge bearbeiten: Nein
  •  

1 2 3 4 5 6 7 8 9 10 11 12 13 14 15 16 17 18 19 20 21 22 23 24 25 26 27 28 29 30 31 32 33 34 35 36 37 38 39 40 41 42 43 44 45 46 47 48 49 50 51 52 53 54 55 56 57 58 59 60 61 62 63 64 65 66 67 68 69 70 71 72 73 74 75 76 77 78 79 80 81 82 83 84 85 86 87 88 89 90 91 92 93 94 95 96 97 98 99 100 101 102 103 104 105 106 107 108 109 110 111 112 113 114 115 116 117 118 119 120 121 122 123 124 125 126 127 128 129 130 131 132 133 134 135 136 137 138 139 140 141 142 143 144 145 146 147 148 149 150 151 152 153 154 155 156 157 158